<?xml version="1.0" standalone="no"?>
<!DOCTYPE svg PUBLIC "-//W3C//DTD SVG 1.1//EN" "http://www.w3.org/Graphics/SVG/1.1/DTD/svg11.dtd" >
<svg>
<metadata>
Created by FontForge 20120731 at Sat Jun 29 14:35:31 2019
 By www
Copyright (c) 2012 by Eduardo Manso. All rights reserved.
</metadata>
<defs>
<font id="CiutadellaW04-Lt" horiz-adv-x="494" >
  <font-face 
    font-family="CiutadellaW04-Lt"
    font-weight="300"
    font-stretch="normal"
    units-per-em="1000"
    panose-1="2 0 0 0 0 0 0 0 0 0"
    ascent="750"
    descent="-250"
    x-height="488"
    cap-height="657"
    bbox="-179 -201 1370 864"
    underline-thickness="50"
    underline-position="-100"
    unicode-range="U+000D-FB05"
  />
<missing-glyph horiz-adv-x="841" 
d="M421 236l-92 -92q-12 -12 -21 -12q-11 0 -21 12l-51 52q-11 11 -11 19q0 10 12 21l92 92l-92 92q-13 12 -13 22q0 8 11 19l51 52q13 11 21 11q10 0 22 -12l92 -92l92 92q13 13 22 13q8 0 19 -11l52 -51q11 -13 11 -22q0 -11 -12 -21l-92 -92l92 -92q12 -14 12 -21
q0 -11 -12 -21l-52 -51q-11 -11 -19 -11q-11 0 -21 12zM80 328q0 70 26.5 132t73 108t108 72.5t132.5 26.5q70 0 132 -26.5t108.5 -72.5t73 -108t26.5 -132q0 -71 -27 -132.5t-73 -107t-108.5 -72t-132.5 -26.5q-71 0 -132.5 26.5t-107.5 72t-72.5 107t-26.5 132.5zM128 328
q0 -61 22.5 -114.5t62 -93t92.5 -62.5t114 -23t114 23t92.5 62.5t62.5 93t23 114.5t-22.5 114.5t-62 93.5t-92.5 63t-114 23t-114 -23t-92.5 -63t-62.5 -93.5t-23 -114.5z" />
    <glyph glyph-name=".notdef" horiz-adv-x="841" 
d="M421 236l-92 -92q-12 -12 -21 -12q-11 0 -21 12l-51 52q-11 11 -11 19q0 10 12 21l92 92l-92 92q-13 12 -13 22q0 8 11 19l51 52q13 11 21 11q10 0 22 -12l92 -92l92 92q13 13 22 13q8 0 19 -11l52 -51q11 -13 11 -22q0 -11 -12 -21l-92 -92l92 -92q12 -14 12 -21
q0 -11 -12 -21l-52 -51q-11 -11 -19 -11q-11 0 -21 12zM80 328q0 70 26.5 132t73 108t108 72.5t132.5 26.5q70 0 132 -26.5t108.5 -72.5t73 -108t26.5 -132q0 -71 -27 -132.5t-73 -107t-108.5 -72t-132.5 -26.5q-71 0 -132.5 26.5t-107.5 72t-72.5 107t-26.5 132.5zM128 328
q0 -61 22.5 -114.5t62 -93t92.5 -62.5t114 -23t114 23t92.5 62.5t62.5 93t23 114.5t-22.5 114.5t-62 93.5t-92.5 63t-114 23t-114 -23t-92.5 -63t-62.5 -93.5t-23 -114.5z" />
    <glyph glyph-name="glyph1" horiz-adv-x="0" 
 />
    <glyph glyph-name="glyph1" horiz-adv-x="0" 
 />
    <glyph glyph-name="uni000D" unicode="&#xd;" horiz-adv-x="0" 
 />
    <glyph glyph-name="space" unicode=" " horiz-adv-x="220" 
 />
    <glyph glyph-name="exclam" unicode="!" horiz-adv-x="228" 
d="M130 158h-32l-11 330v169h54v-169zM74 30q0 17 11.5 29t28.5 12t29 -12t12 -29t-12 -28.5t-29 -11.5t-28.5 11.5t-11.5 28.5z" />
    <glyph glyph-name="quotedbl" unicode="&#x22;" horiz-adv-x="288" 
d="M119 657v-71q0 -11 -1 -25l-2 -28t-2.5 -26.5t-2.5 -21.5l-7 -58h-21l-7 58q-1 9 -2.5 21.5t-2.5 26.5l-2 28t-1 25v71h51zM220 657v-71q0 -11 -1 -25l-2 -28t-2.5 -26.5t-2.5 -21.5l-7 -58h-21l-7 58q-1 9 -2.5 21.5t-2.5 26.5l-2 28t-1 25v71h51z" />
    <glyph glyph-name="numbersign" unicode="#" horiz-adv-x="649" 
d="M492 488h109v-45h-118l-42 -229h130v-45h-139l-31 -169h-48l31 169h-179l-31 -169h-48l31 169h-109v45h118l42 229h-130v45h139l31 169h48l-31 -169h179l31 169h48zM214 214h179l42 229h-179z" />
    <glyph glyph-name="dollar" unicode="$" horiz-adv-x="492" 
d="M382 480v15q0 27 -9 50t-26 40t-42.5 27t-58.5 10q-66 0 -102 -31.5t-36 -80.5q0 -40 22.5 -66.5t51.5 -39.5l116 -50q24 -11 50 -24.5t47 -34t34.5 -49.5t13.5 -70q0 -81 -48 -129.5t-126 -55.5v-99h-47v99q-79 7 -126.5 53.5t-47.5 121.5v13h50v-17q0 -27 10 -50
t28.5 -40t46 -27t62.5 -10q70 0 108.5 38.5t38.5 96.5q0 32 -10.5 54t-27.5 37.5t-39 26.5t-45 22l-90 40q-23 10 -45 23.5t-39 32.5t-27.5 43.5t-10.5 56.5q0 68 45.5 110.5t118.5 49.5v99h47v-99q73 -7 118 -53.5t45 -121.5v-11h-50z" />
    <glyph glyph-name="percent" unicode="%" horiz-adv-x="619" 
d="M98 432q0 -29 17.5 -48.5t49.5 -19.5t49.5 19.5t17.5 48.5v131q0 29 -17.5 48.5t-49.5 19.5t-49.5 -19.5t-17.5 -48.5v-131zM274 434q0 -49 -30.5 -77.5t-78.5 -28.5q-49 0 -79 28.5t-30 77.5v127q0 49 30 77.5t79 28.5q48 0 78.5 -28.5t30.5 -77.5v-127zM482 657h52
l-201 -329l-197 -328h-52l201 328zM387 94q0 -29 17.5 -48.5t49.5 -19.5t49.5 19.5t17.5 48.5v131q0 29 -17.5 48.5t-49.5 19.5t-49.5 -19.5t-17.5 -48.5v-131zM563 96q0 -49 -30.5 -77.5t-78.5 -28.5q-49 0 -79 28.5t-30 77.5v127q0 49 30 77.5t79 28.5q48 0 78.5 -28.5
t30.5 -77.5v-127z" />
    <glyph glyph-name="ampersand" unicode="&#x26;" horiz-adv-x="574" 
d="M534 324h-67v-134q0 -46 -14.5 -83t-41 -63t-64 -40t-82.5 -14q-46 0 -85 13t-67 37t-43.5 58.5t-15.5 77.5q0 60 29 104.5t89 64.5q-47 21 -69 60.5t-22 91.5q0 38 13.5 69.5t37.5 54t57.5 34.5t74.5 12q80 0 128.5 -45.5t48.5 -125.5v-12h-50v16q0 51 -32.5 86.5
t-95.5 35.5q-64 0 -96.5 -36t-32.5 -91q0 -26 7 -49.5t24 -41t45 -28t69 -10.5h255v-42zM266 35q37 0 65 11.5t47 32t29 48t10 59.5v138h-142q-46 0 -78 -13.5t-51.5 -34t-28.5 -46t-9 -49.5q0 -65 40 -105.5t118 -40.5z" />
    <glyph glyph-name="quotesingle" unicode="'" horiz-adv-x="188" 
d="M120 657v-71q0 -11 -1 -25l-2 -28t-2.5 -26.5t-2.5 -21.5l-7 -58h-22l-7 58q-1 9 -2.5 21.5t-2.5 26.5l-2 28t-1 25v71h52z" />
    <glyph glyph-name="parenleft" unicode="(" horiz-adv-x="287" 
d="M243 -66v-45h-9q-76 0 -116 41.5t-40 118.5v556q0 77 40 118.5t116 41.5h9v-45h-10q-59 0 -81 -31t-22 -80v-564q0 -49 22 -80t81 -31h10z" />
    <glyph glyph-name="parenright" unicode=")" horiz-adv-x="287" 
d="M54 -66q59 0 81 31t22 80v564q0 49 -22 80t-81 31h-10v45h9q76 0 116 -41.5t40 -118.5v-556q0 -77 -40 -118.5t-116 -41.5h-9v45h10z" />
    <glyph glyph-name="asterisk" unicode="*" horiz-adv-x="398" 
d="M192 491l-81 -69l-30 -19l-24 39l31 19l97 43l-98 43l-30 19l23 38l31 -19l81 -69l-15 105v36h45v-36l-16 -105l81 69l31 19l23 -38l-30 -19l-99 -43l98 -43l31 -19l-24 -39l-30 19l-80 68l15 -104v-36h-45v36z" />
    <glyph glyph-name="plus" unicode="+" horiz-adv-x="475" 
d="M260 351h162v-45h-162v-146h-46v146h-161v45h161v146h46v-146z" />
    <glyph glyph-name="comma" unicode="," horiz-adv-x="213" 
d="M146 63l-60 -157h-42l36 157h66z" />
    <glyph glyph-name="hyphen" unicode="-" horiz-adv-x="378" 
d="M73 286h232v-45h-232v45z" />
    <glyph glyph-name="period" unicode="." horiz-adv-x="213" 
d="M66 30q0 17 11.5 29t28.5 12t29 -12t12 -29t-12 -28.5t-29 -11.5t-28.5 11.5t-11.5 28.5z" />
    <glyph glyph-name="slash" unicode="/" horiz-adv-x="396" 
d="M371 765l-295 -876h-51l294 876h52z" />
    <glyph glyph-name="zero" unicode="0" horiz-adv-x="544" 
d="M126 187q0 -32 9.5 -59.5t28 -47.5t46 -31.5t62.5 -11.5t62.5 11.5t46 31.5t28 47.5t9.5 59.5v283q0 32 -9.5 59.5t-28 47.5t-46 31.5t-62.5 11.5t-62.5 -11.5t-46 -31.5t-28 -47.5t-9.5 -59.5v-283zM470 191q0 -47 -14.5 -84t-40.5 -63t-62.5 -40t-80.5 -14t-80.5 14
t-62.5 40t-40.5 63t-14.5 84v275q0 46 14.5 83.5t40.5 63.5t62.5 40t80.5 14t80.5 -14t62.5 -40t40.5 -63.5t14.5 -83.5v-275z" />
    <glyph glyph-name="one" unicode="1" horiz-adv-x="379" 
d="M52 657h173v-610h120v-47h-293v47h121v563h-121v47z" />
    <glyph glyph-name="two" unicode="2" horiz-adv-x="507" 
d="M59 29q0 84 37 145t114 114l97 67q42 29 64.5 64.5t22.5 82.5q0 53 -35.5 85.5t-104.5 32.5t-105 -36t-36 -89v-22h-50v18q0 41 14 73.5t39.5 55.5t61 35t77.5 12q43 0 78.5 -11t60.5 -32.5t39 -52.5t14 -71q0 -53 -26.5 -98t-77.5 -80l-126 -88q-33 -23 -53.5 -48
t-31 -49.5t-14.5 -47t-4 -40.5h333v-49h-388v29z" />
    <glyph glyph-name="three" unicode="3" horiz-adv-x="517" 
d="M200 367h55q38 0 64 10.5t41.5 28t22.5 41t7 49.5q0 54 -34.5 89t-103.5 35q-68 0 -103.5 -34.5t-35.5 -85.5v-20h-50v16q0 40 14 71.5t39 53.5t60 34t77 12q86 0 138 -45.5t52 -123.5q0 -54 -22 -94t-69 -60q52 -22 77.5 -66.5t25.5 -103.5q0 -43 -14.5 -77t-41 -58
t-63 -36.5t-80.5 -12.5t-80 12t-62 34t-40.5 53.5t-14.5 70.5v15h50v-19q0 -50 37.5 -84.5t108.5 -34.5q73 0 109.5 39t36.5 103q0 24 -7.5 49.5t-24.5 46t-45 34t-69 13.5h-55v45z" />
    <glyph glyph-name="four" unicode="4" horiz-adv-x="521" 
d="M405 657v-447h74v-47h-74v-163h-52v163h-316v50l296 444h72zM353 210v390l-262 -390h262z" />
    <glyph glyph-name="five" unicode="5" horiz-adv-x="507" 
d="M426 610h-290v-249q22 14 52 24t71 10q46 0 82 -14.5t61 -41t38.5 -63t13.5 -80.5q0 -48 -14.5 -86t-41 -65t-63 -41t-80.5 -14t-80 11.5t-62 33t-40.5 52t-14.5 68.5v15h50v-19q0 -48 37.5 -81t108.5 -33q73 0 109.5 43.5t36.5 116.5q0 28 -7.5 55t-24.5 48.5
t-43.5 34.5t-65.5 13q-53 0 -83.5 -14.5t-49.5 -31.5h-42v355h342v-47z" />
    <glyph glyph-name="six" unicode="6" horiz-adv-x="528" 
d="M469 189q0 -47 -15 -83.5t-41.5 -62.5t-63.5 -39.5t-81 -13.5t-80 15.5t-61.5 44t-39.5 69.5t-14 92v265q0 44 14.5 79.5t40.5 60t62 38t80 13.5q42 0 77 -12t60.5 -35t39.5 -55.5t14 -73.5v-13h-50v18q0 53 -36.5 89t-104.5 36q-35 0 -62 -11t-45.5 -29.5t-28 -44
t-9.5 -55.5v-155q23 24 60.5 42.5t91.5 18.5q46 0 81.5 -15t60 -42t37.5 -63t13 -78zM274 339q-31 0 -54.5 -6.5t-41.5 -17t-31 -23.5t-22 -26v-59q0 -37 9.5 -68t28 -54t46 -36t62.5 -13q71 0 107.5 42t36.5 107q0 29 -7.5 56.5t-24.5 49.5t-43.5 35t-65.5 13z" />
    <glyph glyph-name="seven" unicode="7" horiz-adv-x="443" 
d="M37 657h374v-36l-242 -621h-56l240 610h-316v47z" />
    <glyph glyph-name="eight" unicode="8" horiz-adv-x="526" 
d="M454 492q0 -54 -25 -92.5t-68 -58.5q48 -20 76 -63t28 -101q0 -42 -15 -76.5t-42 -59t-64 -38t-81 -13.5t-81 13.5t-64 38t-42 59t-15 76.5q0 58 28 101t76 63q-43 20 -68 59t-25 92q0 40 14 72t39.5 55t60.5 35.5t77 12.5t77 -12.5t60.5 -35.5t39.5 -55t14 -72zM115 178
q0 -30 10 -56t28.5 -45.5t46 -30.5t63.5 -11t63.5 11t46 30.5t28.5 45.5t10 56q0 28 -8.5 53.5t-26.5 45t-46 31t-67 11.5t-67 -11.5t-46 -31t-26.5 -45t-8.5 -53.5zM125 491q0 -26 8 -49.5t24.5 -41t42.5 -28t63 -10.5t63 10.5t42.5 28t24.5 41t8 49.5q0 56 -35.5 93.5
t-102.5 37.5t-102.5 -37.5t-35.5 -93.5z" />
    <glyph glyph-name="nine" unicode="9" horiz-adv-x="528" 
d="M59 468q0 46 15 83t41.5 63t63.5 39.5t81 13.5t80 -15.5t61.5 -44t39.5 -69.5t14 -92v-265q0 -44 -14.5 -79.5t-40.5 -60.5t-62 -38t-80 -13q-42 0 -77 12t-60.5 35t-39.5 55.5t-14 73.5v13h50v-18q0 -53 36.5 -89t104.5 -36q35 0 62 11t45.5 29.5t28 44t9.5 55.5v154
q-24 -24 -61 -42t-91 -18q-46 0 -81.5 15t-60 42t-37.5 63t-13 78zM254 318q31 0 54.5 6.5t41.5 17t31 23.5t22 26v59q0 34 -9.5 65t-28 54.5t-46 37.5t-62.5 14q-71 0 -107.5 -42t-36.5 -107q0 -29 7.5 -56.5t24.5 -49.5t43.5 -35t65.5 -13z" />
    <glyph glyph-name="colon" unicode=":" horiz-adv-x="227" 
d="M73 30q0 17 11.5 29t28.5 12t29 -12t12 -29t-12 -28.5t-29 -11.5t-28.5 11.5t-11.5 28.5zM73 457q0 17 11.5 29t28.5 12t29 -12t12 -29t-12 -28.5t-29 -11.5t-28.5 11.5t-11.5 28.5z" />
    <glyph glyph-name="semicolon" unicode=";" horiz-adv-x="250" 
d="M164 63l-60 -157h-42l36 157h66zM90 457q0 17 11.5 29t28.5 12t29 -12t12 -29t-12 -28.5t-29 -11.5t-28.5 11.5t-11.5 28.5z" />
    <glyph glyph-name="less" unicode="&#x3c;" horiz-adv-x="463" 
d="M49 346l341 139v-48l-277 -110l277 -111v-48l-341 139v39z" />
    <glyph glyph-name="equal" unicode="=" horiz-adv-x="521" 
d="M76 437h369v-45h-369v45zM76 267h369v-45h-369v45z" />
    <glyph glyph-name="greater" unicode="&#x3e;" horiz-adv-x="463" 
d="M414 304l-341 -139v48l277 110l-277 111v48l341 -139v-39z" />
    <glyph glyph-name="question" unicode="?" horiz-adv-x="466" 
d="M199 158l-4 32q-4 30 3 54.5t21 46.5t33 42t39 40l27.5 27.5t26.5 30.5t19.5 35.5t7.5 43.5q0 50 -35 80t-100 30q-72 0 -109 -36t-37 -89v-22h-50v18q0 41 14.5 73.5t40.5 55.5t62 35t80 12q41 0 75.5 -11t59 -31.5t38.5 -49.5t14 -66q0 -28 -9 -51.5t-24 -44.5
t-34 -40.5t-39 -38.5q-15 -15 -28.5 -28t-24 -28.5t-17.5 -35.5t-10 -49l-3 -35h-37zM177 30q0 17 11.5 29t28.5 12t29 -12t12 -29t-12 -28.5t-29 -11.5t-28.5 11.5t-11.5 28.5z" />
    <glyph glyph-name="at" unicode="@" horiz-adv-x="795" 
d="M259 281q11 66 47.5 104.5t93.5 38.5q38 0 67 -14.5t43 -41.5l17 49h30l-46 -270q-11 -65 14 -91t73 -26q28 0 47 11.5t30 32t15.5 48t4.5 60.5v138q0 56 -20.5 101.5t-58.5 77.5t-92 49.5t-122 17.5t-122 -17.5t-92 -49.5t-58.5 -77.5t-20.5 -101.5v-177
q0 -56 20.5 -101.5t58.5 -77.5t92 -49.5t122 -17.5h84v-45h-84q-83 0 -146.5 21.5t-106 61t-64 95.5t-21.5 125v153q0 69 21.5 125t64 95.5t106 61t146.5 21.5t146.5 -21.5t106 -61t64 -95.5t21.5 -125v-114q0 -110 -37.5 -157t-104.5 -47q-59 0 -93 28.5t-35 82.5
q-42 -62 -111 -62q-65 0 -96.5 38.5t-20.5 104.5zM365 78q42 0 70.5 28.5t36.5 70.5l19 109q8 42 -15.5 70.5t-75.5 28.5q-40 0 -64 -29t-32 -72l-19 -105q-8 -43 11 -72t69 -29z" />
    <glyph glyph-name="A" unicode="A" horiz-adv-x="544" 
d="M29 0l218 657h49l220 -657h-55l-55 167h-271l-54 -167h-52zM151 214h240l-121 366z" />
    <glyph glyph-name="B" unicode="B" horiz-adv-x="551" 
d="M88 657h197q43 0 79 -12t62 -34t41 -53t15 -69q0 -56 -27 -93.5t-74 -55.5v-1q54 -15 85.5 -55t31.5 -105q0 -41 -14.5 -74t-40.5 -56t-62 -36t-78 -13h-215v657zM140 315v-269h161q66 0 104.5 36.5t38.5 96.5q0 63 -37 99.5t-101 36.5h-166zM140 611v-251h148
q65 0 102.5 34.5t37.5 94.5q0 56 -39 89t-106 33h-143z" />
    <glyph glyph-name="C" unicode="C" horiz-adv-x="542" 
d="M484 202v-21q0 -44 -15 -79.5t-42 -60.5t-65 -38t-84 -13t-84.5 14.5t-66 41t-42.5 64.5t-15 86v265q0 48 15 86t42.5 64.5t66 41t84.5 14.5t84 -13.5t65 -38t42 -60t15 -79.5v-14h-50v18q0 30 -10.5 55.5t-30 44t-49 29.5t-66.5 11q-38 0 -67 -12t-48.5 -32.5t-30 -49
t-10.5 -61.5v-273q0 -33 10.5 -61.5t30 -49t48.5 -32.5t67 -12q37 0 66.5 11t49 29.5t30 44t10.5 55.5v25h50z" />
    <glyph glyph-name="D" unicode="D" horiz-adv-x="569" 
d="M287 657q47 0 86.5 -14.5t67.5 -42t43.5 -66.5t15.5 -88v-235q0 -49 -15.5 -88t-43.5 -66.5t-67.5 -42t-86.5 -14.5h-199v657h199zM140 610v-563h147q39 0 69 12t50.5 33.5t31 51t10.5 63.5v243q0 34 -10.5 63.5t-31 51t-50.5 33.5t-69 12h-147z" />
    <glyph glyph-name="E" unicode="E" horiz-adv-x="509" 
d="M140 313v-266h318v-47h-370v657h362v-47h-310v-250h288v-47h-288z" />
    <glyph glyph-name="F" unicode="F" horiz-adv-x="493" 
d="M140 295v-295h-52v657h362v-47h-310v-268h288v-47h-288z" />
    <glyph glyph-name="G" unicode="G" horiz-adv-x="548" 
d="M299 315h185v-134q0 -44 -15 -79.5t-42 -60.5t-64.5 -38t-83.5 -13t-84.5 14.5t-66 41t-43 64.5t-15.5 86v265q0 48 15 86t42.5 64.5t66 41t84.5 14.5t84 -12.5t65 -36t42 -57t15 -75.5v-14h-50v18q0 55 -40.5 92.5t-115.5 37.5q-38 0 -67 -12t-48.5 -32.5t-30 -49
t-10.5 -61.5v-273q0 -33 10.5 -61.5t30.5 -49t49 -32.5t67 -12q76 0 116 40t40 100v93h-136v45z" />
    <glyph glyph-name="H" unicode="H" horiz-adv-x="582" 
d="M494 0h-52v313h-302v-313h-52v657h52v-297h302v297h52v-657z" />
    <glyph glyph-name="I" unicode="I" horiz-adv-x="228" 
d="M140 0h-52v657h52v-657z" />
    <glyph glyph-name="J" unicode="J" horiz-adv-x="481" 
d="M79 199v-27q0 -57 35 -96t99 -39q65 0 98.5 39t33.5 96v485h52v-481q0 -43 -13.5 -77.5t-37.5 -58.5t-58 -37t-75 -13t-74.5 13t-58 37t-38 58.5t-13.5 77.5v23h50z" />
    <glyph glyph-name="K" unicode="K" horiz-adv-x="533" 
d="M140 262l305 395h59l-203 -264l209 -393h-59l-185 350l-126 -164v-186h-52v657h52v-395z" />
    <glyph glyph-name="L" unicode="L" horiz-adv-x="458" 
d="M140 47h302v-47h-354v657h52v-610z" />
    <glyph glyph-name="M" unicode="M" horiz-adv-x="628" 
d="M136 546v-546h-48v657h47l180 -369l179 369h46v-657h-50v546l-161 -328h-32z" />
    <glyph glyph-name="N" unicode="N" horiz-adv-x="580" 
d="M492 0h-44l-311 555v-555h-49v657h48l307 -547v547h49v-657z" />
    <glyph glyph-name="O" unicode="O" horiz-adv-x="556" 
d="M122 192q0 -33 10.5 -61.5t30 -49t48.5 -32.5t67 -12q37 0 66.5 12t49 32.5t30 49t10.5 61.5v273q0 33 -10.5 61.5t-30 49t-49 32.5t-66.5 12q-38 0 -67 -12t-48.5 -32.5t-30 -49t-10.5 -61.5v-273zM486 196q0 -48 -15 -86t-42.5 -64.5t-66 -41t-84.5 -14.5t-84.5 14.5
t-66 41t-42.5 64.5t-15 86v265q0 48 15 86t42.5 64.5t66 41t84.5 14.5t84.5 -14.5t66 -41t42.5 -64.5t15 -86v-265z" />
    <glyph glyph-name="P" unicode="P" horiz-adv-x="537" 
d="M88 657h187q48 0 88.5 -14.5t69.5 -41.5t45.5 -65.5t16.5 -85.5t-16.5 -85.5t-45.5 -66t-69.5 -42.5t-88.5 -15h-135v-241h-52v657zM140 611v-324h133q78 0 123 44.5t45 118.5t-45 117.5t-123 43.5h-133z" />
    <glyph glyph-name="Q" unicode="Q" horiz-adv-x="559" 
d="M486 196q0 -67 -29.5 -115t-80.5 -71l105 -143h-67l-90 127q-11 -2 -22.5 -3t-23.5 -1q-46 0 -84.5 14.5t-66 41t-42.5 64.5t-15 86v265q0 48 15 86t42.5 64.5t66 41t84.5 14.5t84.5 -14.5t66 -41t42.5 -64.5t15 -86v-265zM122 192q0 -33 10.5 -61.5t30 -49t48.5 -32.5
t67 -12q37 0 66.5 12t49 32.5t30 49t10.5 61.5v273q0 33 -10.5 61.5t-30 49t-49 32.5t-66.5 12q-38 0 -67 -12t-48.5 -32.5t-30 -49t-10.5 -61.5v-273z" />
    <glyph glyph-name="R" unicode="R" horiz-adv-x="548" 
d="M434 0l-123 270q-9 -1 -18 -1.5t-18 -0.5h-135v-268h-52v657h187q48 0 88.5 -13.5t69.5 -38.5t45.5 -60.5t16.5 -79.5q0 -67 -36 -115t-96 -68l128 -282h-57zM140 611v-298h133q78 0 123 41.5t45 110.5q0 67 -45 106.5t-123 39.5h-133z" />
    <glyph glyph-name="S" unicode="S" horiz-adv-x="521" 
d="M406 475v15q0 28 -9.5 52t-28 42t-46 28t-62.5 10q-69 0 -107.5 -31t-38.5 -81q0 -41 25.5 -67t56.5 -39l116 -49q27 -11 54.5 -25t50 -34.5t36.5 -49.5t14 -70q0 -43 -15 -77.5t-42.5 -58.5t-66 -37t-84.5 -13t-84 12.5t-65.5 36t-42.5 57t-15 75.5v13h50v-17
q0 -28 10.5 -52t31 -42t49.5 -28t66 -10q75 0 116 38.5t41 96.5q0 32 -11 54t-29.5 38t-42.5 27t-49 22l-90 38q-24 10 -47 24t-41.5 32.5t-29.5 43.5t-11 57q0 37 14.5 66.5t40.5 50.5t61.5 32.5t78.5 11.5t79.5 -12.5t62 -36t40 -57t14.5 -75.5v-11h-50z" />
    <glyph glyph-name="T" unicode="T" horiz-adv-x="453" 
d="M20 657h413v-47h-181v-610h-52v610h-180v47z" />
    <glyph glyph-name="U" unicode="U" horiz-adv-x="574" 
d="M492 657v-461q0 -48 -15 -86t-42 -64.5t-65 -41t-83 -14.5t-83 14.5t-65 41t-42 64.5t-15 86v461h52v-465q0 -33 10 -61.5t29.5 -49t48 -32.5t65.5 -12t65.5 12t48 32.5t29.5 49t10 61.5v465h52z" />
    <glyph glyph-name="V" unicode="V" horiz-adv-x="500" 
d="M471 657l-195 -657h-51l-196 657h55l167 -567l168 567h52z" />
    <glyph glyph-name="W" unicode="W" horiz-adv-x="743" 
d="M705 657l-156 -657h-46l-132 557l-131 -557h-46l-156 657h51l129 -555l130 555h47l130 -555l129 555h51z" />
    <glyph glyph-name="X" unicode="X" horiz-adv-x="475" 
d="M88 657l151 -279l150 279h56l-176 -323l180 -334h-58l-154 287l-153 -287h-57l181 331l-178 326h58z" />
    <glyph glyph-name="Y" unicode="Y" horiz-adv-x="478" 
d="M78 657l163 -344l164 344h52l-192 -396v-261h-52v261l-192 396h57z" />
    <glyph glyph-name="Z" unicode="Z" horiz-adv-x="457" 
d="M50 657h361v-33l-311 -577h321v-47h-385v33l311 577h-297v47z" />
    <glyph glyph-name="bracketleft" unicode="[" horiz-adv-x="295" 
d="M138 -64h113v-47h-165v876h165v-47h-113v-782z" />
    <glyph glyph-name="backslash" unicode="\" horiz-adv-x="396" 
d="M77 765l294 -876h-51l-295 876h52z" />
    <glyph glyph-name="bracketright" unicode="]" horiz-adv-x="295" 
d="M157 718h-113v47h165v-876h-165v47h113v782z" />
    <glyph glyph-name="asciicircum" unicode="^" horiz-adv-x="351" 
d="M195 657l106 -236h-48l-77 174l-78 -174h-48l106 236h39z" />
    <glyph glyph-name="underscore" unicode="_" horiz-adv-x="693" 
d="M72 -30h549v-40h-549v40z" />
    <glyph glyph-name="grave" unicode="`" horiz-adv-x="192" 
d="M20 647l37 40l115 -112l-23 -25z" />
    <glyph glyph-name="a" unicode="a" 
d="M62 322q0 82 46 129t125 47q45 0 80.5 -18t58.5 -52l12 60h33v-488h-33l-12 61q-23 -34 -58.5 -52.5t-80.5 -18.5q-79 0 -125 47t-46 129v156zM236 35q62 0 96.5 39.5t34.5 97.5v144q0 58 -34.5 97.5t-96.5 39.5q-31 0 -54 -10t-38.5 -27t-23.5 -40t-8 -50v-164
q0 -27 8 -50t23.5 -40t38.5 -27t54 -10z" />
    <glyph glyph-name="b" unicode="b" 
d="M110 0h-33v677h50v-244q23 32 57.5 48.5t76.5 16.5q79 0 125 -47t46 -129v-156q0 -82 -46 -129t-125 -47q-45 0 -80.5 18.5t-58.5 52.5zM258 35q31 0 54 10t38.5 27t23.5 40t8 50v164q0 27 -8 50t-23.5 40t-38.5 27t-54 10q-62 0 -96.5 -39.5t-34.5 -97.5v-144
q0 -58 34.5 -97.5t96.5 -39.5z" />
    <glyph glyph-name="c" unicode="c" horiz-adv-x="472" 
d="M418 161v-10q0 -38 -13 -67.5t-36.5 -50.5t-56 -32t-72.5 -11t-73 13t-57 37t-37 58.5t-13 77.5v136q0 43 13 77.5t37 58.5t57 37t73 13t72.5 -11t56 -32t36.5 -51t13 -67v-8h-48v12q0 48 -33.5 80.5t-96.5 32.5q-31 0 -55.5 -10.5t-41 -29t-25 -44t-8.5 -54.5v-144
q0 -29 8.5 -54.5t25 -44t41 -29t55.5 -10.5q65 0 97.5 33t32.5 80v14h48z" />
    <glyph glyph-name="d" unicode="d" 
d="M372 61q-23 -34 -58.5 -52.5t-80.5 -18.5q-79 0 -125 47t-46 129v156q0 82 46 129t125 47q42 0 76.5 -16.5t57.5 -48.5v244h50v-677h-33zM236 35q62 0 96.5 39.5t34.5 97.5v144q0 58 -34.5 97.5t-96.5 39.5q-31 0 -54 -10t-38.5 -27t-23.5 -40t-8 -50v-164q0 -27 8 -50
t23.5 -40t38.5 -27t54 -10z" />
    <glyph glyph-name="e" unicode="e" horiz-adv-x="474" 
d="M417 160v-9q0 -38 -13 -67.5t-36 -50.5t-56 -32t-72 -11q-40 0 -73 12t-57 35t-37 55.5t-13 73.5v146q0 43 13 77.5t37 58.5t57 37t73 13q39 0 72 -13t56 -37t36 -58.5t13 -77.5v-71h-307v-79q0 -55 33.5 -92.5t96.5 -37.5q65 0 97.5 33.5t32.5 81.5v13h47zM110 285h260
v31q0 30 -8.5 55.5t-25 44t-41 29.5t-55.5 11t-55.5 -11t-41 -29.5t-25 -44t-8.5 -55.5v-31z" />
    <glyph glyph-name="f" unicode="f" horiz-adv-x="325" 
d="M32 486h83v29q0 78 39.5 120t115.5 42h39v-44h-40q-30 0 -50 -8.5t-32 -23.5t-17 -36t-5 -46v-33h137v-42h-137v-444h-50v444h-83v42z" />
    <glyph glyph-name="g" unicode="g" 
d="M62 322q0 82 46 129t125 47q45 0 80.5 -18t58.5 -52l12 60h33v-520q0 -80 -48 -122.5t-126 -42.5t-125 37.5t-47 103.5v5h48v-10q0 -38 30.5 -65.5t93.5 -27.5q60 0 92 32.5t32 84.5v108q-23 -31 -57.5 -47.5t-76.5 -16.5q-79 0 -125 47t-46 129v139zM236 52
q62 0 96.5 39.5t34.5 97.5v127q0 58 -34.5 97.5t-96.5 39.5q-31 0 -54 -10t-38.5 -27t-23.5 -40t-8 -50v-147q0 -27 8 -50t23.5 -40t38.5 -27t54 -10z" />
    <glyph glyph-name="h" unicode="h" horiz-adv-x="505" 
d="M77 0v677h50v-243q23 31 57 47.5t77 16.5q79 0 125 -47t46 -129v-322h-50v326q0 27 -8 50t-23.5 40t-38.5 27t-54 10q-62 0 -96.5 -39.5t-34.5 -97.5v-316h-50z" />
    <glyph glyph-name="i" unicode="i" horiz-adv-x="204" 
d="M65 630q0 16 10.5 26.5t26.5 10.5t26.5 -10.5t10.5 -26.5t-10.5 -26.5t-26.5 -10.5t-26.5 10.5t-10.5 26.5zM127 488v-488h-50v488h50z" />
    <glyph glyph-name="j" unicode="j" horiz-adv-x="204" 
d="M-43 -153q61 0 90.5 34.5t29.5 93.5v513h50v-509q0 -86 -47 -131t-123 -45h-24v44h24zM65 630q0 16 10.5 26.5t26.5 10.5t26.5 -10.5t10.5 -26.5t-10.5 -26.5t-26.5 -10.5t-26.5 10.5t-10.5 26.5z" />
    <glyph glyph-name="k" unicode="k" horiz-adv-x="465" 
d="M127 677v-448l245 259h62l-176 -186l183 -302h-59l-160 266l-95 -100v-166h-50v677h50z" />
    <glyph glyph-name="l" unicode="l" horiz-adv-x="216" 
d="M133 677v-677h-50v677h50z" />
    <glyph glyph-name="m" unicode="m" horiz-adv-x="798" 
d="M77 0v488h33l11 -62q23 35 57.5 53.5t79.5 18.5q54 0 93 -23.5t58 -67.5q21 44 59.5 67.5t88.5 23.5q78 0 123 -47t45 -129v-322h-50v326q0 27 -7.5 50t-23 40t-38 27t-52.5 10q-29 0 -53 -10t-40.5 -28t-25.5 -42t-9 -52v-321h-50v326q0 27 -7.5 50t-23 40t-38 27
t-52.5 10q-29 0 -53 -10t-40.5 -28t-25.5 -42t-9 -52v-321h-50z" />
    <glyph glyph-name="n" unicode="n" horiz-adv-x="505" 
d="M77 0v488h33l12 -62q23 35 58.5 53.5t80.5 18.5q79 0 125 -47t46 -129v-322h-50v326q0 27 -8 50t-23.5 40t-38.5 27t-54 10q-62 0 -96.5 -39.5t-34.5 -97.5v-316h-50z" />
    <glyph glyph-name="o" unicode="o" horiz-adv-x="480" 
d="M110 172q0 -29 8.5 -54.5t25 -44t41 -29t55.5 -10.5t55.5 10.5t41 29t25 44t8.5 54.5v144q0 29 -8.5 54.5t-25 44t-41 29t-55.5 10.5t-55.5 -10.5t-41 -29t-25 -44t-8.5 -54.5v-144zM420 176q0 -43 -13 -77.5t-37 -58.5t-57 -37t-73 -13t-73 13t-57 37t-37 58.5t-13 77.5
v136q0 43 13 77.5t37 58.5t57 37t73 13t73 -13t57 -37t37 -58.5t13 -77.5v-136z" />
    <glyph glyph-name="p" unicode="p" 
d="M122 427q23 34 58.5 52.5t80.5 18.5q79 0 125 -47t46 -129v-156q0 -82 -46 -129t-125 -47q-42 0 -76.5 16.5t-57.5 48.5v-242h-50v675h33zM258 453q-62 0 -96.5 -39.5t-34.5 -97.5v-144q0 -58 34.5 -97.5t96.5 -39.5q31 0 54 10t38.5 27t23.5 40t8 50v164q0 27 -8 50
t-23.5 40t-38.5 27t-54 10z" />
    <glyph glyph-name="q" unicode="q" 
d="M384 488h33v-675h-50v242q-23 -32 -57.5 -48.5t-76.5 -16.5q-79 0 -125 47t-46 129v156q0 82 46 129t125 47q45 0 80.5 -18.5t58.5 -52.5zM236 453q-31 0 -54 -10t-38.5 -27t-23.5 -40t-8 -50v-164q0 -27 8 -50t23.5 -40t38.5 -27t54 -10q62 0 96.5 39.5t34.5 97.5v144
q0 58 -34.5 97.5t-96.5 39.5z" />
    <glyph glyph-name="r" unicode="r" horiz-adv-x="304" 
d="M77 0v488h33l12 -65q23 36 58.5 55.5t80.5 19.5h10.5t10.5 -1v-48q-5 1 -10.5 1.5t-13.5 0.5q-30 0 -54 -10.5t-41.5 -29.5t-26.5 -44t-9 -55v-312h-50z" />
    <glyph glyph-name="s" unicode="s" horiz-adv-x="447" 
d="M94 149v-17q0 -42 34 -70t97 -28q58 0 88.5 26.5t30.5 68.5q0 35 -17 54.5t-55 30.5l-98 30q-20 6 -40 15.5t-36 24t-25.5 34.5t-9.5 48q0 27 12 51t33 42t50 28.5t64 10.5q37 0 68 -9.5t53 -27.5t34.5 -44t12.5 -59v-7h-47v11q0 39 -31.5 66.5t-89.5 27.5
q-19 0 -38.5 -5t-35.5 -15.5t-26.5 -27t-10.5 -38.5q0 -29 16.5 -46.5t47.5 -27.5l90 -28q27 -9 51 -19t41 -25t27 -36.5t10 -51.5q0 -33 -12 -59.5t-34 -46t-53 -30t-69 -10.5q-79 0 -129 38.5t-50 107.5v13h47z" />
    <glyph glyph-name="t" unicode="t" horiz-adv-x="306" 
d="M27 486h101v133h50v-133h101v-42h-101v-444h-50v444h-101v42z" />
    <glyph glyph-name="u" unicode="u" horiz-adv-x="499" 
d="M73 488h50v-326q0 -27 7.5 -50t22.5 -40t37 -27t52 -10t54.5 10.5t41 29t25.5 43.5t9 54v316h50v-488h-33l-12 61q-23 -34 -58 -52.5t-80 -18.5q-77 0 -121.5 47t-44.5 129v322z" />
    <glyph glyph-name="v" unicode="v" horiz-adv-x="454" 
d="M205 0l-177 488h55l146 -416l145 416h52l-177 -488h-44z" />
    <glyph glyph-name="w" unicode="w" horiz-adv-x="645" 
d="M193 86l106 402h49l106 -402l104 402h52l-134 -488h-43l-110 400l-110 -400h-44l-134 488h54z" />
    <glyph glyph-name="x" unicode="x" horiz-adv-x="432" 
d="M90 488l128 -202l130 202h55l-158 -237l160 -251h-59l-131 210l-134 -210h-55l163 243l-158 245h59z" />
    <glyph glyph-name="y" unicode="y" horiz-adv-x="454" 
d="M134 -187l71 190l-177 485h55l146 -416l145 416h52l-245 -675h-47z" />
    <glyph glyph-name="z" unicode="z" horiz-adv-x="425" 
d="M48 488h331v-33l-281 -412h286v-43h-345v33l281 412h-272v43z" />
    <glyph glyph-name="braceleft" unicode="{" horiz-adv-x="322" 
d="M114 219q0 40 -15.5 65.5t-57.5 25.5h-9v42h9q42 0 57.5 25.5t15.5 65.5v162q0 77 40 118.5t116 41.5h9v-45h-10q-59 0 -81 -31t-22 -80v-162q0 -87 -59 -116q59 -30 59 -116v-170q0 -49 22 -80t81 -31h10v-45h-9q-76 0 -116 41.5t-40 118.5v170z" />
    <glyph glyph-name="bar" unicode="|" horiz-adv-x="219" 
d="M133 -111h-47v876h47v-876z" />
    <glyph glyph-name="braceright" unicode="}" horiz-adv-x="322" 
d="M208 49q0 -77 -40 -118.5t-116 -41.5h-9v45h10q59 0 81 31t22 80v170q0 86 59 116q-59 29 -59 116v162q0 49 -22 80t-81 31h-10v45h9q76 0 116 -41.5t40 -118.5v-162q0 -40 15.5 -65.5t57.5 -25.5h9v-42h-9q-42 0 -57.5 -25.5t-15.5 -65.5v-170z" />
    <glyph glyph-name="asciitilde" unicode="~" horiz-adv-x="502" 
d="M447 380q-16 -34 -38.5 -60t-61.5 -26q-26 0 -45.5 10.5t-38.5 24.5q-17 11 -34 21.5t-38 10.5q-32 0 -53.5 -24t-41.5 -62l-38 19q23 51 53 81t80 30q30 0 53 -12.5t44 -26.5q15 -10 29.5 -19t29.5 -9q21 0 36 18.5t27 41.5z" />
    <glyph glyph-name="uni00A0" unicode="&#xa0;" horiz-adv-x="220" 
 />
    <glyph glyph-name="exclamdown" unicode="&#xa1;" horiz-adv-x="214" 
d="M134 0v-169h-54v169l11 330h32zM67 458q0 17 11.5 28.5t28.5 11.5t29 -11.5t12 -28.5t-12 -29t-29 -12t-28.5 12t-11.5 29z" />
    <glyph glyph-name="cent" unicode="&#xa2;" horiz-adv-x="472" 
d="M261 667v-85q70 -7 112 -50t42 -115v-8h-48v12q0 50 -33.5 84t-96.5 34q-31 0 -55.5 -10.5t-41 -29t-25 -44t-8.5 -54.5v-144q0 -29 8.5 -54.5t25 -44t41 -29t55.5 -10.5q65 0 97.5 34t32.5 84v14h48v-10q0 -71 -42 -114.5t-112 -50.5v-86h-47v86q-72 7 -114.5 55.5
t-42.5 129.5v136q0 80 42.5 128.5t114.5 56.5v85h47z" />
    <glyph glyph-name="sterling" unicode="&#xa3;" horiz-adv-x="554" 
d="M53 314h65v147q0 48 14 86t39.5 64.5t61 41t78.5 14.5q40 0 73.5 -13.5t57.5 -38t37 -60t13 -79.5v-14h-49v18q0 60 -33.5 101t-98.5 41q-35 0 -61.5 -12t-44.5 -33t-27.5 -50t-9.5 -62v-151h195v-43h-195v-228h326v-43h-441v43h65v228h-65v43z" />
    <glyph glyph-name="currency" unicode="&#xa4;" horiz-adv-x="572" 
d="M510 515l-88 -84q13 -20 20 -45t7 -54v-8q0 -58 -27 -99l88 -84l-33 -33l-82 86q-44 -36 -109 -36t-109 36l-82 -86l-33 33l88 84q-27 39 -27 99v8q0 58 27 99l-88 84l33 33l82 -87q43 37 109 37t109 -37l82 87zM168 320q0 -51 30.5 -86t87.5 -35t87.5 35t30.5 86v16
q0 51 -30.5 86t-87.5 35t-87.5 -35t-30.5 -86v-16z" />
    <glyph glyph-name="yen" unicode="&#xa5;" horiz-adv-x="522" 
d="M474 657l-163 -320h143v-43h-165l-2 -5v-83h167v-43h-167v-163h-52v163h-167v43h167v83l-3 5h-164v43h142l-162 320h57l157 -320h1l159 320h52z" />
    <glyph glyph-name="brokenbar" unicode="&#xa6;" horiz-adv-x="225" 
d="M87 765h51v-360h-51v360zM87 249h51v-360h-51v360z" />
    <glyph glyph-name="section" unicode="&#xa7;" horiz-adv-x="512" 
d="M196 339q-24 11 -48 25t-42.5 33.5t-30 45t-11.5 58.5q0 38 14.5 68.5t40 52.5t61 33.5t77.5 11.5t77.5 -13t60.5 -37t39 -58.5t14 -77.5v-11h-50v15q0 29 -9 54t-27 43.5t-44.5 29t-60.5 10.5q-69 0 -106 -33t-37 -84q0 -21 7 -38.5t19 -31.5t27 -24.5t31 -17.5l164 -73
q36 -16 61 -33t25 -45v-15zM316 131q24 -11 48 -25t42.5 -33.5t30 -45t11.5 -58.5q0 -38 -14.5 -68.5t-40 -52.5t-61 -33.5t-77.5 -11.5t-77.5 13t-60.5 37t-39 58.5t-14 77.5v11h50v-15q0 -29 9 -54t27 -43.5t44.5 -29t60.5 -10.5q69 0 106 33t37 84q0 21 -7 38.5t-19 31.5
t-27 24.5t-31 17.5l-164 73q-36 16 -61 33t-25 45v15z" />
    <glyph glyph-name="dieresis" unicode="&#xa8;" horiz-adv-x="213" 
d="M20 604q0 15 11 25.5t26 10.5t25 -10.5t10 -25.5t-10 -26t-25 -11t-26 11t-11 26zM121 604q0 15 11 25.5t26 10.5q14 0 24.5 -10.5t10.5 -25.5t-10.5 -26t-24.5 -11q-15 0 -26 11t-11 26z" />
    <glyph glyph-name="copyright" unicode="&#xa9;" horiz-adv-x="776" 
d="M526 268v-7q0 -60 -39.5 -94t-103.5 -34t-104 38.5t-40 104.5v104q0 67 40 105t104 38t103.5 -33.5t39.5 -93.5v-6h-46v9q0 35 -25 59t-72 24q-46 0 -71.5 -28.5t-25.5 -70.5v-110q0 -42 25.5 -70.5t71.5 -28.5q49 0 73 24t24 59v11h46zM48 327q0 70 26.5 132t73 108.5
t108 73t132.5 26.5q70 0 132 -26.5t108.5 -73t73 -108.5t26.5 -132q0 -71 -27 -132.5t-73 -107t-108.5 -72t-132.5 -26.5q-71 0 -132.5 26.5t-107.5 72t-72.5 107t-26.5 132.5zM96 327q0 -61 22.5 -114.5t62 -93t92.5 -62.5t114 -23t114 23t92.5 62.5t62.5 93t23 114.5
t-22.5 114.5t-62 93.5t-92.5 63.5t-114 23.5t-114 -23.5t-92.5 -63.5t-62.5 -93.5t-23 -114.5z" />
    <glyph glyph-name="ordfeminine" unicode="&#xaa;" horiz-adv-x="325" 
d="M64 571q0 42 21.5 66.5t62.5 24.5q21 0 37.5 -8.5t26.5 -22.5l6 26h34v-244h-34l-6 27q-21 -32 -64 -32q-41 0 -62.5 24.5t-21.5 66.5v72zM157 446q24 0 38 16t14 39v68q0 23 -14 39t-38 16q-25 0 -37.5 -15t-12.5 -37v-74q0 -22 12.5 -37t37.5 -15z" />
    <glyph glyph-name="guillemotleft" unicode="&#xab;" horiz-adv-x="303" 
d="M201 398h36l-45 -165l45 -165h-36l-54 165zM117 398h36l-49 -165l49 -165h-36l-58 165z" />
    <glyph glyph-name="logicalnot" unicode="&#xac;" horiz-adv-x="522" 
d="M74 351h369v-191h-48v146h-321v45z" />
    <glyph glyph-name="uni00AD" unicode="&#xad;" horiz-adv-x="378" 
d="M73 286h232v-45h-232v45z" />
    <glyph glyph-name="registered" unicode="&#xae;" horiz-adv-x="510" 
d="M54 465q0 42 15.5 79t42.5 64t63.5 43t78.5 16t79 -16t64 -43t43 -64t16 -79t-16 -78.5t-43 -63.5t-64 -42.5t-79 -15.5t-78.5 15.5t-63.5 42.5t-42.5 63.5t-15.5 78.5zM94 465q0 -34 12.5 -64t34 -52t51 -34.5t62.5 -12.5t62.5 12.5t51.5 34.5t34.5 52t12.5 64t-12.5 64
t-34.5 52t-51.5 35t-62.5 13t-62.5 -13t-51 -35t-34 -52t-12.5 -64zM301 355l-36 84h-48v-84h-36v221h84q34 0 55.5 -17.5t21.5 -49.5q0 -22 -11 -38.5t-29 -24.5l40 -91h-41zM217 543v-71h45q20 0 30.5 9.5t10.5 26.5q0 35 -41 35h-45z" />
    <glyph glyph-name="macron" unicode="&#xaf;" horiz-adv-x="272" 
d="M20 617h232v-40h-232v40z" />
    <glyph glyph-name="degree" unicode="&#xb0;" horiz-adv-x="398" 
d="M54 522q0 30 11.5 56.5t31 46t45.5 31t56 11.5t57 -11.5t46.5 -31t31 -46t11.5 -56.5t-11.5 -56.5t-31 -46t-46.5 -31t-57 -11.5t-56 11.5t-45.5 31t-31 46t-11.5 56.5zM100 522q0 -21 7.5 -40t21 -33.5t31 -22.5t38.5 -8t39 8t31.5 22.5t21 33.5t7.5 40t-7.5 40
t-21 33.5t-31.5 22.5t-39 8t-38.5 -8t-31 -22.5t-21 -33.5t-7.5 -40z" />
    <glyph glyph-name="plusminus" unicode="&#xb1;" horiz-adv-x="521" 
d="M284 391h161v-45h-161v-136h-48v136h-160v45h160v136h48v-136zM76 160h369v-45h-369v45z" />
    <glyph glyph-name="uni00B2" unicode="&#xb2;" horiz-adv-x="274" 
d="M34 500q0 38 14 67t51 55l54 36q18 12 29 28t11 38t-14 35.5t-42 13.5t-42.5 -14.5t-14.5 -37.5v-10h-44v9q0 42 28.5 67.5t73.5 25.5q46 0 73.5 -23t27.5 -65q0 -31 -14.5 -54t-41.5 -42l-61 -42q-25 -17 -31.5 -34.5t-8.5 -31.5h157v-41h-205v20z" />
    <glyph glyph-name="uni00B3" unicode="&#xb3;" horiz-adv-x="276" 
d="M108 668h25q32 0 44.5 15t12.5 38t-14 37.5t-41 14.5t-42 -14.5t-15 -36.5v-8h-43v8q0 41 28 66t73 25t72 -24t27 -63q0 -55 -41 -75q47 -22 47 -82q0 -44 -28.5 -69t-76.5 -25q-47 0 -75 24.5t-28 66.5v8h43v-9q0 -22 15.5 -36.5t43.5 -14.5q29 0 44.5 16t15.5 44
q0 23 -14.5 40.5t-47.5 17.5h-25v36z" />
    <glyph glyph-name="acute" unicode="&#xb4;" horiz-adv-x="192" 
d="M43 550l-23 25l115 112l37 -40z" />
    <glyph glyph-name="mu" unicode="&#xb5;" horiz-adv-x="496" 
d="M80 488h50v-326q0 -27 7.5 -50t22.5 -40t37 -27t52 -10t54.5 10.5t41 29t25.5 43.5t9 54v316h50v-488h-33l-12 61q-23 -34 -58 -52.5t-80 -18.5q-77 0 -122 48l6 -191v-34h-50v675z" />
    <glyph glyph-name="paragraph" unicode="&#xb6;" horiz-adv-x="490" 
d="M302 239h-34q-50 0 -92.5 14t-73 40.5t-47.5 65.5t-17 89q0 48 18 86.5t50.5 66t77.5 42t99 14.5h121v-768h-51v725h-51v-375z" />
    <glyph glyph-name="periodcentered" unicode="&#xb7;" horiz-adv-x="225" 
d="M72 272q0 17 11.5 29t28.5 12t29 -12t12 -29t-12 -28.5t-29 -11.5t-28.5 11.5t-11.5 28.5z" />
    <glyph glyph-name="cedilla" unicode="&#xb8;" horiz-adv-x="238" 
d="M79 -76l25 83h41l-17 -55h12q39 0 60 -18.5t21 -50.5q0 -33 -22 -51.5t-59 -18.5h-89v38h93q15 0 25 7.5t10 24.5q0 16 -10 24t-25 8h-50z" />
    <glyph glyph-name="uni00B9" unicode="&#xb9;" horiz-adv-x="212" 
d="M31 808h103v-289h59v-39h-162v39h58v249h-58v40z" />
    <glyph glyph-name="ordmasculine" unicode="&#xba;" horiz-adv-x="314" 
d="M105 500q0 -23 13.5 -39t38.5 -16t38.5 16t13.5 39v70q0 23 -13.5 39t-38.5 16t-38.5 -16t-13.5 -39v-70zM252 504q0 -45 -26.5 -70.5t-68.5 -25.5q-43 0 -69 25.5t-26 70.5v62q0 45 26 70.5t69 25.5q42 0 68.5 -25.5t26.5 -70.5v-62z" />
    <glyph glyph-name="guillemotright" unicode="&#xbb;" horiz-adv-x="303" 
d="M156 233l-54 -165h-36l45 165l-45 165h36zM244 233l-58 -165h-36l49 165l-49 165h36z" />
    <glyph glyph-name="onequarter" unicode="&#xbc;" horiz-adv-x="598" 
d="M512 328v-214h36v-39h-36v-75h-45v75h-153v43l142 210h56zM467 114v162l-111 -162h111zM483 657h52l-201 -329l-197 -328h-52l201 328zM57 657h103v-289h59v-39h-162v39h58v249h-58v40z" />
    <glyph glyph-name="onehalf" unicode="&#xbd;" horiz-adv-x="613" 
d="M483 657h52l-201 -329l-197 -328h-52l201 328zM57 657h103v-289h59v-39h-162v39h58v249h-58v40zM351 20q0 38 14 67t51 55l54 36q18 12 29 28t11 38t-14 35.5t-42 13.5t-42.5 -14.5t-14.5 -37.5v-10h-44v9q0 42 28.5 67.5t73.5 25.5q46 0 73.5 -23t27.5 -65
q0 -31 -14.5 -54t-41.5 -42l-61 -42q-25 -17 -31.5 -34.5t-8.5 -31.5h157v-41h-205v20z" />
    <glyph glyph-name="threequarters" unicode="&#xbe;" horiz-adv-x="603" 
d="M517 328v-214h36v-39h-36v-75h-45v75h-153v43l142 210h56zM472 114v162l-111 -162h111zM488 657h52l-201 -329l-197 -328h-52l201 328zM129 522h25q32 0 44.5 15t12.5 38t-14 37.5t-41 14.5t-42 -14.5t-15 -36.5v-8h-43v8q0 41 28 66t73 25t72 -24t27 -63q0 -55 -41 -75
q47 -22 47 -82q0 -44 -28.5 -69t-76.5 -25q-47 0 -75 24.5t-28 66.5v8h43v-9q0 -22 15.5 -36.5t43.5 -14.5q29 0 44.5 16t15.5 44q0 23 -14.5 40.5t-47.5 17.5h-25v36z" />
    <glyph glyph-name="questiondown" unicode="&#xbf;" horiz-adv-x="462" 
d="M265 330l4 -32q4 -30 -3 -54.5t-21 -46.5t-33 -42t-39 -40l-28 -28t-26 -30t-19.5 -35.5t-7.5 -43.5q0 -50 35 -80t100 -30q72 0 109 36t37 89v22h50v-18q0 -41 -14.5 -73.5t-40.5 -55.5t-62.5 -35t-79.5 -12q-41 0 -75.5 11t-59.5 31.5t-38.5 49.5t-13.5 66q0 28 9 51.5
t24 44.5t34 40l39 39q15 15 28.5 28t24 28.5t17.5 35.5t10 49l3 35h37zM287 458q0 -17 -11.5 -29t-28.5 -12t-29 12t-12 29t12 28.5t29 11.5t28.5 -11.5t11.5 -28.5z" />
    <glyph glyph-name="Agrave" unicode="&#xc0;" horiz-adv-x="544" 
d="M29 0l218 657h49l220 -657h-55l-55 167h-271l-54 -167h-52zM151 214h240l-121 366zM143 791l37 40l115 -112l-23 -25z" />
    <glyph glyph-name="Aacute" unicode="&#xc1;" horiz-adv-x="544" 
d="M29 0l218 657h49l220 -657h-55l-55 167h-271l-54 -167h-52zM151 214h240l-121 366zM271 694l-23 25l115 112l37 -40z" />
    <glyph glyph-name="Acircumflex" unicode="&#xc2;" horiz-adv-x="544" 
d="M29 0l218 657h49l220 -657h-55l-55 167h-271l-54 -167h-52zM151 214h240l-121 366zM291 832l99 -118l-21 -19l-98 89l-96 -88l-20 18l99 118h37z" />
    <glyph glyph-name="Atilde" unicode="&#xc3;" horiz-adv-x="544" 
d="M29 0l218 657h49l220 -657h-55l-55 167h-271l-54 -167h-52zM151 214h240l-121 366zM416 794q1 -6 1.5 -12t0.5 -12q0 -14 -3 -27t-10.5 -23.5t-20 -17t-31.5 -6.5q-17 0 -33 7t-33 17l-39 22q-10 5 -21.5 10.5t-22.5 5.5q-17 0 -26.5 -9.5t-14 -20.5t-5 -21.5t-0.5 -11.5
h-29q-1 5 -1.5 10t-0.5 10q0 32 20 56t58 24q15 0 29.5 -5t30.5 -14l41 -24q13 -8 25 -13.5t23 -5.5q12 0 18.5 6t10 15.5t4 20t0.5 19.5h29z" />
    <glyph glyph-name="Adieresis" unicode="&#xc4;" horiz-adv-x="544" 
d="M29 0l218 657h49l220 -657h-55l-55 167h-271l-54 -167h-52zM151 214h240l-121 366zM186 760q0 15 11 25.5t26 10.5t25 -10.5t10 -25.5t-10 -26t-25 -11t-26 11t-11 26zM287 760q0 15 11 25.5t26 10.5q14 0 24.5 -10.5t10.5 -25.5t-10.5 -26t-24.5 -11q-15 0 -26 11
t-11 26z" />
    <glyph glyph-name="Aring" unicode="&#xc5;" horiz-adv-x="544" 
d="M29 0l209 631q-26 10 -42.5 33.5t-16.5 52.5q0 38 26.5 65t66.5 27t66.5 -27t26.5 -65q0 -29 -16.5 -53t-43.5 -34l211 -630h-55l-55 167h-271l-54 -167h-52zM151 214h240l-121 366zM272 658q24 0 39.5 17t15.5 42t-15.5 42t-39.5 17t-39.5 -17t-15.5 -42t15.5 -42
t39.5 -17z" />
    <glyph glyph-name="AE" unicode="&#xc6;" horiz-adv-x="790" 
d="M13 0l329 657h389v-47h-310v-250h288v-47h-288v-266h318v-47h-370v160h-223l-79 -160h-54zM369 207v401l-199 -401h199z" />
    <glyph glyph-name="Ccedilla" unicode="&#xc7;" horiz-adv-x="545" 
d="M223 -76l20 69q-77 11 -123.5 64t-46.5 139v265q0 48 15 86t42.5 64.5t66 41t84.5 14.5t84 -13.5t65 -38t42 -60t15 -79.5v-14h-50v18q0 30 -10.5 55.5t-30 44t-49 29.5t-66.5 11q-38 0 -67 -12t-48.5 -32.5t-30 -49t-10.5 -61.5v-273q0 -33 10.5 -61.5t30 -49
t48.5 -32.5t67 -12q37 0 66.5 11t49 29.5t30 44t10.5 55.5v25h50v-21q0 -44 -15 -79t-42 -60t-64.5 -38.5t-82.5 -13.5l-11 -38h12q39 0 60 -18.5t21 -50.5q0 -33 -22 -51.5t-59 -18.5h-89v38h93q15 0 25 7.5t10 24.5q0 16 -10 24t-25 8h-50z" />
    <glyph glyph-name="Egrave" unicode="&#xc8;" horiz-adv-x="509" 
d="M140 313v-266h318v-47h-370v657h362v-47h-310v-250h288v-47h-288zM144 791l37 40l115 -112l-23 -25z" />
    <glyph glyph-name="Eacute" unicode="&#xc9;" horiz-adv-x="509" 
d="M140 313v-266h318v-47h-370v657h362v-47h-310v-250h288v-47h-288zM272 694l-23 25l115 112l37 -40z" />
    <glyph glyph-name="Ecircumflex" unicode="&#xca;" horiz-adv-x="509" 
d="M140 313v-266h318v-47h-370v657h362v-47h-310v-250h288v-47h-288zM292 832l99 -118l-21 -19l-98 89l-96 -88l-20 18l99 118h37z" />
    <glyph glyph-name="Edieresis" unicode="&#xcb;" horiz-adv-x="509" 
d="M140 313v-266h318v-47h-370v657h362v-47h-310v-250h288v-47h-288zM187 760q0 15 11 25.5t26 10.5t25 -10.5t10 -25.5t-10 -26t-25 -11t-26 11t-11 26zM288 760q0 15 11 25.5t26 10.5q14 0 24.5 -10.5t10.5 -25.5t-10.5 -26t-24.5 -11q-15 0 -26 11t-11 26z" />
    <glyph glyph-name="Igrave" unicode="&#xcc;" horiz-adv-x="228" 
d="M140 0h-52v657h52v-657zM-13 791l37 40l115 -112l-23 -25z" />
    <glyph glyph-name="Iacute" unicode="&#xcd;" horiz-adv-x="228" 
d="M140 0h-52v657h52v-657zM113 694l-23 25l115 112l37 -40z" />
    <glyph glyph-name="Icircumflex" unicode="&#xce;" horiz-adv-x="228" 
d="M140 0h-52v657h52v-657zM133 832l99 -118l-21 -19l-98 89l-96 -88l-20 18l99 118h37z" />
    <glyph glyph-name="Idieresis" unicode="&#xcf;" horiz-adv-x="228" 
d="M140 0h-52v657h52v-657zM27 760q0 15 11 25.5t26 10.5t25 -10.5t10 -25.5t-10 -26t-25 -11t-26 11t-11 26zM128 760q0 15 11 25.5t26 10.5q14 0 24.5 -10.5t10.5 -25.5t-10.5 -26t-24.5 -11q-15 0 -26 11t-11 26z" />
    <glyph glyph-name="Eth" unicode="&#xd0;" horiz-adv-x="571" 
d="M289 657q47 0 86.5 -14.5t67.5 -42t43.5 -66.5t15.5 -88v-235q0 -49 -15.5 -88t-43.5 -66.5t-67.5 -42t-86.5 -14.5h-199v314h-76v44h76v299h199zM142 610v-252h146v-44h-146v-267h147q39 0 69 12t50.5 33.5t31 51t10.5 63.5v243q0 34 -10.5 63.5t-31 51t-50.5 33.5
t-69 12h-147z" />
    <glyph glyph-name="Ntilde" unicode="&#xd1;" horiz-adv-x="580" 
d="M492 0h-44l-311 555v-555h-49v657h48l307 -547v547h49v-657zM434 794q1 -6 1.5 -12t0.5 -12q0 -14 -3 -27t-10.5 -23.5t-20 -17t-31.5 -6.5q-17 0 -33 7t-33 17l-39 22q-10 5 -21.5 10.5t-22.5 5.5q-17 0 -26.5 -9.5t-14 -20.5t-5 -21.5t-0.5 -11.5h-29q-1 5 -1.5 10
t-0.5 10q0 32 20 56t58 24q15 0 29.5 -5t30.5 -14l41 -24q13 -8 25 -13.5t23 -5.5q12 0 18.5 6t10 15.5t4 20t0.5 19.5h29z" />
    <glyph glyph-name="Ograve" unicode="&#xd2;" horiz-adv-x="556" 
d="M122 192q0 -33 10.5 -61.5t30 -49t48.5 -32.5t67 -12q37 0 66.5 12t49 32.5t30 49t10.5 61.5v273q0 33 -10.5 61.5t-30 49t-49 32.5t-66.5 12q-38 0 -67 -12t-48.5 -32.5t-30 -49t-10.5 -61.5v-273zM486 196q0 -48 -15 -86t-42.5 -64.5t-66 -41t-84.5 -14.5t-84.5 14.5
t-66 41t-42.5 64.5t-15 86v265q0 48 15 86t42.5 64.5t66 41t84.5 14.5t84.5 -14.5t66 -41t42.5 -64.5t15 -86v-265zM149 791l37 40l115 -112l-23 -25z" />
    <glyph glyph-name="Oacute" unicode="&#xd3;" horiz-adv-x="556" 
d="M122 192q0 -33 10.5 -61.5t30 -49t48.5 -32.5t67 -12q37 0 66.5 12t49 32.5t30 49t10.5 61.5v273q0 33 -10.5 61.5t-30 49t-49 32.5t-66.5 12q-38 0 -67 -12t-48.5 -32.5t-30 -49t-10.5 -61.5v-273zM486 196q0 -48 -15 -86t-42.5 -64.5t-66 -41t-84.5 -14.5t-84.5 14.5
t-66 41t-42.5 64.5t-15 86v265q0 48 15 86t42.5 64.5t66 41t84.5 14.5t84.5 -14.5t66 -41t42.5 -64.5t15 -86v-265zM277 694l-23 25l115 112l37 -40z" />
    <glyph glyph-name="Ocircumflex" unicode="&#xd4;" horiz-adv-x="556" 
d="M122 192q0 -33 10.5 -61.5t30 -49t48.5 -32.5t67 -12q37 0 66.5 12t49 32.5t30 49t10.5 61.5v273q0 33 -10.5 61.5t-30 49t-49 32.5t-66.5 12q-38 0 -67 -12t-48.5 -32.5t-30 -49t-10.5 -61.5v-273zM486 196q0 -48 -15 -86t-42.5 -64.5t-66 -41t-84.5 -14.5t-84.5 14.5
t-66 41t-42.5 64.5t-15 86v265q0 48 15 86t42.5 64.5t66 41t84.5 14.5t84.5 -14.5t66 -41t42.5 -64.5t15 -86v-265zM297 832l99 -118l-21 -19l-98 89l-96 -88l-20 18l99 118h37z" />
    <glyph glyph-name="Otilde" unicode="&#xd5;" horiz-adv-x="556" 
d="M122 192q0 -33 10.5 -61.5t30 -49t48.5 -32.5t67 -12q37 0 66.5 12t49 32.5t30 49t10.5 61.5v273q0 33 -10.5 61.5t-30 49t-49 32.5t-66.5 12q-38 0 -67 -12t-48.5 -32.5t-30 -49t-10.5 -61.5v-273zM486 196q0 -48 -15 -86t-42.5 -64.5t-66 -41t-84.5 -14.5t-84.5 14.5
t-66 41t-42.5 64.5t-15 86v265q0 48 15 86t42.5 64.5t66 41t84.5 14.5t84.5 -14.5t66 -41t42.5 -64.5t15 -86v-265zM422 794q1 -6 1.5 -12t0.5 -12q0 -14 -3 -27t-10.5 -23.5t-20 -17t-31.5 -6.5q-17 0 -33 7t-33 17l-39 22q-10 5 -21.5 10.5t-22.5 5.5q-17 0 -26.5 -9.5
t-14 -20.5t-5 -21.5t-0.5 -11.5h-29q-1 5 -1.5 10t-0.5 10q0 32 20 56t58 24q15 0 29.5 -5t30.5 -14l41 -24q13 -8 25 -13.5t23 -5.5q12 0 18.5 6t10 15.5t4 20t0.5 19.5h29z" />
    <glyph glyph-name="Odieresis" unicode="&#xd6;" horiz-adv-x="556" 
d="M122 192q0 -33 10.5 -61.5t30 -49t48.5 -32.5t67 -12q37 0 66.5 12t49 32.5t30 49t10.5 61.5v273q0 33 -10.5 61.5t-30 49t-49 32.5t-66.5 12q-38 0 -67 -12t-48.5 -32.5t-30 -49t-10.5 -61.5v-273zM486 196q0 -48 -15 -86t-42.5 -64.5t-66 -41t-84.5 -14.5t-84.5 14.5
t-66 41t-42.5 64.5t-15 86v265q0 48 15 86t42.5 64.5t66 41t84.5 14.5t84.5 -14.5t66 -41t42.5 -64.5t15 -86v-265zM192 760q0 15 11 25.5t26 10.5t25 -10.5t10 -25.5t-10 -26t-25 -11t-26 11t-11 26zM293 760q0 15 11 25.5t26 10.5q14 0 24.5 -10.5t10.5 -25.5t-10.5 -26
t-24.5 -11q-15 0 -26 11t-11 26z" />
    <glyph glyph-name="multiply" unicode="&#xd7;" horiz-adv-x="407" 
d="M172 328l-107 107l33 33l107 -107l106 106l32 -32l-106 -106l106 -106l-32 -33l-107 106l-106 -107l-33 33z" />
    <glyph glyph-name="Oslash" unicode="&#xd8;" horiz-adv-x="556" 
d="M486 196q0 -48 -15 -86t-42.5 -64.5t-66 -41t-84.5 -14.5q-71 0 -121 32l-33 -71h-49l47 100q-25 26 -38.5 62.5t-13.5 82.5v265q0 48 15 86t42.5 64.5t66 41t84.5 14.5q71 0 121 -32l34 71h49l-48 -101q25 -26 38.5 -62.5t13.5 -81.5v-265zM121 191q0 -53 26 -93
l233 491q-20 15 -45 23.5t-57 8.5q-38 0 -67 -12t-49 -32.5t-30.5 -49t-10.5 -61.5v-275zM435 466q0 52 -26 92l-232 -491q39 -31 101 -31q38 0 67 12t49 32.5t30.5 49t10.5 61.5v275z" />
    <glyph glyph-name="Ugrave" unicode="&#xd9;" horiz-adv-x="574" 
d="M492 657v-461q0 -48 -15 -86t-42 -64.5t-65 -41t-83 -14.5t-83 14.5t-65 41t-42 64.5t-15 86v461h52v-465q0 -33 10 -61.5t29.5 -49t48 -32.5t65.5 -12t65.5 12t48 32.5t29.5 49t10 61.5v465h52zM159 791l37 40l115 -112l-23 -25z" />
    <glyph glyph-name="Uacute" unicode="&#xda;" horiz-adv-x="574" 
d="M492 657v-461q0 -48 -15 -86t-42 -64.5t-65 -41t-83 -14.5t-83 14.5t-65 41t-42 64.5t-15 86v461h52v-465q0 -33 10 -61.5t29.5 -49t48 -32.5t65.5 -12t65.5 12t48 32.5t29.5 49t10 61.5v465h52zM286 694l-23 25l115 112l37 -40z" />
    <glyph glyph-name="Ucircumflex" unicode="&#xdb;" horiz-adv-x="574" 
d="M492 657v-461q0 -48 -15 -86t-42 -64.5t-65 -41t-83 -14.5t-83 14.5t-65 41t-42 64.5t-15 86v461h52v-465q0 -33 10 -61.5t29.5 -49t48 -32.5t65.5 -12t65.5 12t48 32.5t29.5 49t10 61.5v465h52zM305 832l99 -118l-21 -19l-98 89l-96 -88l-20 18l99 118h37z" />
    <glyph glyph-name="Udieresis" unicode="&#xdc;" horiz-adv-x="574" 
d="M492 657v-461q0 -48 -15 -86t-42 -64.5t-65 -41t-83 -14.5t-83 14.5t-65 41t-42 64.5t-15 86v461h52v-465q0 -33 10 -61.5t29.5 -49t48 -32.5t65.5 -12t65.5 12t48 32.5t29.5 49t10 61.5v465h52zM200 760q0 15 11 25.5t26 10.5t25 -10.5t10 -25.5t-10 -26t-25 -11t-26 11
t-11 26zM301 760q0 15 11 25.5t26 10.5q14 0 24.5 -10.5t10.5 -25.5t-10.5 -26t-24.5 -11q-15 0 -26 11t-11 26z" />
    <glyph glyph-name="Yacute" unicode="&#xdd;" horiz-adv-x="478" 
d="M78 657l163 -344l164 344h52l-192 -396v-261h-52v261l-192 396h57zM239 694l-23 25l115 112l37 -40z" />
    <glyph glyph-name="Thorn" unicode="&#xde;" horiz-adv-x="540" 
d="M140 536h135q48 0 88.5 -14.5t69.5 -41.5t45.5 -65.5t16.5 -85.5t-16.5 -85.5t-45.5 -66t-69.5 -42.5t-88.5 -15h-135v-120h-52v657h52v-121zM140 490v-324h133q78 0 123 44.5t45 118.5t-45 117.5t-123 43.5h-133z" />
    <glyph glyph-name="germandbls" unicode="&#xdf;" horiz-adv-x="500" 
d="M213 44h32q69 0 109.5 38.5t40.5 102.5q0 68 -38 108t-102 40h-42v41h24q65 0 103.5 36t38.5 96q0 58 -33.5 92.5t-93.5 34.5q-36 0 -60 -10.5t-38.5 -29t-20.5 -44t-6 -55.5v-494h-50v490q0 89 46 138t131 49q38 0 70.5 -12t56 -34t37 -53t13.5 -69q0 -56 -27 -94.5
t-74 -57.5v-2q54 -17 85.5 -59t31.5 -111q0 -42 -15 -76t-41.5 -58.5t-63.5 -37.5t-80 -13h-34v44z" />
    <glyph glyph-name="agrave" unicode="&#xe0;" 
d="M62 322q0 82 46 129t125 47q45 0 80.5 -18t58.5 -52l12 60h33v-488h-33l-12 61q-23 -34 -58.5 -52.5t-80.5 -18.5q-79 0 -125 47t-46 129v156zM236 35q62 0 96.5 39.5t34.5 97.5v144q0 58 -34.5 97.5t-96.5 39.5q-31 0 -54 -10t-38.5 -27t-23.5 -40t-8 -50v-164
q0 -27 8 -50t23.5 -40t38.5 -27t54 -10zM112 647l37 40l115 -112l-23 -25z" />
    <glyph glyph-name="aacute" unicode="&#xe1;" 
d="M62 322q0 82 46 129t125 47q45 0 80.5 -18t58.5 -52l12 60h33v-488h-33l-12 61q-23 -34 -58.5 -52.5t-80.5 -18.5q-79 0 -125 47t-46 129v156zM236 35q62 0 96.5 39.5t34.5 97.5v144q0 58 -34.5 97.5t-96.5 39.5q-31 0 -54 -10t-38.5 -27t-23.5 -40t-8 -50v-164
q0 -27 8 -50t23.5 -40t38.5 -27t54 -10zM237 550l-23 25l115 112l37 -40z" />
    <glyph glyph-name="acircumflex" unicode="&#xe2;" 
d="M62 322q0 82 46 129t125 47q45 0 80.5 -18t58.5 -52l12 60h33v-488h-33l-12 61q-23 -34 -58.5 -52.5t-80.5 -18.5q-79 0 -125 47t-46 129v156zM236 35q62 0 96.5 39.5t34.5 97.5v144q0 58 -34.5 97.5t-96.5 39.5q-31 0 -54 -10t-38.5 -27t-23.5 -40t-8 -50v-164
q0 -27 8 -50t23.5 -40t38.5 -27t54 -10zM257 688l99 -118l-21 -19l-98 89l-96 -88l-20 18l99 118h37z" />
    <glyph glyph-name="atilde" unicode="&#xe3;" 
d="M62 322q0 82 46 129t125 47q45 0 80.5 -18t58.5 -52l12 60h33v-488h-33l-12 61q-23 -34 -58.5 -52.5t-80.5 -18.5q-79 0 -125 47t-46 129v156zM236 35q62 0 96.5 39.5t34.5 97.5v144q0 58 -34.5 97.5t-96.5 39.5q-31 0 -54 -10t-38.5 -27t-23.5 -40t-8 -50v-164
q0 -27 8 -50t23.5 -40t38.5 -27t54 -10zM383 659q1 -6 1.5 -12t0.5 -12q0 -14 -3 -27t-10.5 -23.5t-20 -17t-31.5 -6.5q-17 0 -33 7t-33 17l-39 22q-10 6 -21.5 11t-22.5 5q-17 0 -26.5 -9.5t-14 -20.5t-5 -21.5t-0.5 -11.5h-29q-1 5 -1.5 10t-0.5 10q0 32 20 56t58 24
q15 0 29.5 -5t30.5 -14l41 -24q13 -8 25 -13.5t23 -5.5q12 0 18.5 6t10 15.5t4 20t0.5 19.5h29z" />
    <glyph glyph-name="adieresis" unicode="&#xe4;" 
d="M62 322q0 82 46 129t125 47q45 0 80.5 -18t58.5 -52l12 60h33v-488h-33l-12 61q-23 -34 -58.5 -52.5t-80.5 -18.5q-79 0 -125 47t-46 129v156zM236 35q62 0 96.5 39.5t34.5 97.5v144q0 58 -34.5 97.5t-96.5 39.5q-31 0 -54 -10t-38.5 -27t-23.5 -40t-8 -50v-164
q0 -27 8 -50t23.5 -40t38.5 -27t54 -10zM153 604q0 15 11 25.5t26 10.5t25 -10.5t10 -25.5t-10 -26t-25 -11t-26 11t-11 26zM254 604q0 15 11 25.5t26 10.5q14 0 24.5 -10.5t10.5 -25.5t-10.5 -26t-24.5 -11q-15 0 -26 11t-11 26z" />
    <glyph glyph-name="aring" unicode="&#xe5;" 
d="M62 322q0 82 46 129t125 47q45 0 80.5 -18t58.5 -52l12 60h33v-488h-33l-12 61q-23 -34 -58.5 -52.5t-80.5 -18.5q-79 0 -125 47t-46 129v156zM236 35q62 0 96.5 39.5t34.5 97.5v144q0 58 -34.5 97.5t-96.5 39.5q-31 0 -54 -10t-38.5 -27t-23.5 -40t-8 -50v-164
q0 -27 8 -50t23.5 -40t38.5 -27t54 -10zM239 562q24 0 39.5 17t15.5 42t-15.5 42t-39.5 17t-39.5 -17t-15.5 -42t15.5 -42t39.5 -17zM239 529q-40 0 -66.5 27t-26.5 65t26.5 65t66.5 27t66.5 -27t26.5 -65t-26.5 -65t-66.5 -27z" />
    <glyph glyph-name="ae" unicode="&#xe6;" horiz-adv-x="771" 
d="M52 130q0 66 44.5 99.5t126.5 33.5h134v68q0 52 -32.5 87.5t-92.5 35.5t-92.5 -32.5t-32.5 -80.5v-11h-48v7q0 37 13 67t36 51t55 32t71 11q53 0 91.5 -22.5t58.5 -63.5q22 42 61.5 64t91.5 22q39 0 72 -13t56 -37t36 -58.5t13 -77.5v-71h-307v-79q0 -55 33.5 -92.5
t96.5 -37.5q65 0 97.5 33.5t32.5 81.5v13h47v-9q0 -38 -13 -67.5t-36 -50.5t-56 -32t-72 -11q-57 0 -98 24.5t-61 69.5q-23 -45 -65.5 -69.5t-97.5 -24.5q-77 0 -120 37t-43 103zM218 35q32 0 57.5 10.5t43.5 29t28 43.5t10 54v47h-138q-18 0 -38 -3t-37 -12.5t-28.5 -28
t-11.5 -49.5q0 -38 27 -64.5t87 -26.5zM407 285h260v31q0 30 -8.5 55.5t-25 44t-41 29.5t-55.5 11t-55.5 -11t-41 -29.5t-25 -44t-8.5 -55.5v-31z" />
    <glyph glyph-name="ccedilla" unicode="&#xe7;" horiz-adv-x="472" 
d="M183 -76l21 69q-66 11 -105 58.5t-39 124.5v136q0 43 13 77.5t37 58.5t57 37t73 13t72.5 -11t56 -32t36.5 -51t13 -67v-8h-48v12q0 48 -33.5 80.5t-96.5 32.5q-31 0 -55.5 -10.5t-41 -29t-25 -44t-8.5 -54.5v-144q0 -29 8.5 -54.5t25 -44t41 -29t55.5 -10.5q65 0 97.5 33
t32.5 80v14h48v-10q0 -75 -48.5 -117t-126.5 -44l-11 -38h12q39 0 60 -18.5t21 -50.5q0 -33 -22 -51.5t-59 -18.5h-89v38h93q15 0 25 7.5t10 24.5q0 16 -10 24t-25 8h-50z" />
    <glyph glyph-name="egrave" unicode="&#xe8;" horiz-adv-x="474" 
d="M417 160v-9q0 -38 -13 -67.5t-36 -50.5t-56 -32t-72 -11q-40 0 -73 12t-57 35t-37 55.5t-13 73.5v146q0 43 13 77.5t37 58.5t57 37t73 13q39 0 72 -13t56 -37t36 -58.5t13 -77.5v-71h-307v-79q0 -55 33.5 -92.5t96.5 -37.5q65 0 97.5 33.5t32.5 81.5v13h47zM110 285h260
v31q0 30 -8.5 55.5t-25 44t-41 29.5t-55.5 11t-55.5 -11t-41 -29.5t-25 -44t-8.5 -55.5v-31zM111 647l37 40l115 -112l-23 -25z" />
    <glyph glyph-name="eacute" unicode="&#xe9;" horiz-adv-x="474" 
d="M417 160v-9q0 -38 -13 -67.5t-36 -50.5t-56 -32t-72 -11q-40 0 -73 12t-57 35t-37 55.5t-13 73.5v146q0 43 13 77.5t37 58.5t57 37t73 13q39 0 72 -13t56 -37t36 -58.5t13 -77.5v-71h-307v-79q0 -55 33.5 -92.5t96.5 -37.5q65 0 97.5 33.5t32.5 81.5v13h47zM110 285h260
v31q0 30 -8.5 55.5t-25 44t-41 29.5t-55.5 11t-55.5 -11t-41 -29.5t-25 -44t-8.5 -55.5v-31zM236 550l-23 25l115 112l37 -40z" />
    <glyph glyph-name="ecircumflex" unicode="&#xea;" horiz-adv-x="474" 
d="M417 160v-9q0 -38 -13 -67.5t-36 -50.5t-56 -32t-72 -11q-40 0 -73 12t-57 35t-37 55.5t-13 73.5v146q0 43 13 77.5t37 58.5t57 37t73 13q39 0 72 -13t56 -37t36 -58.5t13 -77.5v-71h-307v-79q0 -55 33.5 -92.5t96.5 -37.5q65 0 97.5 33.5t32.5 81.5v13h47zM110 285h260
v31q0 30 -8.5 55.5t-25 44t-41 29.5t-55.5 11t-55.5 -11t-41 -29.5t-25 -44t-8.5 -55.5v-31zM257 688l99 -118l-21 -19l-98 89l-96 -88l-20 18l99 118h37z" />
    <glyph glyph-name="edieresis" unicode="&#xeb;" horiz-adv-x="474" 
d="M417 160v-9q0 -38 -13 -67.5t-36 -50.5t-56 -32t-72 -11q-40 0 -73 12t-57 35t-37 55.5t-13 73.5v146q0 43 13 77.5t37 58.5t57 37t73 13q39 0 72 -13t56 -37t36 -58.5t13 -77.5v-71h-307v-79q0 -55 33.5 -92.5t96.5 -37.5q65 0 97.5 33.5t32.5 81.5v13h47zM110 285h260
v31q0 30 -8.5 55.5t-25 44t-41 29.5t-55.5 11t-55.5 -11t-41 -29.5t-25 -44t-8.5 -55.5v-31zM152 604q0 15 11 25.5t26 10.5t25 -10.5t10 -25.5t-10 -26t-25 -11t-26 11t-11 26zM253 604q0 15 11 25.5t26 10.5q14 0 24.5 -10.5t10.5 -25.5t-10.5 -26t-24.5 -11q-15 0 -26 11
t-11 26z" />
    <glyph glyph-name="igrave" unicode="&#xec;" horiz-adv-x="204" 
d="M127 488v-488h-50v488h50zM-25 647l37 40l115 -112l-23 -25z" />
    <glyph glyph-name="iacute" unicode="&#xed;" horiz-adv-x="204" 
d="M127 488v-488h-50v488h50zM101 550l-23 25l115 112l37 -40z" />
    <glyph glyph-name="icircumflex" unicode="&#xee;" horiz-adv-x="204" 
d="M127 488v-488h-50v488h50zM121 688l99 -118l-21 -19l-98 89l-96 -88l-20 18l99 118h37z" />
    <glyph glyph-name="idieresis" unicode="&#xef;" horiz-adv-x="204" 
d="M127 488v-488h-50v488h50zM16 604q0 15 11 25.5t26 10.5t25 -10.5t10 -25.5t-10 -26t-25 -11t-26 11t-11 26zM117 604q0 15 11 25.5t26 10.5q14 0 24.5 -10.5t10.5 -25.5t-10.5 -26t-24.5 -11q-15 0 -26 11t-11 26z" />
    <glyph glyph-name="eth" unicode="&#xf0;" horiz-adv-x="491" 
d="M358 592q29 -38 45.5 -88.5t16.5 -128.5v-199q0 -43 -13 -77.5t-37 -58.5t-57 -37t-73 -13t-73 13t-57 37t-37 58.5t-13 77.5v136q0 43 13 77.5t37 58.5t57 37t73 13q89 0 132 -73q-5 51 -19 87.5t-38 65.5l-104 -33v40l76 24l-62 68h55l50 -54l90 29v-40zM110 172
q0 -29 8.5 -54.5t25 -44t41 -29t55.5 -10.5t55.5 10.5t41 29t25 44t8.5 54.5v144q0 29 -8.5 54.5t-25 44t-41 29t-55.5 10.5t-55.5 -10.5t-41 -29t-25 -44t-8.5 -54.5v-144z" />
    <glyph glyph-name="ntilde" unicode="&#xf1;" horiz-adv-x="505" 
d="M77 0v488h33l12 -62q23 35 58.5 53.5t80.5 18.5q79 0 125 -47t46 -129v-322h-50v326q0 27 -8 50t-23.5 40t-38.5 27t-54 10q-62 0 -96.5 -39.5t-34.5 -97.5v-316h-50zM399 659q1 -6 1.5 -12t0.5 -12q0 -14 -3 -27t-10.5 -23.5t-20 -17t-31.5 -6.5q-17 0 -33 7t-33 17
l-39 22q-10 6 -21.5 11t-22.5 5q-17 0 -26.5 -9.5t-14 -20.5t-5 -21.5t-0.5 -11.5h-29q-1 5 -1.5 10t-0.5 10q0 32 20 56t58 24q15 0 29.5 -5t30.5 -14l41 -24q13 -8 25 -13.5t23 -5.5q12 0 18.5 6t10 15.5t4 20t0.5 19.5h29z" />
    <glyph glyph-name="ograve" unicode="&#xf2;" horiz-adv-x="480" 
d="M110 172q0 -29 8.5 -54.5t25 -44t41 -29t55.5 -10.5t55.5 10.5t41 29t25 44t8.5 54.5v144q0 29 -8.5 54.5t-25 44t-41 29t-55.5 10.5t-55.5 -10.5t-41 -29t-25 -44t-8.5 -54.5v-144zM420 176q0 -43 -13 -77.5t-37 -58.5t-57 -37t-73 -13t-73 13t-57 37t-37 58.5t-13 77.5
v136q0 43 13 77.5t37 58.5t57 37t73 13t73 -13t57 -37t37 -58.5t13 -77.5v-136zM112 647l37 40l115 -112l-23 -25z" />
    <glyph glyph-name="oacute" unicode="&#xf3;" horiz-adv-x="480" 
d="M110 172q0 -29 8.5 -54.5t25 -44t41 -29t55.5 -10.5t55.5 10.5t41 29t25 44t8.5 54.5v144q0 29 -8.5 54.5t-25 44t-41 29t-55.5 10.5t-55.5 -10.5t-41 -29t-25 -44t-8.5 -54.5v-144zM420 176q0 -43 -13 -77.5t-37 -58.5t-57 -37t-73 -13t-73 13t-57 37t-37 58.5t-13 77.5
v136q0 43 13 77.5t37 58.5t57 37t73 13t73 -13t57 -37t37 -58.5t13 -77.5v-136zM238 550l-23 25l115 112l37 -40z" />
    <glyph glyph-name="ocircumflex" unicode="&#xf4;" horiz-adv-x="480" 
d="M110 172q0 -29 8.5 -54.5t25 -44t41 -29t55.5 -10.5t55.5 10.5t41 29t25 44t8.5 54.5v144q0 29 -8.5 54.5t-25 44t-41 29t-55.5 10.5t-55.5 -10.5t-41 -29t-25 -44t-8.5 -54.5v-144zM420 176q0 -43 -13 -77.5t-37 -58.5t-57 -37t-73 -13t-73 13t-57 37t-37 58.5t-13 77.5
v136q0 43 13 77.5t37 58.5t57 37t73 13t73 -13t57 -37t37 -58.5t13 -77.5v-136zM258 688l99 -118l-21 -19l-98 89l-96 -88l-20 18l99 118h37z" />
    <glyph glyph-name="otilde" unicode="&#xf5;" horiz-adv-x="480" 
d="M110 172q0 -29 8.5 -54.5t25 -44t41 -29t55.5 -10.5t55.5 10.5t41 29t25 44t8.5 54.5v144q0 29 -8.5 54.5t-25 44t-41 29t-55.5 10.5t-55.5 -10.5t-41 -29t-25 -44t-8.5 -54.5v-144zM420 176q0 -43 -13 -77.5t-37 -58.5t-57 -37t-73 -13t-73 13t-57 37t-37 58.5t-13 77.5
v136q0 43 13 77.5t37 58.5t57 37t73 13t73 -13t57 -37t37 -58.5t13 -77.5v-136zM383 659q1 -6 1.5 -12t0.5 -12q0 -14 -3 -27t-10.5 -23.5t-20 -17t-31.5 -6.5q-17 0 -33 7t-33 17l-39 22q-10 6 -21.5 11t-22.5 5q-17 0 -26.5 -9.5t-14 -20.5t-5 -21.5t-0.5 -11.5h-29
q-1 5 -1.5 10t-0.5 10q0 32 20 56t58 24q15 0 29.5 -5t30.5 -14l41 -24q13 -8 25 -13.5t23 -5.5q12 0 18.5 6t10 15.5t4 20t0.5 19.5h29z" />
    <glyph glyph-name="odieresis" unicode="&#xf6;" horiz-adv-x="480" 
d="M110 172q0 -29 8.5 -54.5t25 -44t41 -29t55.5 -10.5t55.5 10.5t41 29t25 44t8.5 54.5v144q0 29 -8.5 54.5t-25 44t-41 29t-55.5 10.5t-55.5 -10.5t-41 -29t-25 -44t-8.5 -54.5v-144zM420 176q0 -43 -13 -77.5t-37 -58.5t-57 -37t-73 -13t-73 13t-57 37t-37 58.5t-13 77.5
v136q0 43 13 77.5t37 58.5t57 37t73 13t73 -13t57 -37t37 -58.5t13 -77.5v-136zM153 604q0 15 11 25.5t26 10.5t25 -10.5t10 -25.5t-10 -26t-25 -11t-26 11t-11 26zM254 604q0 15 11 25.5t26 10.5q14 0 24.5 -10.5t10.5 -25.5t-10.5 -26t-24.5 -11q-15 0 -26 11t-11 26z" />
    <glyph glyph-name="divide" unicode="&#xf7;" horiz-adv-x="509" 
d="M70 351h369v-45h-369v45zM213 485q0 17 12 28.5t29 11.5t28.5 -11.5t11.5 -28.5t-11.5 -29t-28.5 -12t-29 12t-12 29zM213 173q0 17 12 28.5t29 11.5t28.5 -11.5t11.5 -28.5t-11.5 -29t-28.5 -12t-29 12t-12 29z" />
    <glyph glyph-name="oslash" unicode="&#xf8;" horiz-adv-x="480" 
d="M420 176q0 -43 -13 -77.5t-37 -58.5t-57 -37t-73 -13q-28 0 -52 6.5t-44 17.5l-33 -63h-46l46 87q-51 49 -51 138v136q0 43 13 77.5t37 58.5t57 37t73 13q28 0 52 -6.5t44 -17.5l34 64h46l-46 -90q24 -24 37 -58.5t13 -77.5v-136zM109 171q0 -53 26 -90l182 351
q-31 23 -77 23q-32 0 -56 -10.5t-41 -29t-25.5 -44t-8.5 -54.5v-146zM371 317q0 51 -26 88l-182 -350q33 -22 77 -22q31 0 55.5 10.5t41.5 29t25.5 44t8.5 54.5v146z" />
    <glyph glyph-name="ugrave" unicode="&#xf9;" horiz-adv-x="499" 
d="M73 488h50v-326q0 -27 7.5 -50t22.5 -40t37 -27t52 -10t54.5 10.5t41 29t25.5 43.5t9 54v316h50v-488h-33l-12 61q-23 -34 -58 -52.5t-80 -18.5q-77 0 -121.5 47t-44.5 129v322zM121 647l37 40l115 -112l-23 -25z" />
    <glyph glyph-name="uacute" unicode="&#xfa;" horiz-adv-x="499" 
d="M73 488h50v-326q0 -27 7.5 -50t22.5 -40t37 -27t52 -10t54.5 10.5t41 29t25.5 43.5t9 54v316h50v-488h-33l-12 61q-23 -34 -58 -52.5t-80 -18.5q-77 0 -121.5 47t-44.5 129v322zM246 550l-23 25l115 112l37 -40z" />
    <glyph glyph-name="ucircumflex" unicode="&#xfb;" horiz-adv-x="499" 
d="M73 488h50v-326q0 -27 7.5 -50t22.5 -40t37 -27t52 -10t54.5 10.5t41 29t25.5 43.5t9 54v316h50v-488h-33l-12 61q-23 -34 -58 -52.5t-80 -18.5q-77 0 -121.5 47t-44.5 129v322zM266 688l99 -118l-21 -19l-98 89l-96 -88l-20 18l99 118h37z" />
    <glyph glyph-name="udieresis" unicode="&#xfc;" horiz-adv-x="499" 
d="M73 488h50v-326q0 -27 7.5 -50t22.5 -40t37 -27t52 -10t54.5 10.5t41 29t25.5 43.5t9 54v316h50v-488h-33l-12 61q-23 -34 -58 -52.5t-80 -18.5q-77 0 -121.5 47t-44.5 129v322zM161 604q0 15 11 25.5t26 10.5t25 -10.5t10 -25.5t-10 -26t-25 -11t-26 11t-11 26zM262 604
q0 15 11 25.5t26 10.5q14 0 24.5 -10.5t10.5 -25.5t-10.5 -26t-24.5 -11q-15 0 -26 11t-11 26z" />
    <glyph glyph-name="yacute" unicode="&#xfd;" horiz-adv-x="454" 
d="M134 -187l71 190l-177 485h55l146 -416l145 416h52l-245 -675h-47zM227 550l-23 25l115 112l37 -40z" />
    <glyph glyph-name="thorn" unicode="&#xfe;" 
d="M127 434q23 31 57 47.5t77 16.5q79 0 125 -47t46 -129v-156q0 -82 -46 -129t-125 -47q-43 0 -77 16.5t-57 47.5v-241h-50v864h50v-243zM258 453q-62 0 -96.5 -39.5t-34.5 -97.5v-144q0 -58 34.5 -97.5t96.5 -39.5q31 0 54 10t38.5 27t23.5 40t8 50v164q0 27 -8 50
t-23.5 40t-38.5 27t-54 10z" />
    <glyph glyph-name="ydieresis" unicode="&#xff;" horiz-adv-x="454" 
d="M134 -187l71 190l-177 485h55l146 -416l145 416h52l-245 -675h-47zM141 604q0 15 11 25.5t26 10.5t25 -10.5t10 -25.5t-10 -26t-25 -11t-26 11t-11 26zM242 604q0 15 11 25.5t26 10.5q14 0 24.5 -10.5t10.5 -25.5t-10.5 -26t-24.5 -11q-15 0 -26 11t-11 26z" />
    <glyph glyph-name="Amacron" unicode="&#x100;" horiz-adv-x="544" 
d="M29 0l218 657h49l220 -657h-55l-55 167h-271l-54 -167h-52zM151 214h240l-121 366zM156 778h232v-40h-232v40z" />
    <glyph glyph-name="amacron" unicode="&#x101;" 
d="M62 322q0 82 46 129t125 47q45 0 80.5 -18t58.5 -52l12 60h33v-488h-33l-12 61q-23 -34 -58.5 -52.5t-80.5 -18.5q-79 0 -125 47t-46 129v156zM236 35q62 0 96.5 39.5t34.5 97.5v144q0 58 -34.5 97.5t-96.5 39.5q-31 0 -54 -10t-38.5 -27t-23.5 -40t-8 -50v-164
q0 -27 8 -50t23.5 -40t38.5 -27t54 -10zM123 617h232v-40h-232v40z" />
    <glyph glyph-name="Abreve" unicode="&#x102;" horiz-adv-x="544" 
d="M29 0l218 657h49l220 -657h-55l-55 167h-271l-54 -167h-52zM151 214h240l-121 366zM365 806v-19q0 -38 -24.5 -65t-68.5 -27t-68.5 27t-24.5 65v19h37v-19q0 -25 15 -42t41 -17t41 17t15 42v19h37z" />
    <glyph glyph-name="abreve" unicode="&#x103;" 
d="M62 322q0 82 46 129t125 47q45 0 80.5 -18t58.5 -52l12 60h33v-488h-33l-12 61q-23 -34 -58.5 -52.5t-80.5 -18.5q-79 0 -125 47t-46 129v156zM236 35q62 0 96.5 39.5t34.5 97.5v144q0 58 -34.5 97.5t-96.5 39.5q-31 0 -54 -10t-38.5 -27t-23.5 -40t-8 -50v-164
q0 -27 8 -50t23.5 -40t38.5 -27t54 -10zM332 662v-19q0 -38 -24.5 -65t-68.5 -27t-68.5 27t-24.5 65v19h37v-19q0 -25 15 -42t41 -17t41 17t15 42v19h37z" />
    <glyph glyph-name="Aogonek" unicode="&#x104;" horiz-adv-x="544" 
d="M496 -148v-37h-51q-44 0 -65 20.5t-21 49.5q0 19 8.5 37t22.5 34t32 29t37 21l-53 161h-271l-54 -167h-52l218 657h49l220 -657h-20q-42 -23 -69.5 -50t-27.5 -58q0 -17 12.5 -28.5t40.5 -11.5h44zM151 214h240l-121 366z" />
    <glyph glyph-name="aogonek" unicode="&#x105;" 
d="M417 -148v-37h-51q-44 0 -65 20.5t-21 49.5q0 19 8.5 37.5t23 34.5t32.5 29t38 21l-10 54q-23 -34 -58.5 -52.5t-80.5 -18.5q-79 0 -125 47t-46 129v156q0 82 46 129t125 47q45 0 80.5 -18t58.5 -52l12 60h33v-488q-42 -23 -69.5 -50t-27.5 -58q0 -17 12.5 -28.5
t40.5 -11.5h44zM236 35q62 0 96.5 39.5t34.5 97.5v144q0 58 -34.5 97.5t-96.5 39.5q-31 0 -54 -10t-38.5 -27t-23.5 -40t-8 -50v-164q0 -27 8 -50t23.5 -40t38.5 -27t54 -10z" />
    <glyph glyph-name="Cacute" unicode="&#x106;" horiz-adv-x="542" 
d="M484 202v-21q0 -44 -15 -79.5t-42 -60.5t-65 -38t-84 -13t-84.5 14.5t-66 41t-42.5 64.5t-15 86v265q0 48 15 86t42.5 64.5t66 41t84.5 14.5t84 -13.5t65 -38t42 -60t15 -79.5v-14h-50v18q0 30 -10.5 55.5t-30 44t-49 29.5t-66.5 11q-38 0 -67 -12t-48.5 -32.5t-30 -49
t-10.5 -61.5v-273q0 -33 10.5 -61.5t30 -49t48.5 -32.5t67 -12q37 0 66.5 11t49 29.5t30 44t10.5 55.5v25h50zM277 694l-23 25l115 112l37 -40z" />
    <glyph glyph-name="cacute" unicode="&#x107;" horiz-adv-x="472" 
d="M418 161v-10q0 -38 -13 -67.5t-36.5 -50.5t-56 -32t-72.5 -11t-73 13t-57 37t-37 58.5t-13 77.5v136q0 43 13 77.5t37 58.5t57 37t73 13t72.5 -11t56 -32t36.5 -51t13 -67v-8h-48v12q0 48 -33.5 80.5t-96.5 32.5q-31 0 -55.5 -10.5t-41 -29t-25 -44t-8.5 -54.5v-144
q0 -29 8.5 -54.5t25 -44t41 -29t55.5 -10.5q65 0 97.5 33t32.5 80v14h48zM238 550l-23 25l115 112l37 -40z" />
    <glyph glyph-name="Ccircumflex" unicode="&#x108;" horiz-adv-x="542" 
d="M484 202v-21q0 -44 -15 -79.5t-42 -60.5t-65 -38t-84 -13t-84.5 14.5t-66 41t-42.5 64.5t-15 86v265q0 48 15 86t42.5 64.5t66 41t84.5 14.5t84 -13.5t65 -38t42 -60t15 -79.5v-14h-50v18q0 30 -10.5 55.5t-30 44t-49 29.5t-66.5 11q-38 0 -67 -12t-48.5 -32.5t-30 -49
t-10.5 -61.5v-273q0 -33 10.5 -61.5t30 -49t48.5 -32.5t67 -12q37 0 66.5 11t49 29.5t30 44t10.5 55.5v25h50zM296 832l99 -118l-21 -19l-98 89l-96 -88l-20 18l99 118h37z" />
    <glyph glyph-name="ccircumflex" unicode="&#x109;" horiz-adv-x="472" 
d="M418 161v-10q0 -38 -13 -67.5t-36.5 -50.5t-56 -32t-72.5 -11t-73 13t-57 37t-37 58.5t-13 77.5v136q0 43 13 77.5t37 58.5t57 37t73 13t72.5 -11t56 -32t36.5 -51t13 -67v-8h-48v12q0 48 -33.5 80.5t-96.5 32.5q-31 0 -55.5 -10.5t-41 -29t-25 -44t-8.5 -54.5v-144
q0 -29 8.5 -54.5t25 -44t41 -29t55.5 -10.5q65 0 97.5 33t32.5 80v14h48zM258 688l99 -118l-21 -19l-98 89l-96 -88l-20 18l99 118h37z" />
    <glyph glyph-name="Cdotaccent" unicode="&#x10a;" horiz-adv-x="542" 
d="M484 202v-21q0 -44 -15 -79.5t-42 -60.5t-65 -38t-84 -13t-84.5 14.5t-66 41t-42.5 64.5t-15 86v265q0 48 15 86t42.5 64.5t66 41t84.5 14.5t84 -13.5t65 -38t42 -60t15 -79.5v-14h-50v18q0 30 -10.5 55.5t-30 44t-49 29.5t-66.5 11q-38 0 -67 -12t-48.5 -32.5t-30 -49
t-10.5 -61.5v-273q0 -33 10.5 -61.5t30 -49t48.5 -32.5t67 -12q37 0 66.5 11t49 29.5t30 44t10.5 55.5v25h50zM239 753q0 17 11 28t27 11q17 0 28 -11t11 -28q0 -16 -11 -27t-28 -11q-16 0 -27 11t-11 27z" />
    <glyph glyph-name="cdotaccent" unicode="&#x10b;" horiz-adv-x="472" 
d="M418 161v-10q0 -38 -13 -67.5t-36.5 -50.5t-56 -32t-72.5 -11t-73 13t-57 37t-37 58.5t-13 77.5v136q0 43 13 77.5t37 58.5t57 37t73 13t72.5 -11t56 -32t36.5 -51t13 -67v-8h-48v12q0 48 -33.5 80.5t-96.5 32.5q-31 0 -55.5 -10.5t-41 -29t-25 -44t-8.5 -54.5v-144
q0 -29 8.5 -54.5t25 -44t41 -29t55.5 -10.5q65 0 97.5 33t32.5 80v14h48zM200 603q0 17 11 28t27 11q17 0 28 -11t11 -28q0 -16 -11 -27t-28 -11q-16 0 -27 11t-11 27z" />
    <glyph glyph-name="Ccaron" unicode="&#x10c;" horiz-adv-x="542" 
d="M484 202v-21q0 -44 -15 -79.5t-42 -60.5t-65 -38t-84 -13t-84.5 14.5t-66 41t-42.5 64.5t-15 86v265q0 48 15 86t42.5 64.5t66 41t84.5 14.5t84 -13.5t65 -38t42 -60t15 -79.5v-14h-50v18q0 30 -10.5 55.5t-30 44t-49 29.5t-66.5 11q-38 0 -67 -12t-48.5 -32.5t-30 -49
t-10.5 -61.5v-273q0 -33 10.5 -61.5t30 -49t48.5 -32.5t67 -12q37 0 66.5 11t49 29.5t30 44t10.5 55.5v25h50zM259 690l-99 118l21 19l98 -89l96 88l20 -18l-99 -118h-37z" />
    <glyph glyph-name="ccaron" unicode="&#x10d;" horiz-adv-x="472" 
d="M418 161v-10q0 -38 -13 -67.5t-36.5 -50.5t-56 -32t-72.5 -11t-73 13t-57 37t-37 58.5t-13 77.5v136q0 43 13 77.5t37 58.5t57 37t73 13t72.5 -11t56 -32t36.5 -51t13 -67v-8h-48v12q0 48 -33.5 80.5t-96.5 32.5q-31 0 -55.5 -10.5t-41 -29t-25 -44t-8.5 -54.5v-144
q0 -29 8.5 -54.5t25 -44t41 -29t55.5 -10.5q65 0 97.5 33t32.5 80v14h48zM220 551l-99 118l21 19l98 -89l96 88l20 -18l-99 -118h-37z" />
    <glyph glyph-name="Dcaron" unicode="&#x10e;" horiz-adv-x="569" 
d="M287 657q47 0 86.5 -14.5t67.5 -42t43.5 -66.5t15.5 -88v-235q0 -49 -15.5 -88t-43.5 -66.5t-67.5 -42t-86.5 -14.5h-199v657h199zM140 610v-563h147q39 0 69 12t50.5 33.5t31 51t10.5 63.5v243q0 34 -10.5 63.5t-31 51t-50.5 33.5t-69 12h-147zM239 690l-99 118l21 19
l98 -89l96 88l20 -18l-99 -118h-37z" />
    <glyph glyph-name="dcaron" unicode="&#x10f;" 
d="M372 61q-23 -34 -58.5 -52.5t-80.5 -18.5q-79 0 -125 47t-46 129v156q0 82 46 129t125 47q42 0 76.5 -16.5t57.5 -48.5v244h50v-677h-33zM236 35q62 0 96.5 39.5t34.5 97.5v144q0 58 -34.5 97.5t-96.5 39.5q-31 0 -54 -10t-38.5 -27t-23.5 -40t-8 -50v-164q0 -27 8 -50
t23.5 -40t38.5 -27t54 -10zM535 677l-46 -121h-39l22 121h63z" />
    <glyph glyph-name="Dcroat" unicode="&#x110;" horiz-adv-x="585" 
d="M303 657q47 0 86.5 -14.5t67.5 -42t43.5 -66.5t15.5 -88v-235q0 -49 -15.5 -88t-43.5 -66.5t-67.5 -42t-86.5 -14.5h-199v314h-76v44h76v299h199zM156 610v-252h146v-44h-146v-267h147q39 0 69 12t50.5 33.5t31 51t10.5 63.5v243q0 34 -10.5 63.5t-31 51t-50.5 33.5
t-69 12h-147z" />
    <glyph glyph-name="dcroat" unicode="&#x111;" 
d="M372 61q-23 -34 -58.5 -52.5t-80.5 -18.5q-79 0 -125 47t-46 129v156q0 82 46 129t125 47q42 0 76.5 -16.5t57.5 -48.5v123h-132v42h132v79h50v-79h60v-42h-60v-556h-33zM236 35q62 0 96.5 39.5t34.5 97.5v144q0 58 -34.5 97.5t-96.5 39.5q-31 0 -54 -10t-38.5 -27
t-23.5 -40t-8 -50v-164q0 -27 8 -50t23.5 -40t38.5 -27t54 -10z" />
    <glyph glyph-name="Emacron" unicode="&#x112;" horiz-adv-x="509" 
d="M140 313v-266h318v-47h-370v657h362v-47h-310v-250h288v-47h-288zM157 778h232v-40h-232v40z" />
    <glyph glyph-name="emacron" unicode="&#x113;" horiz-adv-x="474" 
d="M417 160v-9q0 -38 -13 -67.5t-36 -50.5t-56 -32t-72 -11q-40 0 -73 12t-57 35t-37 55.5t-13 73.5v146q0 43 13 77.5t37 58.5t57 37t73 13q39 0 72 -13t56 -37t36 -58.5t13 -77.5v-71h-307v-79q0 -55 33.5 -92.5t96.5 -37.5q65 0 97.5 33.5t32.5 81.5v13h47zM110 285h260
v31q0 30 -8.5 55.5t-25 44t-41 29.5t-55.5 11t-55.5 -11t-41 -29.5t-25 -44t-8.5 -55.5v-31zM122 617h232v-40h-232v40z" />
    <glyph glyph-name="Ebreve" unicode="&#x114;" horiz-adv-x="509" 
d="M140 313v-266h318v-47h-370v657h362v-47h-310v-250h288v-47h-288zM366 806v-19q0 -38 -24.5 -65t-68.5 -27t-68.5 27t-24.5 65v19h37v-19q0 -25 15 -42t41 -17t41 17t15 42v19h37z" />
    <glyph glyph-name="ebreve" unicode="&#x115;" horiz-adv-x="474" 
d="M417 160v-9q0 -38 -13 -67.5t-36 -50.5t-56 -32t-72 -11q-40 0 -73 12t-57 35t-37 55.5t-13 73.5v146q0 43 13 77.5t37 58.5t57 37t73 13q39 0 72 -13t56 -37t36 -58.5t13 -77.5v-71h-307v-79q0 -55 33.5 -92.5t96.5 -37.5q65 0 97.5 33.5t32.5 81.5v13h47zM110 285h260
v31q0 30 -8.5 55.5t-25 44t-41 29.5t-55.5 11t-55.5 -11t-41 -29.5t-25 -44t-8.5 -55.5v-31zM331 662v-19q0 -38 -24.5 -65t-68.5 -27t-68.5 27t-24.5 65v19h37v-19q0 -25 15 -42t41 -17t41 17t15 42v19h37z" />
    <glyph glyph-name="Edotaccent" unicode="&#x116;" horiz-adv-x="509" 
d="M140 313v-266h318v-47h-370v657h362v-47h-310v-250h288v-47h-288zM235 753q0 17 11 28t27 11q17 0 28 -11t11 -28q0 -16 -11 -27t-28 -11q-16 0 -27 11t-11 27z" />
    <glyph glyph-name="edotaccent" unicode="&#x117;" horiz-adv-x="474" 
d="M417 160v-9q0 -38 -13 -67.5t-36 -50.5t-56 -32t-72 -11q-40 0 -73 12t-57 35t-37 55.5t-13 73.5v146q0 43 13 77.5t37 58.5t57 37t73 13q39 0 72 -13t56 -37t36 -58.5t13 -77.5v-71h-307v-79q0 -55 33.5 -92.5t96.5 -37.5q65 0 97.5 33.5t32.5 81.5v13h47zM110 285h260
v31q0 30 -8.5 55.5t-25 44t-41 29.5t-55.5 11t-55.5 -11t-41 -29.5t-25 -44t-8.5 -55.5v-31zM200 603q0 17 11 28t27 11q17 0 28 -11t11 -28q0 -16 -11 -27t-28 -11q-16 0 -27 11t-11 27z" />
    <glyph glyph-name="Eogonek" unicode="&#x118;" horiz-adv-x="509" 
d="M437 -148v-37h-51q-44 0 -65 20.5t-21 49.5q0 17 7 34t19 32t28 27.5t34 21.5h-300v657h362v-47h-310v-250h288v-47h-288v-266h318v-47h-21q-42 -23 -69.5 -50t-27.5 -58q0 -17 12.5 -28.5t40.5 -11.5h44z" />
    <glyph glyph-name="eogonek" unicode="&#x119;" horiz-adv-x="474" 
d="M417 160v-9q0 -36 -12 -65t-33 -50l-30 -30t-26.5 -30.5t-19 -32t-7.5 -35.5q0 -25 12.5 -40.5t40.5 -15.5h44v-37h-51q-44 0 -65 25.5t-21 60.5q0 27 13 51t31 44q-24 -6 -53 -6q-40 0 -73 12t-57 35t-37 55.5t-13 73.5v146q0 43 13 77.5t37 58.5t57 37t73 13
q39 0 72 -13t56 -37t36 -58.5t13 -77.5v-71h-307v-79q0 -55 33.5 -92.5t96.5 -37.5q65 0 97.5 33.5t32.5 81.5v13h47zM110 285h260v31q0 30 -8.5 55.5t-25 44t-41 29.5t-55.5 11t-55.5 -11t-41 -29.5t-25 -44t-8.5 -55.5v-31z" />
    <glyph glyph-name="Ecaron" unicode="&#x11a;" horiz-adv-x="509" 
d="M140 313v-266h318v-47h-370v657h362v-47h-310v-250h288v-47h-288zM255 690l-99 118l21 19l98 -89l96 88l20 -18l-99 -118h-37z" />
    <glyph glyph-name="ecaron" unicode="&#x11b;" horiz-adv-x="474" 
d="M417 160v-9q0 -38 -13 -67.5t-36 -50.5t-56 -32t-72 -11q-40 0 -73 12t-57 35t-37 55.5t-13 73.5v146q0 43 13 77.5t37 58.5t57 37t73 13q39 0 72 -13t56 -37t36 -58.5t13 -77.5v-71h-307v-79q0 -55 33.5 -92.5t96.5 -37.5q65 0 97.5 33.5t32.5 81.5v13h47zM110 285h260
v31q0 30 -8.5 55.5t-25 44t-41 29.5t-55.5 11t-55.5 -11t-41 -29.5t-25 -44t-8.5 -55.5v-31zM220 551l-99 118l21 19l98 -89l96 88l20 -18l-99 -118h-37z" />
    <glyph glyph-name="Gcircumflex" unicode="&#x11c;" horiz-adv-x="548" 
d="M299 315h185v-134q0 -44 -15 -79.5t-42 -60.5t-64.5 -38t-83.5 -13t-84.5 14.5t-66 41t-43 64.5t-15.5 86v265q0 48 15 86t42.5 64.5t66 41t84.5 14.5t84 -12.5t65 -36t42 -57t15 -75.5v-14h-50v18q0 55 -40.5 92.5t-115.5 37.5q-38 0 -67 -12t-48.5 -32.5t-30 -49
t-10.5 -61.5v-273q0 -33 10.5 -61.5t30.5 -49t49 -32.5t67 -12q76 0 116 40t40 100v93h-136v45zM295 832l99 -118l-21 -19l-98 89l-96 -88l-20 18l99 118h37z" />
    <glyph glyph-name="gcircumflex" unicode="&#x11d;" 
d="M62 322q0 82 46 129t125 47q45 0 80.5 -18t58.5 -52l12 60h33v-520q0 -80 -48 -122.5t-126 -42.5t-125 37.5t-47 103.5v5h48v-10q0 -38 30.5 -65.5t93.5 -27.5q60 0 92 32.5t32 84.5v108q-23 -31 -57.5 -47.5t-76.5 -16.5q-79 0 -125 47t-46 129v139zM236 52
q62 0 96.5 39.5t34.5 97.5v127q0 58 -34.5 97.5t-96.5 39.5q-31 0 -54 -10t-38.5 -27t-23.5 -40t-8 -50v-147q0 -27 8 -50t23.5 -40t38.5 -27t54 -10zM258 688l99 -118l-21 -19l-98 89l-96 -88l-20 18l99 118h37z" />
    <glyph glyph-name="Gbreve" unicode="&#x11e;" horiz-adv-x="548" 
d="M299 315h185v-134q0 -44 -15 -79.5t-42 -60.5t-64.5 -38t-83.5 -13t-84.5 14.5t-66 41t-43 64.5t-15.5 86v265q0 48 15 86t42.5 64.5t66 41t84.5 14.5t84 -12.5t65 -36t42 -57t15 -75.5v-14h-50v18q0 55 -40.5 92.5t-115.5 37.5q-38 0 -67 -12t-48.5 -32.5t-30 -49
t-10.5 -61.5v-273q0 -33 10.5 -61.5t30.5 -49t49 -32.5t67 -12q76 0 116 40t40 100v93h-136v45zM370 806v-19q0 -38 -24.5 -65t-68.5 -27t-68.5 27t-24.5 65v19h37v-19q0 -25 15 -42t41 -17t41 17t15 42v19h37z" />
    <glyph glyph-name="gbreve" unicode="&#x11f;" 
d="M62 322q0 82 46 129t125 47q45 0 80.5 -18t58.5 -52l12 60h33v-520q0 -80 -48 -122.5t-126 -42.5t-125 37.5t-47 103.5v5h48v-10q0 -38 30.5 -65.5t93.5 -27.5q60 0 92 32.5t32 84.5v108q-23 -31 -57.5 -47.5t-76.5 -16.5q-79 0 -125 47t-46 129v139zM236 52
q62 0 96.5 39.5t34.5 97.5v127q0 58 -34.5 97.5t-96.5 39.5q-31 0 -54 -10t-38.5 -27t-23.5 -40t-8 -50v-147q0 -27 8 -50t23.5 -40t38.5 -27t54 -10zM332 662v-19q0 -38 -24.5 -65t-68.5 -27t-68.5 27t-24.5 65v19h37v-19q0 -25 15 -42t41 -17t41 17t15 42v19h37z" />
    <glyph glyph-name="Gdotaccent" unicode="&#x120;" horiz-adv-x="548" 
d="M299 315h185v-134q0 -44 -15 -79.5t-42 -60.5t-64.5 -38t-83.5 -13t-84.5 14.5t-66 41t-43 64.5t-15.5 86v265q0 48 15 86t42.5 64.5t66 41t84.5 14.5t84 -12.5t65 -36t42 -57t15 -75.5v-14h-50v18q0 55 -40.5 92.5t-115.5 37.5q-38 0 -67 -12t-48.5 -32.5t-30 -49
t-10.5 -61.5v-273q0 -33 10.5 -61.5t30.5 -49t49 -32.5t67 -12q76 0 116 40t40 100v93h-136v45zM238 753q0 17 11 28t27 11q17 0 28 -11t11 -28q0 -16 -11 -27t-28 -11q-16 0 -27 11t-11 27z" />
    <glyph glyph-name="gdotaccent" unicode="&#x121;" 
d="M62 322q0 82 46 129t125 47q45 0 80.5 -18t58.5 -52l12 60h33v-520q0 -80 -48 -122.5t-126 -42.5t-125 37.5t-47 103.5v5h48v-10q0 -38 30.5 -65.5t93.5 -27.5q60 0 92 32.5t32 84.5v108q-23 -31 -57.5 -47.5t-76.5 -16.5q-79 0 -125 47t-46 129v139zM236 52
q62 0 96.5 39.5t34.5 97.5v127q0 58 -34.5 97.5t-96.5 39.5q-31 0 -54 -10t-38.5 -27t-23.5 -40t-8 -50v-147q0 -27 8 -50t23.5 -40t38.5 -27t54 -10zM201 603q0 17 11 28t27 11q17 0 28 -11t11 -28q0 -16 -11 -27t-28 -11q-16 0 -27 11t-11 27z" />
    <glyph glyph-name="uni0122" unicode="&#x122;" horiz-adv-x="548" 
d="M299 315h185v-134q0 -44 -15 -79.5t-42 -60.5t-64.5 -38t-83.5 -13t-84.5 14.5t-66 41t-43 64.5t-15.5 86v265q0 48 15 86t42.5 64.5t66 41t84.5 14.5t84 -12.5t65 -36t42 -57t15 -75.5v-14h-50v18q0 55 -40.5 92.5t-115.5 37.5q-38 0 -67 -12t-48.5 -32.5t-30 -49
t-10.5 -61.5v-273q0 -33 10.5 -61.5t30.5 -49t49 -32.5t67 -12q76 0 116 40t40 100v93h-136v45zM320 -41l-60 -157h-42l36 157h66z" />
    <glyph glyph-name="uni0123" unicode="&#x123;" 
d="M62 322q0 82 46 129t125 47q45 0 80.5 -18t58.5 -52l12 60h33v-520q0 -80 -48 -122.5t-126 -42.5t-125 37.5t-47 103.5v5h48v-10q0 -38 30.5 -65.5t93.5 -27.5q60 0 92 32.5t32 84.5v108q-23 -31 -57.5 -47.5t-76.5 -16.5q-79 0 -125 47t-46 129v139zM236 52
q62 0 96.5 39.5t34.5 97.5v127q0 58 -34.5 97.5t-96.5 39.5q-31 0 -54 -10t-38.5 -27t-23.5 -40t-8 -50v-147q0 -27 8 -50t23.5 -40t38.5 -27t54 -10zM200 551l60 157h42l-36 -157h-66z" />
    <glyph glyph-name="Hcircumflex" unicode="&#x124;" horiz-adv-x="582" 
d="M494 0h-52v313h-302v-313h-52v657h52v-297h302v297h52v-657zM309 832l99 -118l-21 -19l-98 89l-96 -88l-20 18l99 118h37z" />
    <glyph glyph-name="hcircumflex" unicode="&#x125;" horiz-adv-x="505" 
d="M77 0v677h50v-243q23 31 57 47.5t77 16.5q79 0 125 -47t46 -129v-322h-50v326q0 27 -8 50t-23.5 40t-38.5 27t-54 10q-62 0 -96.5 -39.5t-34.5 -97.5v-316h-50zM120 833l99 -118l-21 -19l-98 89l-96 -88l-20 18l99 118h37z" />
    <glyph glyph-name="Hbar" unicode="&#x126;" horiz-adv-x="582" 
d="M494 540h60v-42h-60v-498h-52v313h-302v-313h-52v498h-60v42h60v117h52v-117h302v117h52v-117zM442 360v138h-302v-138h302z" />
    <glyph glyph-name="hbar" unicode="&#x127;" horiz-adv-x="505" 
d="M77 0v556h-60v42h60v79h50v-79h132v-42h-132v-122q23 31 57 47.5t77 16.5q79 0 125 -47t46 -129v-322h-50v326q0 27 -8 50t-23.5 40t-38.5 27t-54 10q-62 0 -96.5 -39.5t-34.5 -97.5v-316h-50z" />
    <glyph glyph-name="Itilde" unicode="&#x128;" horiz-adv-x="228" 
d="M140 0h-52v657h52v-657zM258 794q1 -6 1.5 -12t0.5 -12q0 -14 -3 -27t-10.5 -23.5t-20 -17t-31.5 -6.5q-17 0 -33 7t-33 17l-39 22q-10 5 -21.5 10.5t-22.5 5.5q-17 0 -26.5 -9.5t-14 -20.5t-5 -21.5t-0.5 -11.5h-29q-1 5 -1.5 10t-0.5 10q0 32 20 56t58 24q15 0 29.5 -5
t30.5 -14l41 -24q13 -8 25 -13.5t23 -5.5q12 0 18.5 6t10 15.5t4 20t0.5 19.5h29z" />
    <glyph glyph-name="itilde" unicode="&#x129;" horiz-adv-x="204" 
d="M127 488v-488h-50v488h50zM246 659q1 -6 1.5 -12t0.5 -12q0 -14 -3 -27t-10.5 -23.5t-20 -17t-31.5 -6.5q-17 0 -33 7t-33 17l-39 22q-10 6 -21.5 11t-22.5 5q-17 0 -26.5 -9.5t-14 -20.5t-5 -21.5t-0.5 -11.5h-29q-1 5 -1.5 10t-0.5 10q0 32 20 56t58 24q15 0 29.5 -5
t30.5 -14l41 -24q13 -8 25 -13.5t23 -5.5q12 0 18.5 6t10 15.5t4 20t0.5 19.5h29z" />
    <glyph glyph-name="Imacron" unicode="&#x12a;" horiz-adv-x="228" 
d="M140 0h-52v657h52v-657zM-2 778h232v-40h-232v40z" />
    <glyph glyph-name="imacron" unicode="&#x12b;" horiz-adv-x="204" 
d="M127 488v-488h-50v488h50zM-14 617h232v-40h-232v40z" />
    <glyph glyph-name="Iogonek" unicode="&#x12e;" horiz-adv-x="228" 
d="M136 -148v-37h-51q-44 0 -65 20.5t-21 49.5q0 17 7.5 34t19.5 32t28 27.5t34 21.5v657h52v-657h-4q-42 -23 -69.5 -50t-27.5 -58q0 -17 12.5 -28.5t40.5 -11.5h44z" />
    <glyph glyph-name="iogonek" unicode="&#x12f;" horiz-adv-x="204" 
d="M125 -148v-37h-51q-44 0 -65 20.5t-21 49.5q0 17 7.5 34t19.5 32t28 27.5t34 21.5v488h50v-488h-2q-42 -23 -69.5 -50t-27.5 -58q0 -17 12.5 -28.5t40.5 -11.5h44zM65 630q0 16 10.5 26.5t26.5 10.5t26.5 -10.5t10.5 -26.5t-10.5 -26.5t-26.5 -10.5t-26.5 10.5
t-10.5 26.5z" />
    <glyph glyph-name="Idotaccent" unicode="&#x130;" horiz-adv-x="228" 
d="M140 0h-52v657h52v-657zM75 753q0 17 11 28t27 11q17 0 28 -11t11 -28q0 -16 -11 -27t-28 -11q-16 0 -27 11t-11 27z" />
    <glyph glyph-name="dotlessi" unicode="&#x131;" horiz-adv-x="204" 
d="M127 488v-488h-50v488h50z" />
    <glyph glyph-name="IJ" unicode="&#x132;" horiz-adv-x="712" 
d="M140 0h-52v657h52v-657zM310 199v-27q0 -57 35 -96t99 -39q65 0 98.5 39t33.5 96v485h52v-481q0 -43 -13.5 -77.5t-37.5 -58.5t-58 -37t-75 -13t-74.5 13t-58 37t-38 58.5t-13.5 77.5v23h50z" />
    <glyph glyph-name="ij" unicode="&#x133;" horiz-adv-x="414" 
d="M65 630q0 16 10.5 26.5t26.5 10.5t26.5 -10.5t10.5 -26.5t-10.5 -26.5t-26.5 -10.5t-26.5 10.5t-10.5 26.5zM127 488v-488h-50v488h50zM167 -153q61 0 90.5 34.5t29.5 93.5v513h50v-509q0 -86 -47 -131t-123 -45h-24v44h24zM275 630q0 16 10.5 26.5t26.5 10.5t26.5 -10.5
t10.5 -26.5t-10.5 -26.5t-26.5 -10.5t-26.5 10.5t-10.5 26.5z" />
    <glyph glyph-name="Jcircumflex" unicode="&#x134;" horiz-adv-x="481" 
d="M79 199v-27q0 -57 35 -96t99 -39q65 0 98.5 39t33.5 96v485h52v-481q0 -43 -13.5 -77.5t-37.5 -58.5t-58 -37t-75 -13t-74.5 13t-58 37t-38 58.5t-13.5 77.5v23h50zM390 832l99 -118l-21 -19l-98 89l-96 -88l-20 18l99 118h37z" />
    <glyph glyph-name="jcircumflex" unicode="&#x135;" horiz-adv-x="204" 
d="M-43 -153q61 0 90.5 34.5t29.5 93.5v513h50v-509q0 -86 -47 -131t-123 -45h-24v44h24zM121 688l99 -118l-21 -19l-98 89l-96 -88l-20 18l99 118h37z" />
    <glyph glyph-name="uni0136" unicode="&#x136;" horiz-adv-x="533" 
d="M140 262l305 395h59l-203 -264l209 -393h-59l-185 350l-126 -164v-186h-52v657h52v-395zM311 -41l-60 -157h-42l36 157h66z" />
    <glyph glyph-name="uni0137" unicode="&#x137;" horiz-adv-x="465" 
d="M127 677v-448l245 259h62l-176 -186l183 -302h-59l-160 266l-95 -100v-166h-50v677h50zM276 -41l-60 -157h-42l36 157h66z" />
    <glyph glyph-name="kgreenlandic" unicode="&#x138;" horiz-adv-x="465" 
d="M127 488v-257l243 257h64l-176 -186l183 -302h-59l-160 266l-95 -100v-166h-50v488h50z" />
    <glyph glyph-name="Lacute" unicode="&#x139;" horiz-adv-x="458" 
d="M140 47h302v-47h-354v657h52v-610zM114 694l-23 25l115 112l37 -40z" />
    <glyph glyph-name="lacute" unicode="&#x13a;" horiz-adv-x="216" 
d="M133 677v-677h-50v677h50zM107 704l-23 25l115 112l37 -40z" />
    <glyph glyph-name="uni013B" unicode="&#x13b;" horiz-adv-x="458" 
d="M140 47h302v-47h-354v657h52v-610zM296 -41l-60 -157h-42l36 157h66z" />
    <glyph glyph-name="uni013C" unicode="&#x13c;" horiz-adv-x="216" 
d="M133 677v-677h-50v677h50zM140 -41l-60 -157h-42l36 157h66z" />
    <glyph glyph-name="Lcaron" unicode="&#x13d;" horiz-adv-x="458" 
d="M140 47h302v-47h-354v657h52v-610zM287 657l-46 -121h-39l22 121h63z" />
    <glyph glyph-name="lcaron" unicode="&#x13e;" horiz-adv-x="216" 
d="M133 677v-677h-50v677h50zM268 677l-46 -121h-39l22 121h63z" />
    <glyph glyph-name="Ldot" unicode="&#x13f;" horiz-adv-x="458" 
d="M140 47h302v-47h-354v657h52v-610zM225 352q0 17 11.5 29t28.5 12t29 -12t12 -29t-12 -28.5t-29 -11.5t-28.5 11.5t-11.5 28.5z" />
    <glyph glyph-name="ldot" unicode="&#x140;" horiz-adv-x="249" 
d="M133 677v-677h-50v677h50zM191 359q0 17 11.5 29t28.5 12t29 -12t12 -29t-12 -28.5t-29 -11.5t-28.5 11.5t-11.5 28.5z" />
    <glyph glyph-name="Lslash" unicode="&#x141;" horiz-adv-x="460" 
d="M142 388l163 79v-47l-163 -79v-294h302v-47h-354v315l-73 -35v47l73 35v295h52v-269z" />
    <glyph glyph-name="lslash" unicode="&#x142;" horiz-adv-x="230" 
d="M141 677v-242l66 32v-47l-66 -32v-388h-50v364l-66 -32v47l66 32v266h50z" />
    <glyph glyph-name="Nacute" unicode="&#x143;" horiz-adv-x="580" 
d="M492 0h-44l-311 555v-555h-49v657h48l307 -547v547h49v-657zM290 694l-23 25l115 112l37 -40z" />
    <glyph glyph-name="nacute" unicode="&#x144;" horiz-adv-x="505" 
d="M77 0v488h33l12 -62q23 35 58.5 53.5t80.5 18.5q79 0 125 -47t46 -129v-322h-50v326q0 27 -8 50t-23.5 40t-38.5 27t-54 10q-62 0 -96.5 -39.5t-34.5 -97.5v-316h-50zM253 550l-23 25l115 112l37 -40z" />
    <glyph glyph-name="uni0145" unicode="&#x145;" horiz-adv-x="580" 
d="M492 0h-44l-311 555v-555h-49v657h48l307 -547v547h49v-657zM327 -41l-60 -157h-42l36 157h66z" />
    <glyph glyph-name="uni0146" unicode="&#x146;" horiz-adv-x="505" 
d="M77 0v488h33l12 -62q23 35 58.5 53.5t80.5 18.5q79 0 125 -47t46 -129v-322h-50v326q0 27 -8 50t-23.5 40t-38.5 27t-54 10q-62 0 -96.5 -39.5t-34.5 -97.5v-316h-50zM293 -41l-60 -157h-42l36 157h66z" />
    <glyph glyph-name="Ncaron" unicode="&#x147;" horiz-adv-x="580" 
d="M492 0h-44l-311 555v-555h-49v657h48l307 -547v547h49v-657zM272 690l-99 118l21 19l98 -89l96 88l20 -18l-99 -118h-37z" />
    <glyph glyph-name="ncaron" unicode="&#x148;" horiz-adv-x="505" 
d="M77 0v488h33l12 -62q23 35 58.5 53.5t80.5 18.5q79 0 125 -47t46 -129v-322h-50v326q0 27 -8 50t-23.5 40t-38.5 27t-54 10q-62 0 -96.5 -39.5t-34.5 -97.5v-316h-50zM235 551l-99 118l21 19l98 -89l96 88l20 -18l-99 -118h-37z" />
    <glyph glyph-name="napostrophe" unicode="&#x149;" horiz-adv-x="505" 
d="M77 0v488h33l12 -62q23 35 58.5 53.5t80.5 18.5q79 0 125 -47t46 -129v-322h-50v326q0 27 -8 50t-23.5 40t-38.5 27t-54 10q-62 0 -96.5 -39.5t-34.5 -97.5v-316h-50zM108 677l-60 -157h-42l36 157h66z" />
    <glyph glyph-name="Omacron" unicode="&#x14c;" horiz-adv-x="556" 
d="M122 192q0 -33 10.5 -61.5t30 -49t48.5 -32.5t67 -12q37 0 66.5 12t49 32.5t30 49t10.5 61.5v273q0 33 -10.5 61.5t-30 49t-49 32.5t-66.5 12q-38 0 -67 -12t-48.5 -32.5t-30 -49t-10.5 -61.5v-273zM486 196q0 -48 -15 -86t-42.5 -64.5t-66 -41t-84.5 -14.5t-84.5 14.5
t-66 41t-42.5 64.5t-15 86v265q0 48 15 86t42.5 64.5t66 41t84.5 14.5t84.5 -14.5t66 -41t42.5 -64.5t15 -86v-265zM162 778h232v-40h-232v40z" />
    <glyph glyph-name="omacron" unicode="&#x14d;" horiz-adv-x="480" 
d="M110 172q0 -29 8.5 -54.5t25 -44t41 -29t55.5 -10.5t55.5 10.5t41 29t25 44t8.5 54.5v144q0 29 -8.5 54.5t-25 44t-41 29t-55.5 10.5t-55.5 -10.5t-41 -29t-25 -44t-8.5 -54.5v-144zM420 176q0 -43 -13 -77.5t-37 -58.5t-57 -37t-73 -13t-73 13t-57 37t-37 58.5t-13 77.5
v136q0 43 13 77.5t37 58.5t57 37t73 13t73 -13t57 -37t37 -58.5t13 -77.5v-136zM124 617h232v-40h-232v40z" />
    <glyph glyph-name="Obreve" unicode="&#x14e;" horiz-adv-x="556" 
d="M122 192q0 -33 10.5 -61.5t30 -49t48.5 -32.5t67 -12q37 0 66.5 12t49 32.5t30 49t10.5 61.5v273q0 33 -10.5 61.5t-30 49t-49 32.5t-66.5 12q-38 0 -67 -12t-48.5 -32.5t-30 -49t-10.5 -61.5v-273zM486 196q0 -48 -15 -86t-42.5 -64.5t-66 -41t-84.5 -14.5t-84.5 14.5
t-66 41t-42.5 64.5t-15 86v265q0 48 15 86t42.5 64.5t66 41t84.5 14.5t84.5 -14.5t66 -41t42.5 -64.5t15 -86v-265zM371 806v-19q0 -38 -24.5 -65t-68.5 -27t-68.5 27t-24.5 65v19h37v-19q0 -25 15 -42t41 -17t41 17t15 42v19h37z" />
    <glyph glyph-name="obreve" unicode="&#x14f;" horiz-adv-x="480" 
d="M110 172q0 -29 8.5 -54.5t25 -44t41 -29t55.5 -10.5t55.5 10.5t41 29t25 44t8.5 54.5v144q0 29 -8.5 54.5t-25 44t-41 29t-55.5 10.5t-55.5 -10.5t-41 -29t-25 -44t-8.5 -54.5v-144zM420 176q0 -43 -13 -77.5t-37 -58.5t-57 -37t-73 -13t-73 13t-57 37t-37 58.5t-13 77.5
v136q0 43 13 77.5t37 58.5t57 37t73 13t73 -13t57 -37t37 -58.5t13 -77.5v-136zM333 662v-19q0 -38 -24.5 -65t-68.5 -27t-68.5 27t-24.5 65v19h37v-19q0 -25 15 -42t41 -17t41 17t15 42v19h37z" />
    <glyph glyph-name="Ohungarumlaut" unicode="&#x150;" horiz-adv-x="556" 
d="M122 192q0 -33 10.5 -61.5t30 -49t48.5 -32.5t67 -12q37 0 66.5 12t49 32.5t30 49t10.5 61.5v273q0 33 -10.5 61.5t-30 49t-49 32.5t-66.5 12q-38 0 -67 -12t-48.5 -32.5t-30 -49t-10.5 -61.5v-273zM486 196q0 -48 -15 -86t-42.5 -64.5t-66 -41t-84.5 -14.5t-84.5 14.5
t-66 41t-42.5 64.5t-15 86v265q0 48 15 86t42.5 64.5t66 41t84.5 14.5t84.5 -14.5t66 -41t42.5 -64.5t15 -86v-265zM209 694l-18 20l115 112l32 -35zM325 688l-20 18l101 124l36 -31z" />
    <glyph glyph-name="ohungarumlaut" unicode="&#x151;" horiz-adv-x="480" 
d="M110 172q0 -29 8.5 -54.5t25 -44t41 -29t55.5 -10.5t55.5 10.5t41 29t25 44t8.5 54.5v144q0 29 -8.5 54.5t-25 44t-41 29t-55.5 10.5t-55.5 -10.5t-41 -29t-25 -44t-8.5 -54.5v-144zM420 176q0 -43 -13 -77.5t-37 -58.5t-57 -37t-73 -13t-73 13t-57 37t-37 58.5t-13 77.5
v136q0 43 13 77.5t37 58.5t57 37t73 13t73 -13t57 -37t37 -58.5t13 -77.5v-136zM172 555l-18 20l115 112l32 -35zM288 549l-20 18l101 124l36 -31z" />
    <glyph glyph-name="OE" unicode="&#x152;" horiz-adv-x="855" 
d="M796 610h-310v-250h288v-47h-288v-266h318v-47h-370v55q-27 -32 -67 -48.5t-89 -16.5q-46 0 -84.5 14.5t-66 41t-42.5 64.5t-15 86v265q0 48 15 86t42.5 64.5t66 41t84.5 14.5q49 0 89 -17t67 -49v56h362v-47zM122 192q0 -33 10.5 -61.5t30 -49t48.5 -32.5t67 -12
q36 0 65 11.5t49.5 31t31 46.5t10.5 59v280q0 33 -10.5 61.5t-30 49t-49 32.5t-66.5 12q-38 0 -67 -12t-48.5 -32.5t-30 -49t-10.5 -61.5v-273z" />
    <glyph glyph-name="oe" unicode="&#x153;" horiz-adv-x="784" 
d="M727 160v-9q0 -38 -13 -67.5t-36 -50.5t-56 -32t-72 -11q-56 0 -96.5 25.5t-59.5 72.5q-20 -47 -60 -72.5t-94 -25.5q-40 0 -73 13t-57 37t-37 58.5t-13 77.5v136q0 43 13 77.5t37 58.5t57 37t73 13q55 0 95 -26.5t60 -75.5q19 49 59.5 75.5t95.5 26.5q39 0 72 -13
t56 -37t36 -58.5t13 -77.5v-71h-307v-79q0 -55 33.5 -92.5t96.5 -37.5q65 0 97.5 33.5t32.5 81.5v13h47zM110 172q0 -29 8.5 -54.5t25 -44t41 -29t55.5 -10.5t55.5 10.5t41 29t25 44t8.5 54.5v144q0 29 -8.5 54.5t-25 44t-41 29t-55.5 10.5t-55.5 -10.5t-41 -29t-25 -44
t-8.5 -54.5v-144zM420 285h260v31q0 30 -8.5 55.5t-25 44t-41 29.5t-55.5 11t-55.5 -11t-41 -29.5t-25 -44t-8.5 -55.5v-31z" />
    <glyph glyph-name="Racute" unicode="&#x154;" horiz-adv-x="548" 
d="M434 0l-123 270q-9 -1 -18 -1.5t-18 -0.5h-135v-268h-52v657h187q48 0 88.5 -13.5t69.5 -38.5t45.5 -60.5t16.5 -79.5q0 -67 -36 -115t-96 -68l128 -282h-57zM140 611v-298h133q78 0 123 41.5t45 110.5q0 67 -45 106.5t-123 39.5h-133zM227 694l-23 25l115 112l37 -40z
" />
    <glyph glyph-name="racute" unicode="&#x155;" horiz-adv-x="304" 
d="M77 0v488h33l12 -65q23 36 58.5 55.5t80.5 19.5h10.5t10.5 -1v-48q-5 1 -10.5 1.5t-13.5 0.5q-30 0 -54 -10.5t-41.5 -29.5t-26.5 -44t-9 -55v-312h-50zM161 550l-23 25l115 112l37 -40z" />
    <glyph glyph-name="uni0156" unicode="&#x156;" horiz-adv-x="548" 
d="M434 0l-123 270q-9 -1 -18 -1.5t-18 -0.5h-135v-268h-52v657h187q48 0 88.5 -13.5t69.5 -38.5t45.5 -60.5t16.5 -79.5q0 -67 -36 -115t-96 -68l128 -282h-57zM140 611v-298h133q78 0 123 41.5t45 110.5q0 67 -45 106.5t-123 39.5h-133zM315 -41l-60 -157h-42l36 157h66z
" />
    <glyph glyph-name="uni0157" unicode="&#x157;" horiz-adv-x="304" 
d="M77 0v488h33l12 -65q23 36 58.5 55.5t80.5 19.5h10.5t10.5 -1v-48q-5 1 -10.5 1.5t-13.5 0.5q-30 0 -54 -10.5t-41.5 -29.5t-26.5 -44t-9 -55v-312h-50zM137 -41l-60 -157h-42l36 157h66z" />
    <glyph glyph-name="Rcaron" unicode="&#x158;" horiz-adv-x="548" 
d="M434 0l-123 270q-9 -1 -18 -1.5t-18 -0.5h-135v-268h-52v657h187q48 0 88.5 -13.5t69.5 -38.5t45.5 -60.5t16.5 -79.5q0 -67 -36 -115t-96 -68l128 -282h-57zM140 611v-298h133q78 0 123 41.5t45 110.5q0 67 -45 106.5t-123 39.5h-133zM231 690l-99 118l21 19l98 -89
l96 88l20 -18l-99 -118h-37z" />
    <glyph glyph-name="rcaron" unicode="&#x159;" horiz-adv-x="304" 
d="M77 0v488h33l12 -65q23 36 58.5 55.5t80.5 19.5h10.5t10.5 -1v-48q-5 1 -10.5 1.5t-13.5 0.5q-30 0 -54 -10.5t-41.5 -29.5t-26.5 -44t-9 -55v-312h-50zM140 551l-99 118l21 19l98 -89l96 88l20 -18l-99 -118h-37z" />
    <glyph glyph-name="Sacute" unicode="&#x15a;" horiz-adv-x="521" 
d="M406 475v15q0 28 -9.5 52t-28 42t-46 28t-62.5 10q-69 0 -107.5 -31t-38.5 -81q0 -41 25.5 -67t56.5 -39l116 -49q27 -11 54.5 -25t50 -34.5t36.5 -49.5t14 -70q0 -43 -15 -77.5t-42.5 -58.5t-66 -37t-84.5 -13t-84 12.5t-65.5 36t-42.5 57t-15 75.5v13h50v-17
q0 -28 10.5 -52t31 -42t49.5 -28t66 -10q75 0 116 38.5t41 96.5q0 32 -11 54t-29.5 38t-42.5 27t-49 22l-90 38q-24 10 -47 24t-41.5 32.5t-29.5 43.5t-11 57q0 37 14.5 66.5t40.5 50.5t61.5 32.5t78.5 11.5t79.5 -12.5t62 -36t40 -57t14.5 -75.5v-11h-50zM257 694l-23 25
l115 112l37 -40z" />
    <glyph glyph-name="sacute" unicode="&#x15b;" horiz-adv-x="447" 
d="M94 149v-17q0 -42 34 -70t97 -28q58 0 88.5 26.5t30.5 68.5q0 35 -17 54.5t-55 30.5l-98 30q-20 6 -40 15.5t-36 24t-25.5 34.5t-9.5 48q0 27 12 51t33 42t50 28.5t64 10.5q37 0 68 -9.5t53 -27.5t34.5 -44t12.5 -59v-7h-47v11q0 39 -31.5 66.5t-89.5 27.5
q-19 0 -38.5 -5t-35.5 -15.5t-26.5 -27t-10.5 -38.5q0 -29 16.5 -46.5t47.5 -27.5l90 -28q27 -9 51 -19t41 -25t27 -36.5t10 -51.5q0 -33 -12 -59.5t-34 -46t-53 -30t-69 -10.5q-79 0 -129 38.5t-50 107.5v13h47zM217 550l-23 25l115 112l37 -40z" />
    <glyph glyph-name="Scircumflex" unicode="&#x15c;" horiz-adv-x="521" 
d="M406 475v15q0 28 -9.5 52t-28 42t-46 28t-62.5 10q-69 0 -107.5 -31t-38.5 -81q0 -41 25.5 -67t56.5 -39l116 -49q27 -11 54.5 -25t50 -34.5t36.5 -49.5t14 -70q0 -43 -15 -77.5t-42.5 -58.5t-66 -37t-84.5 -13t-84 12.5t-65.5 36t-42.5 57t-15 75.5v13h50v-17
q0 -28 10.5 -52t31 -42t49.5 -28t66 -10q75 0 116 38.5t41 96.5q0 32 -11 54t-29.5 38t-42.5 27t-49 22l-90 38q-24 10 -47 24t-41.5 32.5t-29.5 43.5t-11 57q0 37 14.5 66.5t40.5 50.5t61.5 32.5t78.5 11.5t79.5 -12.5t62 -36t40 -57t14.5 -75.5v-11h-50zM278 832l99 -118
l-21 -19l-98 89l-96 -88l-20 18l99 118h37z" />
    <glyph glyph-name="scircumflex" unicode="&#x15d;" horiz-adv-x="447" 
d="M94 149v-17q0 -42 34 -70t97 -28q58 0 88.5 26.5t30.5 68.5q0 35 -17 54.5t-55 30.5l-98 30q-20 6 -40 15.5t-36 24t-25.5 34.5t-9.5 48q0 27 12 51t33 42t50 28.5t64 10.5q37 0 68 -9.5t53 -27.5t34.5 -44t12.5 -59v-7h-47v11q0 39 -31.5 66.5t-89.5 27.5
q-19 0 -38.5 -5t-35.5 -15.5t-26.5 -27t-10.5 -38.5q0 -29 16.5 -46.5t47.5 -27.5l90 -28q27 -9 51 -19t41 -25t27 -36.5t10 -51.5q0 -33 -12 -59.5t-34 -46t-53 -30t-69 -10.5q-79 0 -129 38.5t-50 107.5v13h47zM239 688l99 -118l-21 -19l-98 89l-96 -88l-20 18l99 118h37z
" />
    <glyph glyph-name="Scedilla" unicode="&#x15e;" horiz-adv-x="522" 
d="M210 -76l20 67q-81 8 -129.5 55t-48.5 125v13h50v-17q0 -28 10.5 -52t31 -42t49.5 -28t66 -10q75 0 116 38.5t41 96.5q0 32 -11 54t-29.5 38t-42.5 27t-49 22l-90 38q-24 10 -47 24t-41.5 32.5t-29.5 43.5t-11 57q0 37 14.5 66.5t40.5 50.5t61.5 32.5t78.5 11.5
t79.5 -12.5t62 -36t40 -57t14.5 -75.5v-11h-50v15q0 28 -9.5 52t-28 42t-46 28t-62.5 10q-69 0 -107.5 -31t-38.5 -81q0 -41 25.5 -67t56.5 -39l116 -49q27 -11 54.5 -25t50 -34.5t36.5 -49.5t14 -70q0 -42 -14.5 -75.5t-40 -57.5t-62 -37.5t-79.5 -15.5l-12 -38h12
q39 0 60 -18.5t21 -50.5q0 -33 -22 -51.5t-59 -18.5h-89v38h93q15 0 25 7.5t10 24.5q0 16 -10 24t-25 8h-50z" />
    <glyph glyph-name="scedilla" unicode="&#x15f;" horiz-adv-x="447" 
d="M176 -76l20 68q-67 7 -108 44.5t-41 99.5v13h47v-17q0 -42 34 -70t97 -28q58 0 88.5 26.5t30.5 68.5q0 35 -17 54.5t-55 30.5l-98 30q-20 6 -40 15.5t-36 24t-25.5 34.5t-9.5 48q0 27 12 51t33 42t50 28.5t64 10.5q37 0 68 -9.5t53 -27.5t34.5 -44t12.5 -59v-7h-47v11
q0 39 -31.5 66.5t-89.5 27.5q-19 0 -38.5 -5t-35.5 -15.5t-26.5 -27t-10.5 -38.5q0 -29 16.5 -46.5t47.5 -27.5l90 -28q27 -9 51 -19t41 -25t27 -36.5t10 -51.5q0 -63 -42.5 -103t-114.5 -43l-12 -38h12q39 0 60 -18.5t21 -50.5q0 -33 -22 -51.5t-59 -18.5h-89v38h93
q15 0 25 7.5t10 24.5q0 16 -10 24t-25 8h-50z" />
    <glyph glyph-name="Scaron" unicode="&#x160;" horiz-adv-x="521" 
d="M406 475v15q0 28 -9.5 52t-28 42t-46 28t-62.5 10q-69 0 -107.5 -31t-38.5 -81q0 -41 25.5 -67t56.5 -39l116 -49q27 -11 54.5 -25t50 -34.5t36.5 -49.5t14 -70q0 -43 -15 -77.5t-42.5 -58.5t-66 -37t-84.5 -13t-84 12.5t-65.5 36t-42.5 57t-15 75.5v13h50v-17
q0 -28 10.5 -52t31 -42t49.5 -28t66 -10q75 0 116 38.5t41 96.5q0 32 -11 54t-29.5 38t-42.5 27t-49 22l-90 38q-24 10 -47 24t-41.5 32.5t-29.5 43.5t-11 57q0 37 14.5 66.5t40.5 50.5t61.5 32.5t78.5 11.5t79.5 -12.5t62 -36t40 -57t14.5 -75.5v-11h-50zM241 690l-99 118
l21 19l98 -89l96 88l20 -18l-99 -118h-37z" />
    <glyph glyph-name="scaron" unicode="&#x161;" horiz-adv-x="447" 
d="M94 149v-17q0 -42 34 -70t97 -28q58 0 88.5 26.5t30.5 68.5q0 35 -17 54.5t-55 30.5l-98 30q-20 6 -40 15.5t-36 24t-25.5 34.5t-9.5 48q0 27 12 51t33 42t50 28.5t64 10.5q37 0 68 -9.5t53 -27.5t34.5 -44t12.5 -59v-7h-47v11q0 39 -31.5 66.5t-89.5 27.5
q-19 0 -38.5 -5t-35.5 -15.5t-26.5 -27t-10.5 -38.5q0 -29 16.5 -46.5t47.5 -27.5l90 -28q27 -9 51 -19t41 -25t27 -36.5t10 -51.5q0 -33 -12 -59.5t-34 -46t-53 -30t-69 -10.5q-79 0 -129 38.5t-50 107.5v13h47zM202 551l-99 118l21 19l98 -89l96 88l20 -18l-99 -118h-37z
" />
    <glyph glyph-name="uni0162" unicode="&#x162;" horiz-adv-x="453" 
d="M183 -76l23 76h-6v610h-180v47h413v-47h-181v-610h-5l-15 -48h12q39 0 60 -18.5t21 -50.5q0 -33 -22 -51.5t-59 -18.5h-89v38h93q15 0 25 7.5t10 24.5q0 16 -10 24t-25 8h-50z" />
    <glyph glyph-name="uni0163" unicode="&#x163;" horiz-adv-x="306" 
d="M110 -76l23 76h-5v444h-101v42h101v133h50v-133h101v-42h-101v-444h-4l-15 -48h12q39 0 60 -18.5t21 -50.5q0 -33 -22 -51.5t-59 -18.5h-89v38h93q15 0 25 7.5t10 24.5q0 16 -10 24t-25 8h-50z" />
    <glyph glyph-name="Tcaron" unicode="&#x164;" horiz-adv-x="453" 
d="M20 657h413v-47h-181v-610h-52v610h-180v47zM208 690l-99 118l21 19l98 -89l96 88l20 -18l-99 -118h-37z" />
    <glyph glyph-name="tcaron" unicode="&#x165;" horiz-adv-x="306" 
d="M27 486h101v133h50v-133h101v-42h-101v-444h-50v444h-101v42zM311 677l-46 -121h-39l22 121h63z" />
    <glyph glyph-name="Tbar" unicode="&#x166;" horiz-adv-x="455" 
d="M21 657h413v-47h-181v-185h141v-42h-141v-383h-52v383h-140v42h140v185h-180v47z" />
    <glyph glyph-name="tbar" unicode="&#x167;" horiz-adv-x="308" 
d="M28 486h101v133h50v-133h101v-42h-101v-115h81v-42h-81v-287h-50v287h-81v42h81v115h-101v42z" />
    <glyph glyph-name="Utilde" unicode="&#x168;" horiz-adv-x="574" 
d="M492 657v-461q0 -48 -15 -86t-42 -64.5t-65 -41t-83 -14.5t-83 14.5t-65 41t-42 64.5t-15 86v461h52v-465q0 -33 10 -61.5t29.5 -49t48 -32.5t65.5 -12t65.5 12t48 32.5t29.5 49t10 61.5v465h52zM430 794q1 -6 1.5 -12t0.5 -12q0 -14 -3 -27t-10.5 -23.5t-20 -17
t-31.5 -6.5q-17 0 -33 7t-33 17l-39 22q-10 5 -21.5 10.5t-22.5 5.5q-17 0 -26.5 -9.5t-14 -20.5t-5 -21.5t-0.5 -11.5h-29q-1 5 -1.5 10t-0.5 10q0 32 20 56t58 24q15 0 29.5 -5t30.5 -14l41 -24q13 -8 25 -13.5t23 -5.5q12 0 18.5 6t10 15.5t4 20t0.5 19.5h29z" />
    <glyph glyph-name="utilde" unicode="&#x169;" horiz-adv-x="499" 
d="M73 488h50v-326q0 -27 7.5 -50t22.5 -40t37 -27t52 -10t54.5 10.5t41 29t25.5 43.5t9 54v316h50v-488h-33l-12 61q-23 -34 -58 -52.5t-80 -18.5q-77 0 -121.5 47t-44.5 129v322zM391 659q1 -6 1.5 -12t0.5 -12q0 -14 -3 -27t-10.5 -23.5t-20 -17t-31.5 -6.5q-17 0 -33 7
t-33 17l-39 22q-10 6 -21.5 11t-22.5 5q-17 0 -26.5 -9.5t-14 -20.5t-5 -21.5t-0.5 -11.5h-29q-1 5 -1.5 10t-0.5 10q0 32 20 56t58 24q15 0 29.5 -5t30.5 -14l41 -24q13 -8 25 -13.5t23 -5.5q12 0 18.5 6t10 15.5t4 20t0.5 19.5h29z" />
    <glyph glyph-name="Umacron" unicode="&#x16a;" horiz-adv-x="574" 
d="M492 657v-461q0 -48 -15 -86t-42 -64.5t-65 -41t-83 -14.5t-83 14.5t-65 41t-42 64.5t-15 86v461h52v-465q0 -33 10 -61.5t29.5 -49t48 -32.5t65.5 -12t65.5 12t48 32.5t29.5 49t10 61.5v465h52zM171 778h232v-40h-232v40z" />
    <glyph glyph-name="umacron" unicode="&#x16b;" horiz-adv-x="499" 
d="M73 488h50v-326q0 -27 7.5 -50t22.5 -40t37 -27t52 -10t54.5 10.5t41 29t25.5 43.5t9 54v316h50v-488h-33l-12 61q-23 -34 -58 -52.5t-80 -18.5q-77 0 -121.5 47t-44.5 129v322zM131 617h232v-40h-232v40z" />
    <glyph glyph-name="Ubreve" unicode="&#x16c;" horiz-adv-x="574" 
d="M492 657v-461q0 -48 -15 -86t-42 -64.5t-65 -41t-83 -14.5t-83 14.5t-65 41t-42 64.5t-15 86v461h52v-465q0 -33 10 -61.5t29.5 -49t48 -32.5t65.5 -12t65.5 12t48 32.5t29.5 49t10 61.5v465h52zM380 806v-19q0 -38 -24.5 -65t-68.5 -27t-68.5 27t-24.5 65v19h37v-19
q0 -25 15 -42t41 -17t41 17t15 42v19h37z" />
    <glyph glyph-name="ubreve" unicode="&#x16d;" horiz-adv-x="499" 
d="M73 488h50v-326q0 -27 7.5 -50t22.5 -40t37 -27t52 -10t54.5 10.5t41 29t25.5 43.5t9 54v316h50v-488h-33l-12 61q-23 -34 -58 -52.5t-80 -18.5q-77 0 -121.5 47t-44.5 129v322zM340 662v-19q0 -38 -24.5 -65t-68.5 -27t-68.5 27t-24.5 65v19h37v-19q0 -25 15 -42t41 -17
t41 17t15 42v19h37z" />
    <glyph glyph-name="Uring" unicode="&#x16e;" horiz-adv-x="574" 
d="M492 657v-461q0 -48 -15 -86t-42 -64.5t-65 -41t-83 -14.5t-83 14.5t-65 41t-42 64.5t-15 86v461h52v-465q0 -33 10 -61.5t29.5 -49t48 -32.5t65.5 -12t65.5 12t48 32.5t29.5 49t10 61.5v465h52zM287 713q24 0 39.5 17t15.5 42t-15.5 42t-39.5 17t-39.5 -17t-15.5 -42
t15.5 -42t39.5 -17zM287 680q-40 0 -66.5 27t-26.5 65t26.5 65t66.5 27t66.5 -27t26.5 -65t-26.5 -65t-66.5 -27z" />
    <glyph glyph-name="uring" unicode="&#x16f;" horiz-adv-x="499" 
d="M73 488h50v-326q0 -27 7.5 -50t22.5 -40t37 -27t52 -10t54.5 10.5t41 29t25.5 43.5t9 54v316h50v-488h-33l-12 61q-23 -34 -58 -52.5t-80 -18.5q-77 0 -121.5 47t-44.5 129v322zM247 562q24 0 39.5 17t15.5 42t-15.5 42t-39.5 17t-39.5 -17t-15.5 -42t15.5 -42t39.5 -17z
M247 529q-40 0 -66.5 27t-26.5 65t26.5 65t66.5 27t66.5 -27t26.5 -65t-26.5 -65t-66.5 -27z" />
    <glyph glyph-name="Uhungarumlaut" unicode="&#x170;" horiz-adv-x="574" 
d="M492 657v-461q0 -48 -15 -86t-42 -64.5t-65 -41t-83 -14.5t-83 14.5t-65 41t-42 64.5t-15 86v461h52v-465q0 -33 10 -61.5t29.5 -49t48 -32.5t65.5 -12t65.5 12t48 32.5t29.5 49t10 61.5v465h52zM227 694l-18 20l115 112l32 -35zM343 688l-20 18l101 124l36 -31z" />
    <glyph glyph-name="uhungarumlaut" unicode="&#x171;" horiz-adv-x="499" 
d="M73 488h50v-326q0 -27 7.5 -50t22.5 -40t37 -27t52 -10t54.5 10.5t41 29t25.5 43.5t9 54v316h50v-488h-33l-12 61q-23 -34 -58 -52.5t-80 -18.5q-77 0 -121.5 47t-44.5 129v322zM182 555l-18 20l115 112l32 -35zM298 549l-20 18l101 124l36 -31z" />
    <glyph glyph-name="Uogonek" unicode="&#x172;" horiz-adv-x="576" 
d="M492 657v-461q0 -46 -14.5 -82.5t-38.5 -63.5q-16 -18 -33 -34.5t-30.5 -33.5t-22.5 -35t-9 -39q0 -25 12.5 -40.5t40.5 -15.5h44v-37h-51q-44 0 -65 25.5t-21 60.5q0 28 13.5 52.5t32.5 44.5q-32 -8 -63 -8q-45 0 -83 14.5t-65 41t-42 64.5t-15 86v461h52v-465
q0 -33 10 -61.5t29.5 -49t48 -32.5t65.5 -12t65.5 12t48 32.5t29.5 49t10 61.5v465h52z" />
    <glyph glyph-name="uogonek" unicode="&#x173;" horiz-adv-x="499" 
d="M422 -148v-37h-51q-44 0 -65 20.5t-21 49.5q0 19 8.5 37.5t23 34.5t32.5 29t38 21l-10 54q-23 -34 -58 -52.5t-80 -18.5q-77 0 -121.5 47t-44.5 129v322h50v-326q0 -27 7.5 -50t22.5 -40t37 -27t52 -10t54.5 10.5t41 29t25.5 43.5t9 54v316h50v-488q-42 -23 -69.5 -50
t-27.5 -58q0 -17 12.5 -28.5t40.5 -11.5h44z" />
    <glyph glyph-name="Wcircumflex" unicode="&#x174;" horiz-adv-x="743" 
d="M705 657l-156 -657h-46l-132 557l-131 -557h-46l-156 657h51l129 -555l130 555h47l130 -555l129 555h51zM390 832l99 -118l-21 -19l-98 89l-96 -88l-20 18l99 118h37z" />
    <glyph glyph-name="wcircumflex" unicode="&#x175;" horiz-adv-x="645" 
d="M193 86l106 402h49l106 -402l104 402h52l-134 -488h-43l-110 400l-110 -400h-44l-134 488h54zM341 688l99 -118l-21 -19l-98 89l-96 -88l-20 18l99 118h37z" />
    <glyph glyph-name="Ycircumflex" unicode="&#x176;" horiz-adv-x="478" 
d="M78 657l163 -344l164 344h52l-192 -396v-261h-52v261l-192 396h57zM258 832l99 -118l-21 -19l-98 89l-96 -88l-20 18l99 118h37z" />
    <glyph glyph-name="ycircumflex" unicode="&#x177;" horiz-adv-x="454" 
d="M134 -187l71 190l-177 485h55l146 -416l145 416h52l-245 -675h-47zM245 688l99 -118l-21 -19l-98 89l-96 -88l-20 18l99 118h37z" />
    <glyph glyph-name="Ydieresis" unicode="&#x178;" horiz-adv-x="478" 
d="M78 657l163 -344l164 344h52l-192 -396v-261h-52v261l-192 396h57zM153 760q0 15 11 25.5t26 10.5t25 -10.5t10 -25.5t-10 -26t-25 -11t-26 11t-11 26zM254 760q0 15 11 25.5t26 10.5q14 0 24.5 -10.5t10.5 -25.5t-10.5 -26t-24.5 -11q-15 0 -26 11t-11 26z" />
    <glyph glyph-name="Zacute" unicode="&#x179;" horiz-adv-x="457" 
d="M50 657h361v-33l-311 -577h321v-47h-385v33l311 577h-297v47zM227 694l-23 25l115 112l37 -40z" />
    <glyph glyph-name="zacute" unicode="&#x17a;" horiz-adv-x="425" 
d="M48 488h331v-33l-281 -412h286v-43h-345v33l281 412h-272v43zM210 550l-23 25l115 112l37 -40z" />
    <glyph glyph-name="Zdotaccent" unicode="&#x17b;" horiz-adv-x="457" 
d="M50 657h361v-33l-311 -577h321v-47h-385v33l311 577h-297v47zM190 753q0 17 11 28t27 11q17 0 28 -11t11 -28q0 -16 -11 -27t-28 -11q-16 0 -27 11t-11 27z" />
    <glyph glyph-name="zdotaccent" unicode="&#x17c;" horiz-adv-x="425" 
d="M48 488h331v-33l-281 -412h286v-43h-345v33l281 412h-272v43zM173 603q0 17 11 28t27 11q17 0 28 -11t11 -28q0 -16 -11 -27t-28 -11q-16 0 -27 11t-11 27z" />
    <glyph glyph-name="Zcaron" unicode="&#x17d;" horiz-adv-x="457" 
d="M50 657h361v-33l-311 -577h321v-47h-385v33l311 577h-297v47zM216 690l-99 118l21 19l98 -89l96 88l20 -18l-99 -118h-37z" />
    <glyph glyph-name="zcaron" unicode="&#x17e;" horiz-adv-x="425" 
d="M48 488h331v-33l-281 -412h286v-43h-345v33l281 412h-272v43zM193 551l-99 118l21 19l98 -89l96 88l20 -18l-99 -118h-37z" />
    <glyph glyph-name="longs" unicode="&#x17f;" horiz-adv-x="224" 
d="M231 633q-30 0 -50 -8.5t-32 -23.5t-17 -36t-5 -46v-519h-50v515q0 78 39.5 120t115.5 42h39v-44h-40z" />
    <glyph glyph-name="florin" unicode="&#x192;" horiz-adv-x="412" 
d="M92 362h83v153q0 78 39.5 120t115.5 42h39v-44h-40q-30 0 -50 -8.5t-32 -23.5t-17 -36t-5 -46v-157h137v-42h-137v-345q0 -78 -39.5 -120t-115.5 -42h-39v44h40q59 0 81.5 32t22.5 82v349h-83v42z" />
    <glyph glyph-name="uni0218" unicode="&#x218;" horiz-adv-x="521" 
d="M406 475v15q0 28 -9.5 52t-28 42t-46 28t-62.5 10q-69 0 -107.5 -31t-38.5 -81q0 -41 25.5 -67t56.5 -39l116 -49q27 -11 54.5 -25t50 -34.5t36.5 -49.5t14 -70q0 -43 -15 -77.5t-42.5 -58.5t-66 -37t-84.5 -13t-84 12.5t-65.5 36t-42.5 57t-15 75.5v13h50v-17
q0 -28 10.5 -52t31 -42t49.5 -28t66 -10q75 0 116 38.5t41 96.5q0 32 -11 54t-29.5 38t-42.5 27t-49 22l-90 38q-24 10 -47 24t-41.5 32.5t-29.5 43.5t-11 57q0 37 14.5 66.5t40.5 50.5t61.5 32.5t78.5 11.5t79.5 -12.5t62 -36t40 -57t14.5 -75.5v-11h-50zM292 -41l-60 -157
h-42l36 157h66z" />
    <glyph glyph-name="uni0219" unicode="&#x219;" horiz-adv-x="447" 
d="M94 149v-17q0 -42 34 -70t97 -28q58 0 88.5 26.5t30.5 68.5q0 35 -17 54.5t-55 30.5l-98 30q-20 6 -40 15.5t-36 24t-25.5 34.5t-9.5 48q0 27 12 51t33 42t50 28.5t64 10.5q37 0 68 -9.5t53 -27.5t34.5 -44t12.5 -59v-7h-47v11q0 39 -31.5 66.5t-89.5 27.5
q-19 0 -38.5 -5t-35.5 -15.5t-26.5 -27t-10.5 -38.5q0 -29 16.5 -46.5t47.5 -27.5l90 -28q27 -9 51 -19t41 -25t27 -36.5t10 -51.5q0 -33 -12 -59.5t-34 -46t-53 -30t-69 -10.5q-79 0 -129 38.5t-50 107.5v13h47zM256 -41l-60 -157h-42l36 157h66z" />
    <glyph glyph-name="uni021A" unicode="&#x21a;" horiz-adv-x="453" 
d="M20 657h413v-47h-181v-610h-52v610h-180v47zM258 -41l-60 -157h-42l36 157h66z" />
    <glyph glyph-name="uni021B" unicode="&#x21b;" horiz-adv-x="306" 
d="M27 486h101v133h50v-133h101v-42h-101v-444h-50v444h-101v42zM186 -41l-60 -157h-42l36 157h66z" />
    <glyph glyph-name="uni0237" unicode="&#x237;" horiz-adv-x="204" 
d="M-43 -153q61 0 90.5 34.5t29.5 93.5v513h50v-509q0 -86 -47 -131t-123 -45h-24v44h24z" />
    <glyph glyph-name="circumflex" unicode="&#x2c6;" horiz-adv-x="275" 
d="M156 688l99 -118l-21 -19l-98 89l-96 -88l-20 18l99 118h37z" />
    <glyph glyph-name="caron" unicode="&#x2c7;" horiz-adv-x="275" 
d="M119 551l-99 118l21 19l98 -89l96 88l20 -18l-99 -118h-37z" />
    <glyph glyph-name="uni02C9" unicode="&#x2c9;" horiz-adv-x="272" 
d="M20 619h232v-40h-232v40z" />
    <glyph glyph-name="breve" unicode="&#x2d8;" horiz-adv-x="226" 
d="M206 662v-19q0 -38 -24.5 -65t-68.5 -27t-68.5 27t-24.5 65v19h37v-19q0 -25 15 -42t41 -17t41 17t15 42v19h37z" />
    <glyph glyph-name="dotaccent" unicode="&#x2d9;" horiz-adv-x="117" 
d="M20 603q0 17 11 28t27 11q17 0 28 -11t11 -28q0 -16 -11 -27t-28 -11q-16 0 -27 11t-11 27z" />
    <glyph glyph-name="ring" unicode="&#x2da;" horiz-adv-x="226" 
d="M113 562q24 0 39.5 17t15.5 42t-15.5 42t-39.5 17t-39.5 -17t-15.5 -42t15.5 -42t39.5 -17zM113 529q-40 0 -66.5 27t-26.5 65t26.5 65t66.5 27t66.5 -27t26.5 -65t-26.5 -65t-66.5 -27z" />
    <glyph glyph-name="ogonek" unicode="&#x2db;" horiz-adv-x="221" 
d="M181 -148v-37h-51q-44 0 -65 20.5t-21 49.5q0 19 9.5 38t24.5 35.5t34.5 29.5t39.5 21l29 -9q-42 -23 -69.5 -50t-27.5 -58q0 -17 12.5 -28.5t40.5 -11.5h44z" />
    <glyph glyph-name="tilde" unicode="&#x2dc;" horiz-adv-x="331" 
d="M309 659q1 -6 1.5 -12t0.5 -12q0 -14 -3 -27t-10.5 -23.5t-20 -17t-31.5 -6.5q-17 0 -33 7t-33 17l-39 22q-10 6 -21.5 11t-22.5 5q-17 0 -26.5 -9.5t-14 -20.5t-5 -21.5t-0.5 -11.5h-29q-1 5 -1.5 10t-0.5 10q0 32 20 56t58 24q15 0 29.5 -5t30.5 -14l41 -24
q13 -8 25 -13.5t23 -5.5q12 0 18.5 6t10 15.5t4 20t0.5 19.5h29z" />
    <glyph glyph-name="hungarumlaut" unicode="&#x2dd;" horiz-adv-x="291" 
d="M38 555l-18 20l115 112l32 -35zM154 549l-20 18l101 124l36 -31z" />
    <glyph glyph-name="uni0394" unicode="&#x394;" horiz-adv-x="502" 
d="M30 0l195 657h51l196 -657h-442zM96 47h307l-153 520z" />
    <glyph glyph-name="uni03A9" unicode="&#x3a9;" horiz-adv-x="582" 
d="M366 62q40 19 60.5 55.5t20.5 84.5v263q0 33 -10.5 61.5t-30 49t-49 32.5t-66.5 12q-38 0 -67 -12t-48.5 -32.5t-30 -49t-10.5 -61.5v-263q0 -48 20.5 -84.5t60.5 -55.5v-62h-165v46h110q-37 23 -57.5 62t-20.5 98v255q0 48 15 86t42.5 64.5t66 41t84.5 14.5t84.5 -14.5
t66 -41t42.5 -64.5t15 -86v-255q0 -59 -20.5 -98t-58.5 -62h111v-46h-165v62z" />
    <glyph glyph-name="uni03BC" unicode="&#x3bc;" horiz-adv-x="503" 
d="M77 488h50v-326q0 -27 7.5 -50t22.5 -40t37 -27t52 -10t54.5 10.5t41 29t25.5 43.5t9 54v316h50v-488h-33l-12 61q-23 -34 -58 -52.5t-80 -18.5q-77 0 -122 48l6 -191v-34h-50v675z" />
    <glyph glyph-name="pi" unicode="&#x3c0;" horiz-adv-x="623" 
d="M26 488h571v-47h-108v-441h-50v441h-255v-441h-50v441h-108v47z" />
    <glyph glyph-name="Wgrave" unicode="&#x1e80;" horiz-adv-x="743" 
d="M705 657l-156 -657h-46l-132 557l-131 -557h-46l-156 657h51l129 -555l130 555h47l130 -555l129 555h51zM244 791l37 40l115 -112l-23 -25z" />
    <glyph glyph-name="wgrave" unicode="&#x1e81;" horiz-adv-x="645" 
d="M193 86l106 402h49l106 -402l104 402h52l-134 -488h-43l-110 400l-110 -400h-44l-134 488h54zM195 647l37 40l115 -112l-23 -25z" />
    <glyph glyph-name="Wacute" unicode="&#x1e82;" horiz-adv-x="743" 
d="M705 657l-156 -657h-46l-132 557l-131 -557h-46l-156 657h51l129 -555l130 555h47l130 -555l129 555h51zM374 694l-23 25l115 112l37 -40z" />
    <glyph glyph-name="wacute" unicode="&#x1e83;" horiz-adv-x="645" 
d="M193 86l106 402h49l106 -402l104 402h52l-134 -488h-43l-110 400l-110 -400h-44l-134 488h54zM322 550l-23 25l115 112l37 -40z" />
    <glyph glyph-name="Wdieresis" unicode="&#x1e84;" horiz-adv-x="743" 
d="M705 657l-156 -657h-46l-132 557l-131 -557h-46l-156 657h51l129 -555l130 555h47l130 -555l129 555h51zM285 760q0 15 11 25.5t26 10.5t25 -10.5t10 -25.5t-10 -26t-25 -11t-26 11t-11 26zM386 760q0 15 11 25.5t26 10.5q14 0 24.5 -10.5t10.5 -25.5t-10.5 -26
t-24.5 -11q-15 0 -26 11t-11 26z" />
    <glyph glyph-name="wdieresis" unicode="&#x1e85;" horiz-adv-x="645" 
d="M193 86l106 402h49l106 -402l104 402h52l-134 -488h-43l-110 400l-110 -400h-44l-134 488h54zM236 604q0 15 11 25.5t26 10.5t25 -10.5t10 -25.5t-10 -26t-25 -11t-26 11t-11 26zM337 604q0 15 11 25.5t26 10.5q14 0 24.5 -10.5t10.5 -25.5t-10.5 -26t-24.5 -11
q-15 0 -26 11t-11 26z" />
    <glyph glyph-name="endash" unicode="&#x2013;" horiz-adv-x="501" 
d="M73 285h355v-42h-355v42z" />
    <glyph glyph-name="emdash" unicode="&#x2014;" horiz-adv-x="794" 
d="M73 285h648v-42h-648v42z" />
    <glyph glyph-name="quoteleft" unicode="&#x2018;" horiz-adv-x="210" 
d="M54 500l60 157h42l-36 -157h-66z" />
    <glyph glyph-name="quoteright" unicode="&#x2019;" horiz-adv-x="208" 
d="M161 657l-60 -157h-42l36 157h66z" />
    <glyph glyph-name="quotesinglbase" unicode="&#x201a;" horiz-adv-x="213" 
d="M146 63l-60 -157h-42l36 157h66z" />
    <glyph glyph-name="quotedblleft" unicode="&#x201c;" horiz-adv-x="315" 
d="M159 500l60 157h42l-36 -157h-66zM54 500l60 157h42l-36 -157h-66z" />
    <glyph glyph-name="quotedblright" unicode="&#x201d;" horiz-adv-x="313" 
d="M161 657l-60 -157h-42l36 157h66zM266 657l-60 -157h-42l36 157h66z" />
    <glyph glyph-name="quotedblbase" unicode="&#x201e;" horiz-adv-x="318" 
d="M146 63l-60 -157h-42l36 157h66zM251 63l-60 -157h-42l36 157h66z" />
    <glyph glyph-name="dagger" unicode="&#x2020;" horiz-adv-x="362" 
d="M197 488h130v-37h-132l11 -453v-109h-50v109l10 453h-131v37h129l-8 60v109h50v-109z" />
    <glyph glyph-name="daggerdbl" unicode="&#x2021;" horiz-adv-x="402" 
d="M223 488h124v-37h-125l-7 -178l7 -178h125v-37h-124l3 -60v-109h-50v109l2 60h-123v37h125l7 178l-7 178h-125v37h123l-2 60v109h50v-109z" />
    <glyph glyph-name="bullet" unicode="&#x2022;" horiz-adv-x="332" 
d="M84 274q0 35 24 59t57 24q35 0 59 -24t24 -59q0 -33 -24 -57t-59 -24q-33 0 -57 24t-24 57z" />
    <glyph glyph-name="ellipsis" unicode="&#x2026;" horiz-adv-x="565" 
d="M67 28q0 17 11 28t27 11q17 0 28 -11t11 -28q0 -16 -11 -27t-28 -11q-16 0 -27 11t-11 27zM244 28q0 17 11 28t27 11q17 0 28 -11t11 -28q0 -16 -11 -27t-28 -11q-16 0 -27 11t-11 27zM421 28q0 17 11 28t27 11q17 0 28 -11t11 -28q0 -16 -11 -27t-28 -11q-16 0 -27 11
t-11 27z" />
    <glyph glyph-name="perthousand" unicode="&#x2030;" horiz-adv-x="884" 
d="M98 432q0 -29 17.5 -48.5t49.5 -19.5t49.5 19.5t17.5 48.5v131q0 29 -17.5 48.5t-49.5 19.5t-49.5 -19.5t-17.5 -48.5v-131zM274 434q0 -49 -30.5 -77.5t-78.5 -28.5q-49 0 -79 28.5t-30 77.5v127q0 49 30 77.5t79 28.5q48 0 78.5 -28.5t30.5 -77.5v-127zM482 657h52
l-201 -329l-197 -328h-52l201 328zM387 94q0 -29 17.5 -48.5t49.5 -19.5t49.5 19.5t17.5 48.5v131q0 29 -17.5 48.5t-49.5 19.5t-49.5 -19.5t-17.5 -48.5v-131zM563 96q0 -49 -30.5 -77.5t-78.5 -28.5q-49 0 -79 28.5t-30 77.5v127q0 49 30 77.5t79 28.5q48 0 78.5 -28.5
t30.5 -77.5v-127zM658 94q0 -29 17.5 -48.5t49.5 -19.5t49.5 19.5t17.5 48.5v131q0 29 -17.5 48.5t-49.5 19.5t-49.5 -19.5t-17.5 -48.5v-131zM834 96q0 -49 -30.5 -77.5t-78.5 -28.5q-49 0 -79 28.5t-30 77.5v127q0 49 30 77.5t79 28.5q48 0 78.5 -28.5t30.5 -77.5v-127z
" />
    <glyph glyph-name="guilsinglleft" unicode="&#x2039;" horiz-adv-x="240" 
d="M133 398h44l-65 -165l65 -165h-44l-75 165z" />
    <glyph glyph-name="guilsinglright" unicode="&#x203a;" horiz-adv-x="240" 
d="M182 233l-75 -165h-44l65 165l-65 165h44z" />
    <glyph glyph-name="fraction" unicode="&#x2044;" horiz-adv-x="90" 
d="M219 657h52l-201 -329l-197 -328h-52l201 328z" />
    <glyph glyph-name="uni2070" unicode="&#x2070;" horiz-adv-x="288" 
d="M85 577q0 -27 15 -44.5t44 -17.5t44 17.5t15 44.5v134q0 27 -15 44.5t-44 17.5t-44 -17.5t-15 -44.5v-134zM248 578q0 -48 -28.5 -75.5t-75.5 -27.5t-75.5 27.5t-28.5 75.5v132q0 48 27.5 75.5t76.5 27.5q47 0 75.5 -27.5t28.5 -75.5v-132z" />
    <glyph glyph-name="uni2074" unicode="&#x2074;" horiz-adv-x="282" 
d="M220 808v-214h36v-39h-36v-75h-45v75h-153v43l142 210h56zM175 594v162l-111 -162h111z" />
    <glyph glyph-name="uni2075" unicode="&#x2075;" horiz-adv-x="275" 
d="M228 769h-140v-104q10 8 24 13t34 5q45 0 71 -27.5t26 -74.5q0 -50 -28.5 -78t-75.5 -28q-46 0 -75 22.5t-29 62.5v8h43v-8q0 -20 15 -33.5t44 -13.5t44.5 18t15.5 49q0 26 -13 45.5t-45 19.5q-22 0 -34.5 -6.5t-20.5 -14.5h-38v184h182v-39z" />
    <glyph glyph-name="uni2076" unicode="&#x2076;" horiz-adv-x="283" 
d="M248 576q0 -48 -29.5 -74.5t-75.5 -26.5q-47 0 -75 28.5t-28 79.5v128q0 48 28 75t76 27q45 0 72.5 -24t27.5 -66v-6h-44v7q0 21 -14.5 35.5t-41.5 14.5q-29 0 -44 -16.5t-15 -42.5v-62q11 10 27.5 16.5t38.5 6.5q45 0 71 -27.5t26 -72.5zM144 638q-24 0 -37.5 -8.5
t-21.5 -18.5v-29q0 -32 15 -50.5t43 -18.5q29 0 43.5 17t14.5 44q0 26 -13 45t-44 19z" />
    <glyph glyph-name="uni2077" unicode="&#x2077;" horiz-adv-x="234" 
d="M19 808h195v-33l-115 -295h-48l114 289h-146v39z" />
    <glyph glyph-name="uni2078" unicode="&#x2078;" horiz-adv-x="279" 
d="M239 724q0 -28 -11.5 -46.5t-30.5 -27.5q22 -10 35 -30t13 -50q0 -43 -29 -69t-76 -26q-48 0 -76.5 26t-28.5 69q0 30 13 50t34 30q-19 9 -30.5 27.5t-11.5 46.5q0 40 27.5 64.5t72.5 24.5t72 -24.5t27 -64.5zM81 572q0 -26 15 -43t44 -17t44 17t15 43t-14 43t-45 17
q-32 0 -45.5 -17t-13.5 -43zM85 721q0 -23 13 -39t42 -16t41.5 16t12.5 39q0 24 -14 39t-40 15q-27 0 -41 -15t-14 -39z" />
    <glyph glyph-name="uni2079" unicode="&#x2079;" horiz-adv-x="282" 
d="M35 712q0 48 29 74.5t76 26.5q46 0 74.5 -29t28.5 -83v-124q0 -48 -28 -75t-76 -27q-45 0 -72.5 24t-27.5 66v6h43v-7q0 -21 15 -35.5t41 -14.5q29 0 44.5 16.5t15.5 42.5v63q-11 -11 -27.5 -17.5t-39.5 -6.5q-45 0 -70.5 27.5t-25.5 72.5zM138 650q24 0 38 8.5t22 19.5
v24q0 32 -15 52.5t-44 20.5t-43.5 -17t-14.5 -44q0 -26 13 -45t44 -19z" />
    <glyph glyph-name="uni207D" unicode="&#x207d;" horiz-adv-x="166" 
d="M140 464v-40h-5q-45 0 -68.5 24.5t-23.5 68.5v252q0 45 23.5 69t68.5 24h5v-39h-5q-26 0 -36.5 -14t-10.5 -37v-258q0 -23 10.5 -36.5t36.5 -13.5h5z" />
    <glyph glyph-name="uni207E" unicode="&#x207e;" horiz-adv-x="166" 
d="M31 464q26 0 36.5 13.5t10.5 36.5v258q0 23 -10.5 37t-36.5 14h-5v39h5q45 0 68.5 -24t23.5 -69v-252q0 -44 -23.5 -68.5t-68.5 -24.5h-5v40h5z" />
    <glyph glyph-name="uni2080" unicode="&#x2080;" horiz-adv-x="302" 
d="M92 -48q0 -27 15 -44.5t44 -17.5t44 17.5t15 44.5v134q0 27 -15 44.5t-44 17.5t-44 -17.5t-15 -44.5v-134zM255 -47q0 -48 -28.5 -75.5t-75.5 -27.5t-75.5 27.5t-28.5 75.5v132q0 48 27.5 75.5t76.5 27.5q47 0 75.5 -27.5t28.5 -75.5v-132z" />
    <glyph glyph-name="uni2081" unicode="&#x2081;" horiz-adv-x="220" 
d="M35 183h103v-289h59v-39h-162v39h58v249h-58v40z" />
    <glyph glyph-name="uni2082" unicode="&#x2082;" horiz-adv-x="284" 
d="M39 -125q0 38 14 67t51 55l54 36q18 12 29 28t11 38t-14 35.5t-42 13.5t-42.5 -14.5t-14.5 -37.5v-10h-44v9q0 42 28.5 67.5t73.5 25.5q46 0 73.5 -23t27.5 -65q0 -31 -14.5 -54t-41.5 -42l-61 -42q-25 -17 -31.5 -34.5t-8.5 -31.5h157v-41h-205v20z" />
    <glyph glyph-name="uni2083" unicode="&#x2083;" horiz-adv-x="286" 
d="M112 43h25q32 0 44.5 15t12.5 38t-14 37.5t-41 14.5t-42 -14.5t-15 -36.5v-8h-43v8q0 41 28 66t73 25t72 -24t27 -63q0 -55 -41 -75q47 -22 47 -82q0 -44 -28.5 -69t-76.5 -25q-47 0 -75 24.5t-28 66.5v8h43v-9q0 -22 15.5 -36.5t43.5 -14.5q29 0 44.5 16t15.5 44
q0 23 -14.5 40.5t-47.5 17.5h-25v36z" />
    <glyph glyph-name="uni2084" unicode="&#x2084;" horiz-adv-x="289" 
d="M222 183v-214h36v-39h-36v-75h-45v75h-153v43l142 210h56zM177 -31v162l-111 -162h111z" />
    <glyph glyph-name="uni2085" unicode="&#x2085;" horiz-adv-x="282" 
d="M232 144h-140v-104q10 8 24 13t34 5q45 0 71 -27.5t26 -74.5q0 -50 -28.5 -78t-75.5 -28q-46 0 -75 22.5t-29 62.5v8h43v-8q0 -20 15 -33.5t44 -13.5t44.5 18t15.5 49q0 26 -13 45.5t-45 19.5q-22 0 -34.5 -6.5t-20.5 -14.5h-38v184h182v-39z" />
    <glyph glyph-name="uni2086" unicode="&#x2086;" horiz-adv-x="293" 
d="M255 -49q0 -48 -29.5 -74.5t-75.5 -26.5q-47 0 -75 28.5t-28 79.5v128q0 48 28 75t76 27q45 0 72.5 -24t27.5 -66v-6h-44v7q0 21 -14.5 35.5t-41.5 14.5q-29 0 -44 -16.5t-15 -42.5v-62q11 10 27.5 16.5t38.5 6.5q45 0 71 -27.5t26 -72.5zM151 13q-24 0 -37.5 -8.5
t-21.5 -18.5v-29q0 -32 15 -50.5t43 -18.5q29 0 43.5 17t14.5 44q0 26 -13 45t-44 19z" />
    <glyph glyph-name="uni2087" unicode="&#x2087;" horiz-adv-x="240" 
d="M23 183h195v-33l-115 -295h-48l114 289h-146v39z" />
    <glyph glyph-name="uni2088" unicode="&#x2088;" horiz-adv-x="292" 
d="M245 99q0 -28 -11.5 -46.5t-30.5 -27.5q22 -10 35 -30t13 -50q0 -43 -29 -69t-76 -26q-48 0 -76.5 26t-28.5 69q0 30 13 50t34 30q-19 9 -30.5 27.5t-11.5 46.5q0 40 27.5 64.5t72.5 24.5t72 -24.5t27 -64.5zM87 -53q0 -26 15 -43t44 -17t44 17t15 43t-14 43t-45 17
q-32 0 -45.5 -17t-13.5 -43zM91 96q0 -23 13 -39t42 -16t41.5 16t12.5 39q0 24 -14 39t-40 15q-27 0 -41 -15t-14 -39z" />
    <glyph glyph-name="uni2089" unicode="&#x2089;" horiz-adv-x="294" 
d="M39 87q0 48 29 74.5t76 26.5q46 0 74.5 -29t28.5 -83v-124q0 -48 -28 -75t-76 -27q-45 0 -72.5 24t-27.5 66v6h43v-7q0 -21 15 -35.5t41 -14.5q29 0 44.5 16.5t15.5 42.5v63q-11 -11 -27.5 -17.5t-39.5 -6.5q-45 0 -70.5 27.5t-25.5 72.5zM142 25q24 0 38 8.5t22 19.5v24
q0 32 -15 52.5t-44 20.5t-43.5 -17t-14.5 -44q0 -26 13 -45t44 -19z" />
    <glyph glyph-name="uni208D" unicode="&#x208d;" horiz-adv-x="177" 
d="M147 -161v-40h-5q-45 0 -68.5 24.5t-23.5 68.5v252q0 45 23.5 69t68.5 24h5v-39h-5q-26 0 -36.5 -14t-10.5 -37v-258q0 -23 10.5 -36.5t36.5 -13.5h5z" />
    <glyph glyph-name="uni208E" unicode="&#x208e;" horiz-adv-x="177" 
d="M35 -161q26 0 36.5 13.5t10.5 36.5v258q0 23 -10.5 37t-36.5 14h-5v39h5q45 0 68.5 -24t23.5 -69v-252q0 -44 -23.5 -68.5t-68.5 -24.5h-5v40h5z" />
    <glyph glyph-name="franc" unicode="&#x20a3;" horiz-adv-x="517" 
d="M119 657h362v-47h-310v-189h193v-43h-193v-88h193v-43h-193v-247h-52v247h-65v43h65v88h-65v43h65v236z" />
    <glyph glyph-name="lira" unicode="&#x20a4;" horiz-adv-x="560" 
d="M175 43h326v-43h-441v43h65v154h-65v43h65v88h-65v43h65v90q0 48 14 86t39.5 64.5t61 41t78.5 14.5q40 0 73.5 -13.5t57.5 -38t37 -60t13 -79.5v-14h-49v18q0 60 -33.5 101t-98.5 41q-35 0 -61.5 -12t-44.5 -33t-27.5 -50t-9.5 -62v-94h195v-43h-195v-88h195v-43h-195
v-154z" />
    <glyph glyph-name="peseta" unicode="&#x20a7;" horiz-adv-x="1162" 
d="M88 657h187q48 0 88.5 -14.5t69.5 -41.5t45.5 -65.5t16.5 -85.5t-16.5 -85.5t-45.5 -66t-69.5 -42.5t-88.5 -15h-135v-241h-52v657zM140 611v-324h133q78 0 123 44.5t45 118.5t-45 117.5t-123 43.5h-133zM524 486h101v133h50v-133h101v-42h-101v-444h-50v444h-101v42z
M806 149v-17q0 -42 34 -70t97 -28q58 0 88.5 26.5t30.5 68.5q0 35 -17 54.5t-55 30.5l-98 30q-20 6 -40 15.5t-36 24t-25.5 34.5t-9.5 48q0 27 12 51t33 42t50 28.5t64 10.5q37 0 68 -9.5t53 -27.5t34.5 -44t12.5 -59v-7h-47v11q0 39 -31.5 66.5t-89.5 27.5q-19 0 -38.5 -5
t-35.5 -15.5t-26.5 -27t-10.5 -38.5q0 -29 16.5 -46.5t47.5 -27.5l90 -28q27 -9 51 -19t41 -25t27 -36.5t10 -51.5q0 -33 -12 -59.5t-34 -46t-53 -30t-69 -10.5q-79 0 -129 38.5t-50 107.5v13h47z" />
    <glyph glyph-name="Euro" unicode="&#x20ac;" horiz-adv-x="577" 
d="M49 421h72v40q0 48 15 86t41.5 64.5t64 41t82.5 14.5q42 0 77.5 -13.5t60.5 -38t39 -60t14 -79.5v-14h-49v18q0 60 -36.5 101t-105.5 41q-37 0 -65.5 -12t-48 -33t-29.5 -50t-10 -62v-44h153v-43h-153v-88h153v-43h-153v-55q0 -33 10 -62t29.5 -50t48 -33t65.5 -12
q69 0 105.5 41t36.5 101v25h49v-21q0 -44 -14 -79.5t-39 -60.5t-60.5 -38t-77.5 -13q-45 0 -82.5 14.5t-64 41t-41.5 64.5t-15 86v51h-72v43h72v88h-72v43z" />
    <glyph glyph-name="uni2113" unicode="&#x2113;" horiz-adv-x="437" 
d="M21 229l100 69v213q0 73 40 114.5t104 41.5q32 0 58 -10.5t44.5 -29t28.5 -43.5t10 -55q0 -26 -8.5 -49t-22.5 -43t-32.5 -36.5t-37.5 -30.5l-134 -96v-102q0 -59 29.5 -93.5t90.5 -34.5h110v-44h-110q-76 0 -123 45t-47 131v62l-73 -52zM171 332l109 76q13 9 26.5 20.5
t25 26t19 32.5t7.5 40q0 42 -24 68.5t-70 26.5q-45 0 -69 -31t-24 -76v-183z" />
    <glyph glyph-name="trademark" unicode="&#x2122;" horiz-adv-x="768" 
d="M506 381l-107 188v-280h-46v368h46l121 -214l122 214h46v-368h-46v280l-107 -188h-29zM61 657h253v-38h-104v-330h-46v330h-103v38z" />
    <glyph glyph-name="Omega" unicode="&#x2126;" horiz-adv-x="586" 
d="M368 62q40 19 60.5 55.5t20.5 84.5v263q0 33 -10.5 61.5t-30 49t-49 32.5t-66.5 12q-38 0 -67 -12t-48.5 -32.5t-30 -49t-10.5 -61.5v-263q0 -48 20.5 -84.5t60.5 -55.5v-62h-165v46h110q-37 23 -57.5 62t-20.5 98v255q0 48 15 86t42.5 64.5t66 41t84.5 14.5t84.5 -14.5
t66 -41t42.5 -64.5t15 -86v-255q0 -59 -20.5 -98t-58.5 -62h111v-46h-165v62z" />
    <glyph glyph-name="estimated" unicode="&#x212e;" horiz-adv-x="772" 
d="M671 139q-46 -69 -120.5 -109.5t-163.5 -40.5q-71 0 -132.5 26.5t-107.5 72t-72.5 107t-26.5 132.5q0 70 26.5 132t73 108.5t108 73t132.5 26.5q70 0 132 -26.5t108.5 -73t73 -108.5t26.5 -132v-8h-568v-176q40 -51 98.5 -80t128.5 -29q68 0 126.5 28t98.5 77h59z
M388 622q-70 0 -129 -30t-99 -81v-147h456v146q-40 51 -99 81.5t-129 30.5z" />
    <glyph glyph-name="onethird" unicode="&#x2153;" horiz-adv-x="618" 
d="M483 657h52l-201 -329l-197 -328h-52l201 328zM57 657h103v-289h59v-39h-162v39h58v249h-58v40zM432 188h25q32 0 44.5 15t12.5 38t-14 37.5t-41 14.5t-42 -14.5t-15 -36.5v-8h-43v8q0 41 28 66t73 25t72 -24t27 -63q0 -55 -41 -75q47 -22 47 -82q0 -44 -28.5 -69
t-76.5 -25q-47 0 -75 24.5t-28 66.5v8h43v-9q0 -22 15.5 -36.5t43.5 -14.5q29 0 44.5 16t15.5 44q0 23 -14.5 40.5t-47.5 17.5h-25v36z" />
    <glyph glyph-name="twothirds" unicode="&#x2154;" horiz-adv-x="650" 
d="M515 657h52l-201 -329l-197 -328h-52l201 328zM464 188h25q32 0 44.5 15t12.5 38t-14 37.5t-41 14.5t-42 -14.5t-15 -36.5v-8h-43v8q0 41 28 66t73 25t72 -24t27 -63q0 -55 -41 -75q47 -22 47 -82q0 -44 -28.5 -69t-76.5 -25q-47 0 -75 24.5t-28 66.5v8h43v-9
q0 -22 15.5 -36.5t43.5 -14.5q29 0 44.5 16t15.5 44q0 23 -14.5 40.5t-47.5 17.5h-25v36zM55 349q0 38 14 67t51 55l54 36q18 12 29 28t11 38t-14 35.5t-42 13.5t-42.5 -14.5t-14.5 -37.5v-10h-44v9q0 42 28.5 67.5t73.5 25.5q46 0 73.5 -23t27.5 -65q0 -31 -14.5 -54
t-41.5 -42l-61 -42q-25 -17 -31.5 -34.5t-8.5 -31.5h157v-41h-205v20z" />
    <glyph glyph-name="uni2155" unicode="&#x2155;" horiz-adv-x="629" 
d="M483 657h52l-201 -329l-197 -328h-52l201 328zM57 657h103v-289h59v-39h-162v39h58v249h-58v40zM561 289h-140v-104q10 8 24 13t34 5q45 0 71 -27.5t26 -74.5q0 -50 -28.5 -78t-75.5 -28q-46 0 -75 22.5t-29 62.5v8h43v-8q0 -20 15 -33.5t44 -13.5t44.5 18t15.5 49
q0 26 -13 45.5t-45 19.5q-22 0 -34.5 -6.5t-20.5 -14.5h-38v184h182v-39z" />
    <glyph glyph-name="uni2156" unicode="&#x2156;" horiz-adv-x="661" 
d="M515 657h52l-201 -329l-197 -328h-52l201 328zM593 289h-140v-104q10 8 24 13t34 5q45 0 71 -27.5t26 -74.5q0 -50 -28.5 -78t-75.5 -28q-46 0 -75 22.5t-29 62.5v8h43v-8q0 -20 15 -33.5t44 -13.5t44.5 18t15.5 49q0 26 -13 45.5t-45 19.5q-22 0 -34.5 -6.5t-20.5 -14.5
h-38v184h182v-39zM55 349q0 38 14 67t51 55l54 36q18 12 29 28t11 38t-14 35.5t-42 13.5t-42.5 -14.5t-14.5 -37.5v-10h-44v9q0 42 28.5 67.5t73.5 25.5q46 0 73.5 -23t27.5 -65q0 -31 -14.5 -54t-41.5 -42l-61 -42q-25 -17 -31.5 -34.5t-8.5 -31.5h157v-41h-205v20z" />
    <glyph glyph-name="uni2157" unicode="&#x2157;" horiz-adv-x="632" 
d="M486 657h52l-201 -329l-197 -328h-52l201 328zM564 289h-140v-104q10 8 24 13t34 5q45 0 71 -27.5t26 -74.5q0 -50 -28.5 -78t-75.5 -28q-46 0 -75 22.5t-29 62.5v8h43v-8q0 -20 15 -33.5t44 -13.5t44.5 18t15.5 49q0 26 -13 45.5t-45 19.5q-22 0 -34.5 -6.5t-20.5 -14.5
h-38v184h182v-39zM130 519h25q32 0 44.5 15t12.5 38t-14 37.5t-41 14.5t-42 -14.5t-15 -36.5v-8h-43v8q0 41 28 66t73 25t72 -24t27 -63q0 -55 -41 -75q47 -22 47 -82q0 -44 -28.5 -69t-76.5 -25q-47 0 -75 24.5t-28 66.5v8h43v-9q0 -22 15.5 -36.5t43.5 -14.5q29 0 44.5 16
t15.5 44q0 23 -14.5 40.5t-47.5 17.5h-25v36z" />
    <glyph glyph-name="uni2158" unicode="&#x2158;" horiz-adv-x="647" 
d="M501 657h52l-201 -329l-197 -328h-52l201 328zM579 289h-140v-104q10 8 24 13t34 5q45 0 71 -27.5t26 -74.5q0 -50 -28.5 -78t-75.5 -28q-46 0 -75 22.5t-29 62.5v8h43v-8q0 -20 15 -33.5t44 -13.5t44.5 18t15.5 49q0 26 -13 45.5t-45 19.5q-22 0 -34.5 -6.5t-20.5 -14.5
h-38v184h182v-39zM237 657v-214h36v-39h-36v-75h-45v75h-153v43l142 210h56zM192 443v162l-111 -162h111z" />
    <glyph glyph-name="uni2159" unicode="&#x2159;" horiz-adv-x="623" 
d="M483 657h52l-201 -329l-197 -328h-52l201 328zM57 657h103v-289h59v-39h-162v39h58v249h-58v40zM569 96q0 -48 -29.5 -74.5t-75.5 -26.5q-47 0 -75 28.5t-28 79.5v128q0 48 28 75t76 27q45 0 72.5 -24t27.5 -66v-6h-44v7q0 21 -14.5 35.5t-41.5 14.5q-29 0 -44 -16.5
t-15 -42.5v-62q11 10 27.5 16.5t38.5 6.5q45 0 71 -27.5t26 -72.5zM465 158q-24 0 -37.5 -8.5t-21.5 -18.5v-29q0 -32 15 -50.5t43 -18.5q29 0 43.5 17t14.5 44q0 26 -13 45t-44 19z" />
    <glyph glyph-name="uni215A" unicode="&#x215a;" horiz-adv-x="625" 
d="M485 657h52l-201 -329l-197 -328h-52l201 328zM571 96q0 -48 -29.5 -74.5t-75.5 -26.5q-47 0 -75 28.5t-28 79.5v128q0 48 28 75t76 27q45 0 72.5 -24t27.5 -66v-6h-44v7q0 21 -14.5 35.5t-41.5 14.5q-29 0 -44 -16.5t-15 -42.5v-62q11 10 27.5 16.5t38.5 6.5
q45 0 71 -27.5t26 -72.5zM467 158q-24 0 -37.5 -8.5t-21.5 -18.5v-29q0 -32 15 -50.5t43 -18.5q29 0 43.5 17t14.5 44q0 26 -13 45t-44 19zM247 618h-140v-104q10 8 24 13t34 5q45 0 71 -27.5t26 -74.5q0 -50 -28.5 -78t-75.5 -28q-46 0 -75 22.5t-29 62.5v8h43v-8
q0 -20 15 -33.5t44 -13.5t44.5 18t15.5 49q0 26 -13 45.5t-45 19.5q-22 0 -34.5 -6.5t-20.5 -14.5h-38v184h182v-39z" />
    <glyph glyph-name="oneeighth" unicode="&#x215b;" horiz-adv-x="617" 
d="M483 657h52l-201 -329l-197 -328h-52l201 328zM57 657h103v-289h59v-39h-162v39h58v249h-58v40zM558 244q0 -28 -11.5 -46.5t-30.5 -27.5q22 -10 35 -30t13 -50q0 -43 -29 -69t-76 -26q-48 0 -76.5 26t-28.5 69q0 30 13 50t34 30q-19 9 -30.5 27.5t-11.5 46.5
q0 40 27.5 64.5t72.5 24.5t72 -24.5t27 -64.5zM400 92q0 -26 15 -43t44 -17t44 17t15 43t-14 43t-45 17q-32 0 -45.5 -17t-13.5 -43zM404 241q0 -23 13 -39t42 -16t41.5 16t12.5 39q0 24 -14 39t-40 15q-27 0 -41 -15t-14 -39z" />
    <glyph glyph-name="threeeighths" unicode="&#x215c;" horiz-adv-x="620" 
d="M486 657h52l-201 -329l-197 -328h-52l201 328zM561 244q0 -28 -11.5 -46.5t-30.5 -27.5q22 -10 35 -30t13 -50q0 -43 -29 -69t-76 -26q-48 0 -76.5 26t-28.5 69q0 30 13 50t34 30q-19 9 -30.5 27.5t-11.5 46.5q0 40 27.5 64.5t72.5 24.5t72 -24.5t27 -64.5zM403 92
q0 -26 15 -43t44 -17t44 17t15 43t-14 43t-45 17q-32 0 -45.5 -17t-13.5 -43zM407 241q0 -23 13 -39t42 -16t41.5 16t12.5 39q0 24 -14 39t-40 15q-27 0 -41 -15t-14 -39zM130 519h25q32 0 44.5 15t12.5 38t-14 37.5t-41 14.5t-42 -14.5t-15 -36.5v-8h-43v8q0 41 28 66
t73 25t72 -24t27 -63q0 -55 -41 -75q47 -22 47 -82q0 -44 -28.5 -69t-76.5 -25q-47 0 -75 24.5t-28 66.5v8h43v-9q0 -22 15.5 -36.5t43.5 -14.5q29 0 44.5 16t15.5 44q0 23 -14.5 40.5t-47.5 17.5h-25v36z" />
    <glyph glyph-name="fiveeighths" unicode="&#x215d;" horiz-adv-x="619" 
d="M485 657h52l-201 -329l-197 -328h-52l201 328zM560 244q0 -28 -11.5 -46.5t-30.5 -27.5q22 -10 35 -30t13 -50q0 -43 -29 -69t-76 -26q-48 0 -76.5 26t-28.5 69q0 30 13 50t34 30q-19 9 -30.5 27.5t-11.5 46.5q0 40 27.5 64.5t72.5 24.5t72 -24.5t27 -64.5zM402 92
q0 -26 15 -43t44 -17t44 17t15 43t-14 43t-45 17q-32 0 -45.5 -17t-13.5 -43zM406 241q0 -23 13 -39t42 -16t41.5 16t12.5 39q0 24 -14 39t-40 15q-27 0 -41 -15t-14 -39zM247 618h-140v-104q10 8 24 13t34 5q45 0 71 -27.5t26 -74.5q0 -50 -28.5 -78t-75.5 -28
q-46 0 -75 22.5t-29 62.5v8h43v-8q0 -20 15 -33.5t44 -13.5t44.5 18t15.5 49q0 26 -13 45.5t-45 19.5q-22 0 -34.5 -6.5t-20.5 -14.5h-38v184h182v-39z" />
    <glyph glyph-name="seveneighths" unicode="&#x215e;" horiz-adv-x="597" 
d="M454 657h52l-201 -329l-197 -328h-52l201 328zM539 244q0 -28 -11.5 -46.5t-30.5 -27.5q22 -10 35 -30t13 -50q0 -43 -29 -69t-76 -26q-48 0 -76.5 26t-28.5 69q0 30 13 50t34 30q-19 9 -30.5 27.5t-11.5 46.5q0 40 27.5 64.5t72.5 24.5t72 -24.5t27 -64.5zM381 92
q0 -26 15 -43t44 -17t44 17t15 43t-14 43t-45 17q-32 0 -45.5 -17t-13.5 -43zM385 241q0 -23 13 -39t42 -16t41.5 16t12.5 39q0 24 -14 39t-40 15q-27 0 -41 -15t-14 -39zM51 657h195v-33l-115 -295h-48l114 289h-146v39z" />
    <glyph glyph-name="uni215F" unicode="&#x215f;" horiz-adv-x="448" 
d="M576 657h52l-201 -329l-197 -328h-52l201 328zM150 657h103v-289h59v-39h-162v39h58v249h-58v40z" />
    <glyph glyph-name="partialdiff" unicode="&#x2202;" horiz-adv-x="485" 
d="M417 176q0 -43 -13 -77.5t-37 -58.5t-57 -37t-73 -13t-73 13t-57 37t-37 58.5t-13 77.5v96q0 43 13 77.5t37 58.5t57 37t73 13q44 0 78 -19t54 -54q-4 58 -16 106t-34 81.5t-53.5 52t-73.5 18.5q-19 0 -35.5 -3t-28.5 -7q-14 -4 -26 -9l-15 40q15 6 33 11q15 5 34 8.5
t39 3.5q53 0 90 -17.5t62 -46.5t39.5 -66t21.5 -76t9 -77t2 -69v-159zM107 172q0 -29 8.5 -54.5t25 -44t41 -29t55.5 -10.5t55.5 10.5t41 29t25 44t8.5 54.5v104q0 29 -8.5 54.5t-25 44t-41 29t-55.5 10.5t-55.5 -10.5t-41 -29t-25 -44t-8.5 -54.5v-104z" />
    <glyph glyph-name="Delta" unicode="&#x2206;" horiz-adv-x="500" 
d="M29 0l195 657h51l196 -657h-442zM95 47h307l-153 520z" />
    <glyph glyph-name="product" unicode="&#x220f;" horiz-adv-x="582" 
d="M494 0h-52v610h-302v-610h-52v657h406v-657z" />
    <glyph glyph-name="summation" unicode="&#x2211;" horiz-adv-x="549" 
d="M133 610l237 -275l-254 -285h387v-50h-458v42l258 293l-248 280v42h418v-47h-340z" />
    <glyph glyph-name="minus" unicode="&#x2212;" horiz-adv-x="521" 
d="M76 351h369v-45h-369v45z" />
    <glyph glyph-name="uni2215" unicode="&#x2215;" horiz-adv-x="484" 
d="M416 657h52l-201 -329l-197 -328h-52l201 328z" />
    <glyph glyph-name="uni2219" unicode="&#x2219;" horiz-adv-x="292" 
d="M64 274q0 35 24 59t57 24q35 0 59 -24t24 -59q0 -33 -24 -57t-59 -24q-33 0 -57 24t-24 57z" />
    <glyph glyph-name="radical" unicode="&#x221a;" horiz-adv-x="568" 
d="M35 441h124l129 -443l204 689h52l-231 -779h-51l-147 490h-80v43z" />
    <glyph glyph-name="infinity" unicode="&#x221e;" horiz-adv-x="746" 
d="M554 401q29 0 53.5 -10t42.5 -28.5t28.5 -44t10.5 -55.5q0 -28 -10.5 -53t-29.5 -44t-44 -30t-55 -11q-46 0 -85.5 26.5t-91.5 76.5q-20 -20 -41 -38t-43.5 -32.5t-46 -23t-48.5 -8.5h-1q-29 0 -53.5 10t-42.5 28.5t-28.5 44t-10.5 55.5q0 28 10.5 53t29.5 44t44 30
t55 11q46 0 85 -26.5t91 -76.5q19 19 40.5 37.5t44 33t46.5 23t49 8.5h1zM553 351q-20 0 -39.5 -7.5t-37.5 -19.5t-34.5 -27.5t-32.5 -31.5q35 -36 69 -63t72 -27t63.5 26t25.5 62q0 38 -24 63t-61 25h-1zM194 176q20 0 39 7.5t37 19.5t35 27.5t33 31.5q-35 36 -69 63
t-72 27t-63.5 -26t-25.5 -62q0 -38 24 -63t61 -25h1z" />
    <glyph glyph-name="integral" unicode="&#x222b;" horiz-adv-x="393" 
d="M172 580q0 78 39.5 120t115.5 42h39v-44h-40q-30 0 -50 -8.5t-32 -23.5t-17 -36t-5 -46v-554q0 -78 -39.5 -120t-115.5 -42h-39v44h40q59 0 81.5 32t22.5 82v554z" />
    <glyph glyph-name="approxequal" unicode="&#x2248;" horiz-adv-x="524" 
d="M457 420q-16 -34 -38.5 -60t-61.5 -26q-26 0 -45.5 10.5t-38.5 24.5q-17 11 -34 21.5t-38 10.5q-32 0 -53.5 -24t-41.5 -62l-38 19q23 51 53 81t80 30q30 0 53 -12.5t44 -26.5q15 -10 29.5 -19t29.5 -9q21 0 36 18.5t27 41.5zM457 245q-16 -34 -38.5 -60t-61.5 -26
q-26 0 -45.5 10.5t-38.5 24.5q-17 11 -34 21.5t-38 10.5q-32 0 -53.5 -24t-41.5 -62l-38 19q23 51 53 81t80 30q30 0 53 -12.5t44 -26.5q15 -10 29.5 -19t29.5 -9q21 0 36 18.5t27 41.5z" />
    <glyph glyph-name="notequal" unicode="&#x2260;" horiz-adv-x="511" 
d="M71 437h216l65 125h47l-65 -125h106v-45h-129l-65 -125h194v-45h-217l-64 -125h-47l64 125h-105v45h128l65 125h-193v45z" />
    <glyph glyph-name="lessequal" unicode="&#x2264;" horiz-adv-x="521" 
d="M76 158h369v-43h-369v43zM76 387l369 129v-48l-303 -100l303 -101v-48l-369 129v39z" />
    <glyph glyph-name="greaterequal" unicode="&#x2265;" horiz-adv-x="521" 
d="M445 115h-369v43h369v-43zM445 348l-369 -129v48l303 101l-303 100v48l369 -129v-39z" />
    <glyph glyph-name="lozenge" unicode="&#x25ca;" horiz-adv-x="473" 
d="M442 328l-180 -338h-51l-180 338l180 339h51zM89 328l147 -279l146 279l-146 279z" />
    <glyph glyph-name="uniF629" unicode="&#xf629;" horiz-adv-x="264" 
d="M153 333v-43q35 -5 55 -27.5t20 -58.5v-3h-42v6q0 20 -13.5 33.5t-37.5 13.5t-37 -15.5t-13 -39.5v-69q0 -24 13 -40t37 -16q26 0 38.5 13.5t12.5 35.5v7h42v-4q0 -37 -20 -60t-55 -28v-43h-35v43q-35 5 -56 30t-21 65v63q0 40 21 64.5t56 29.5v43h35z" />
    <glyph glyph-name="uniF62A" unicode="&#xf62a;" horiz-adv-x="272" 
d="M190 234v9q0 23 -14.5 38t-40.5 15t-40 -13t-14 -33q0 -31 32 -45l50 -21q13 -5 27 -12t25 -18t18 -26t7 -37q0 -40 -24 -65t-64 -30v-50h-35v50q-38 5 -61.5 29t-23.5 62v9h44v-11q0 -23 15.5 -38t43.5 -15q29 0 45 16t16 39t-13 35t-33 20l-46 20q-28 11 -47 31t-19 53
t21 57t58 29v50h35v-50q37 -5 59 -29t22 -62v-7h-43z" />
    <glyph glyph-name="uniF62B" unicode="&#xf62b;" horiz-adv-x="220" 
d="M51 150h118v-39h-118v39z" />
    <glyph glyph-name="uniF62C" unicode="&#xf62c;" horiz-adv-x="177" 
d="M147 -16v-40h-5q-45 0 -68.5 24.5t-23.5 68.5v252q0 45 23.5 69t68.5 24h5v-39h-5q-26 0 -36.5 -14t-10.5 -37v-258q0 -23 10.5 -36.5t36.5 -13.5h5z" />
    <glyph glyph-name="uniF62D" unicode="&#xf62d;" horiz-adv-x="177" 
d="M35 -16q26 0 36.5 13.5t10.5 36.5v258q0 23 -10.5 37t-36.5 14h-5v39h5q45 0 68.5 -24t23.5 -69v-252q0 -44 -23.5 -68.5t-68.5 -24.5h-5v40h5z" />
    <glyph glyph-name="uniF62E" unicode="&#xf62e;" horiz-adv-x="264" 
d="M153 663v-43q35 -5 55 -27.5t20 -58.5v-3h-42v6q0 20 -13.5 33.5t-37.5 13.5t-37 -15.5t-13 -39.5v-69q0 -24 13 -40t37 -16q26 0 38.5 13.5t12.5 35.5v7h42v-4q0 -37 -20 -60t-55 -28v-43h-35v43q-35 5 -56 30t-21 65v63q0 40 21 64.5t56 29.5v43h35z" />
    <glyph glyph-name="uniF62F" unicode="&#xf62f;" horiz-adv-x="272" 
d="M190 564v9q0 23 -14.5 38t-40.5 15t-40 -13t-14 -33q0 -31 32 -45l50 -21q13 -5 27 -12t25 -18t18 -26t7 -37q0 -40 -24 -65t-64 -30v-50h-35v50q-38 5 -61.5 29t-23.5 62v9h44v-11q0 -23 15.5 -38t43.5 -15q29 0 45 16t16 39t-13 35t-33 20l-46 20q-28 11 -47 31t-19 53
t21 57t58 29v50h35v-50q37 -5 59 -29t22 -62v-7h-43z" />
    <glyph glyph-name="uniF630" unicode="&#xf630;" horiz-adv-x="220" 
d="M51 480h118v-39h-118v39z" />
    <glyph glyph-name="uniF631" unicode="&#xf631;" horiz-adv-x="176" 
d="M147 314v-40h-5q-45 0 -68.5 24.5t-23.5 68.5v252q0 45 23.5 69t68.5 24h5v-39h-5q-26 0 -36.5 -14t-10.5 -37v-258q0 -23 10.5 -36.5t36.5 -13.5h5z" />
    <glyph glyph-name="uniF632" unicode="&#xf632;" horiz-adv-x="176" 
d="M34 314q26 0 36.5 13.5t10.5 36.5v258q0 23 -10.5 37t-36.5 14h-5v39h5q45 0 68.5 -24t23.5 -69v-252q0 -44 -23.5 -68.5t-68.5 -24.5h-5v40h5z" />
    <glyph glyph-name="uniF655" unicode="&#xf655;" horiz-adv-x="304" 
d="M93 97q0 -27 15 -44.5t44 -17.5t44 17.5t15 44.5v134q0 27 -15 44.5t-44 17.5t-44 -17.5t-15 -44.5v-134zM256 98q0 -48 -28.5 -75.5t-75.5 -27.5t-75.5 27.5t-28.5 75.5v132q0 48 27.5 75.5t76.5 27.5q47 0 75.5 -27.5t28.5 -75.5v-132z" />
    <glyph glyph-name="uniF656" unicode="&#xf656;" horiz-adv-x="220" 
d="M36 328h103v-289h59v-39h-162v39h58v249h-58v40z" />
    <glyph glyph-name="uniF657" unicode="&#xf657;" horiz-adv-x="284" 
d="M39 20q0 38 14 67t51 55l54 36q18 12 29 28t11 38t-14 35.5t-42 13.5t-42.5 -14.5t-14.5 -37.5v-10h-44v9q0 42 28.5 67.5t73.5 25.5q46 0 73.5 -23t27.5 -65q0 -31 -14.5 -54t-41.5 -42l-61 -42q-25 -17 -31.5 -34.5t-8.5 -31.5h157v-41h-205v20z" />
    <glyph glyph-name="uniF658" unicode="&#xf658;" horiz-adv-x="287" 
d="M113 188h25q32 0 44.5 15t12.5 38t-14 37.5t-41 14.5t-42 -14.5t-15 -36.5v-8h-43v8q0 41 28 66t73 25t72 -24t27 -63q0 -55 -41 -75q47 -22 47 -82q0 -44 -28.5 -69t-76.5 -25q-47 0 -75 24.5t-28 66.5v8h43v-9q0 -22 15.5 -36.5t43.5 -14.5q29 0 44.5 16t15.5 44
q0 23 -14.5 40.5t-47.5 17.5h-25v36z" />
    <glyph glyph-name="uniF659" unicode="&#xf659;" horiz-adv-x="289" 
d="M222 328v-214h36v-39h-36v-75h-45v75h-153v43l142 210h56zM177 114v162l-111 -162h111z" />
    <glyph glyph-name="uniF65A" unicode="&#xf65a;" horiz-adv-x="284" 
d="M233 289h-140v-104q10 8 24 13t34 5q45 0 71 -27.5t26 -74.5q0 -50 -28.5 -78t-75.5 -28q-46 0 -75 22.5t-29 62.5v8h43v-8q0 -20 15 -33.5t44 -13.5t44.5 18t15.5 49q0 26 -13 45.5t-45 19.5q-22 0 -34.5 -6.5t-20.5 -14.5h-38v184h182v-39z" />
    <glyph glyph-name="uniF65B" unicode="&#xf65b;" horiz-adv-x="294" 
d="M255 96q0 -48 -29.5 -74.5t-75.5 -26.5q-47 0 -75 28.5t-28 79.5v128q0 48 28 75t76 27q45 0 72.5 -24t27.5 -66v-6h-44v7q0 21 -14.5 35.5t-41.5 14.5q-29 0 -44 -16.5t-15 -42.5v-62q11 10 27.5 16.5t38.5 6.5q45 0 71 -27.5t26 -72.5zM151 158q-24 0 -37.5 -8.5
t-21.5 -18.5v-29q0 -32 15 -50.5t43 -18.5q29 0 43.5 17t14.5 44q0 26 -13 45t-44 19z" />
    <glyph glyph-name="uniF65C" unicode="&#xf65c;" horiz-adv-x="240" 
d="M23 328h195v-33l-115 -295h-48l114 289h-146v39z" />
    <glyph glyph-name="uniF65D" unicode="&#xf65d;" horiz-adv-x="292" 
d="M245 244q0 -28 -11.5 -46.5t-30.5 -27.5q22 -10 35 -30t13 -50q0 -43 -29 -69t-76 -26q-48 0 -76.5 26t-28.5 69q0 30 13 50t34 30q-19 9 -30.5 27.5t-11.5 46.5q0 40 27.5 64.5t72.5 24.5t72 -24.5t27 -64.5zM87 92q0 -26 15 -43t44 -17t44 17t15 43t-14 43t-45 17
q-32 0 -45.5 -17t-13.5 -43zM91 241q0 -23 13 -39t42 -16t41.5 16t12.5 39q0 24 -14 39t-40 15q-27 0 -41 -15t-14 -39z" />
    <glyph glyph-name="uniF65E" unicode="&#xf65e;" horiz-adv-x="293" 
d="M39 232q0 48 29 74.5t76 26.5q46 0 74.5 -29t28.5 -83v-124q0 -48 -28 -75t-76 -27q-45 0 -72.5 24t-27.5 66v6h43v-7q0 -21 15 -35.5t41 -14.5q29 0 44.5 16.5t15.5 42.5v63q-11 -11 -27.5 -17.5t-39.5 -6.5q-45 0 -70.5 27.5t-25.5 72.5zM142 170q24 0 38 8.5t22 19.5
v24q0 32 -15 52.5t-44 20.5t-43.5 -17t-14.5 -44q0 -26 13 -45t44 -19z" />
    <glyph glyph-name="uniF65F" unicode="&#xf65f;" horiz-adv-x="133" 
d="M96 46l-39 -93h-29l20 93h48z" />
    <glyph glyph-name="uniF660" unicode="&#xf660;" horiz-adv-x="128" 
d="M36 22q0 12 8 20t20 8t20 -8t8 -20t-8 -20t-20 -8t-20 8t-8 20z" />
    <glyph glyph-name="uniF661" unicode="&#xf661;" horiz-adv-x="302" 
d="M92 427q0 -27 15 -44.5t44 -17.5t44 17.5t15 44.5v134q0 27 -15 44.5t-44 17.5t-44 -17.5t-15 -44.5v-134zM255 428q0 -48 -28.5 -75.5t-75.5 -27.5t-75.5 27.5t-28.5 75.5v132q0 48 27.5 75.5t76.5 27.5q47 0 75.5 -27.5t28.5 -75.5v-132z" />
    <glyph glyph-name="uniF662" unicode="&#xf662;" horiz-adv-x="219" 
d="M35 657h103v-289h59v-39h-162v39h58v249h-58v40z" />
    <glyph glyph-name="uniF663" unicode="&#xf663;" horiz-adv-x="282" 
d="M38 350q0 38 14 67t51 55l54 36q18 12 29 28t11 38t-14 35.5t-42 13.5t-42.5 -14.5t-14.5 -37.5v-10h-44v9q0 42 28.5 67.5t73.5 25.5q46 0 73.5 -23t27.5 -65q0 -31 -14.5 -54t-41.5 -42l-61 -42q-25 -17 -31.5 -34.5t-8.5 -31.5h157v-41h-205v20z" />
    <glyph glyph-name="uniF664" unicode="&#xf664;" horiz-adv-x="286" 
d="M112 518h25q32 0 44.5 15t12.5 38t-14 37.5t-41 14.5t-42 -14.5t-15 -36.5v-8h-43v8q0 41 28 66t73 25t72 -24t27 -63q0 -55 -41 -75q47 -22 47 -82q0 -44 -28.5 -69t-76.5 -25q-47 0 -75 24.5t-28 66.5v8h43v-9q0 -22 15.5 -36.5t43.5 -14.5q29 0 44.5 16t15.5 44
q0 23 -14.5 40.5t-47.5 17.5h-25v36z" />
    <glyph glyph-name="uniF665" unicode="&#xf665;" horiz-adv-x="289" 
d="M222 658v-214h36v-39h-36v-75h-45v75h-153v43l142 210h56zM177 444v162l-111 -162h111z" />
    <glyph glyph-name="uniF666" unicode="&#xf666;" horiz-adv-x="282" 
d="M232 619h-140v-104q10 8 24 13t34 5q45 0 71 -27.5t26 -74.5q0 -50 -28.5 -78t-75.5 -28q-46 0 -75 22.5t-29 62.5v8h43v-8q0 -20 15 -33.5t44 -13.5t44.5 18t15.5 49q0 26 -13 45.5t-45 19.5q-22 0 -34.5 -6.5t-20.5 -14.5h-38v184h182v-39z" />
    <glyph glyph-name="uniF667" unicode="&#xf667;" horiz-adv-x="294" 
d="M255 426q0 -48 -29.5 -74.5t-75.5 -26.5q-47 0 -75 28.5t-28 79.5v128q0 48 28 75t76 27q45 0 72.5 -24t27.5 -66v-6h-44v7q0 21 -14.5 35.5t-41.5 14.5q-29 0 -44 -16.5t-15 -42.5v-62q11 10 27.5 16.5t38.5 6.5q45 0 71 -27.5t26 -72.5zM151 488q-24 0 -37.5 -8.5
t-21.5 -18.5v-29q0 -32 15 -50.5t43 -18.5q29 0 43.5 17t14.5 44q0 26 -13 45t-44 19z" />
    <glyph glyph-name="uniF668" unicode="&#xf668;" horiz-adv-x="239" 
d="M22 658h195v-33l-115 -295h-48l114 289h-146v39z" />
    <glyph glyph-name="uniF669" unicode="&#xf669;" horiz-adv-x="292" 
d="M245 574q0 -28 -11.5 -46.5t-30.5 -27.5q22 -10 35 -30t13 -50q0 -43 -29 -69t-76 -26q-48 0 -76.5 26t-28.5 69q0 30 13 50t34 30q-19 9 -30.5 27.5t-11.5 46.5q0 40 27.5 64.5t72.5 24.5t72 -24.5t27 -64.5zM87 422q0 -26 15 -43t44 -17t44 17t15 43t-14 43t-45 17
q-32 0 -45.5 -17t-13.5 -43zM91 571q0 -23 13 -39t42 -16t41.5 16t12.5 39q0 24 -14 39t-40 15q-27 0 -41 -15t-14 -39z" />
    <glyph glyph-name="uniF66A" unicode="&#xf66a;" horiz-adv-x="293" 
d="M38 562q0 48 29 74.5t76 26.5q46 0 74.5 -29t28.5 -83v-124q0 -48 -28 -75t-76 -27q-45 0 -72.5 24t-27.5 66v6h43v-7q0 -21 15 -35.5t41 -14.5q29 0 44.5 16.5t15.5 42.5v63q-11 -11 -27.5 -17.5t-39.5 -6.5q-45 0 -70.5 27.5t-25.5 72.5zM141 500q24 0 38 8.5t22 19.5
v24q0 32 -15 52.5t-44 20.5t-43.5 -17t-14.5 -44q0 -26 13 -45t44 -19z" />
    <glyph glyph-name="uniF66B" unicode="&#xf66b;" horiz-adv-x="130" 
d="M94 376l-39 -93h-29l20 93h48z" />
    <glyph glyph-name="uniF66C" unicode="&#xf66c;" horiz-adv-x="130" 
d="M37 352q0 12 8 20t20 8t20 -8t8 -20t-8 -20t-20 -8t-20 8t-8 20z" />
    <glyph glyph-name="uniF6C3" unicode="&#xf6c3;" horiz-adv-x="177" 
d="M127 -41l-60 -157h-42l36 157h66z" />
    <glyph glyph-name="uniF8FF" unicode="&#xf8ff;" horiz-adv-x="1420" 
d="M378 488q11 0 11 -11v-6q9 7 22.5 14t35.5 7q18 0 30.5 -7.5t20.5 -18.5q8 7 23 16.5t41 9.5t41.5 -15.5t15.5 -38.5v-132q0 -11 -12 -11h-38q-13 0 -13 11v116q0 9 -2.5 12.5t-11.5 3.5q-11 0 -21.5 -5t-16.5 -10v-117q0 -11 -11 -11h-38q-12 0 -12 11v116
q0 9 -2.5 12.5t-12.5 3.5q-11 0 -21.5 -5t-15.5 -10v-117q0 -11 -10 -11h-41q-11 0 -11 11v171q0 11 11 11h38zM1043 488q12 0 12 -11l1 -7q8 7 22 14.5t38 7.5q29 0 43 -16t14 -44v-80q0 -29 -14 -45.5t-43 -16.5q-23 0 -36.5 7.5t-21.5 13.5v-83q0 -11 -11 -11h-40
q-11 0 -11 11v249q0 11 11 11h36zM296 388q0 -11 -12 -11h-93v-23q0 -18 23 -18q25 0 25 18v1q0 11 11 11h32q12 0 12 -11v-3q0 -28 -17.5 -45t-62.5 -17t-65 17t-20 45v79q0 29 20 45t65 16t63.5 -16t18.5 -45v-43zM1370 388q0 -11 -11 -11h-94v-23q0 -18 23 -18
q24 0 24 18v1q0 11 12 11h32q11 0 11 -11v-3q0 -28 -17 -45t-62 -17t-64.5 17t-19.5 45v79q0 29 19.5 45t64.5 16t63.5 -16t18.5 -45v-43zM872 407q4 -14 5.5 -25t1.5 -12q1 1 4.5 13.5t5.5 21.5l24 72q2 5 4 8t8 3h37q14 0 11 -11l-84 -249q-4 -11 -14 -11h-28
q-14 0 -11 11l16 59l-65 190q-4 11 11 11h40q6 0 8 -3t4 -8zM762 487q11 0 11 -10v-27q0 -11 -11 -11h-31v-77q0 -18 24 -18h10q12 0 12 -11v-27q0 -11 -12 -11h-19q-45 0 -61.5 14.5t-16.5 45.5v84h-17q-11 0 -11 11v25q0 8 11 11l16 1h1v36q0 12 12 12h39q12 0 12 -12v-36
h31zM472 98q0 -4 -4 -4h-114v-48q0 -14 10.5 -23.5t39.5 -9.5t38.5 9.5t9.5 23.5v8q0 4 6 4h9q5 0 5 -4v-9q0 -21 -14.5 -34.5t-54.5 -13.5q-39 0 -54 13.5t-15 34.5v102q0 21 15 34.5t55 13.5q39 0 53.5 -13.5t14.5 -34.5v-49zM154 171q8 6 25.5 15t41.5 9q28 0 41 -13
t13 -33v-144q0 -5 -4 -5h-11q-4 0 -4 5v140q0 14 -9.5 22.5t-29.5 8.5q-23 0 -39.5 -8.5t-22.5 -14.5v-148q0 -5 -4 -5h-11q-5 0 -5 5v183q0 4 5 4h9q5 0 5 -4v-17zM603 191q4 0 4 -4v-8q0 -5 -4 -5h-47v-124q0 -14 11 -23.5t39 -9.5h6q5 0 5 -5v-7q0 -5 -5 -5h-9
q-39 0 -52.5 12.5t-13.5 35.5v126h-25q-4 0 -4 5v7q0 4 4 5h25v41q0 5 4 5h11q4 0 4 -5v-41h47zM354 110h98v36q0 14 -10 23t-38 9q-29 0 -39.5 -9t-10.5 -23v-36zM1112 423q0 5 -2.5 10t-14.5 5q-11 0 -21 -5.5t-16 -9.5v-63q6 -4 16 -10t21 -6q12 0 14.5 6t2.5 11v62z
M191 417h48v11q0 18 -25 18q-23 0 -23 -18v-11zM1265 417h47v11q0 18 -24 18q-23 0 -23 -18v-11zM70 5q0 -5 -5 -5h-11q-4 0 -4 5v30q0 5 4 5h11q5 0 5 -5v-30z" />
    <glyph glyph-name="uniFB00" unicode="&#xfb00;" horiz-adv-x="595" 
d="M165 0h-50v444h-83v42h83v29q0 78 39.5 120t115.5 42h39v-44h-40q-30 0 -50 -8.5t-32 -23.5t-17 -36t-5 -46v-33h220v29q0 78 39.5 120t115.5 42h39v-44h-40q-30 0 -50 -8.5t-32 -23.5t-17 -36t-5 -46v-33h137v-42h-137v-444h-50v444h-220v-444z" />
    <glyph glyph-name="uniFB01" unicode="&#xfb01;" horiz-adv-x="525" 
d="M269 633q-30 0 -50 -8.5t-32 -23.5t-17 -36t-5 -46v-33h284v-486h-50v444h-234v-444h-50v444h-83v42h83v29q0 78 39.5 120t115.5 42h179v-44h-180z" />
    <glyph glyph-name="uniFB02" unicode="&#xfb02;" horiz-adv-x="532" 
d="M32 486h83v29q0 78 39.5 120t115.5 42h179v-677h-50v633h-130q-30 0 -50 -8.5t-32 -23.5t-17 -36t-5 -46v-33h127v-42h-127v-444h-50v444h-83v42z" />
    <glyph glyph-name="uniFB03" unicode="&#xfb03;" horiz-adv-x="775" 
d="M32 486h83v29q0 78 39.5 120t115.5 42h39v-44h-40q-30 0 -50 -8.5t-32 -23.5t-17 -36t-5 -46v-33h220v29q0 78 39.5 120t115.5 42h159v-44h-160q-30 0 -50 -8.5t-32 -23.5t-17 -36t-5 -46v-33h264v-486h-50v444h-214v-444h-50v444h-220v-444h-50v444h-83v42z" />
    <glyph glyph-name="uniFB04" unicode="&#xfb04;" horiz-adv-x="782" 
d="M165 0h-50v444h-83v42h83v29q0 78 39.5 120t115.5 42h39v-44h-40q-30 0 -50 -8.5t-32 -23.5t-17 -36t-5 -46v-33h220v29q0 78 39.5 120t115.5 42h159v-677h-50v633h-110q-30 0 -50 -8.5t-32 -23.5t-17 -36t-5 -46v-33h127v-42h-127v-444h-50v444h-220v-444z" />
    <glyph glyph-name="uniFB05" unicode="&#xfb05;" horiz-adv-x="498" 
d="M231 633q-30 0 -50 -8.5t-32 -23.5t-17 -36t-5 -46v-519h-50v515q0 78 39.5 120t115.5 42h39v-44h-40zM219 486h101v133h50v-133h101v-42h-101v-444h-50v444h-101v42z" />
    <glyph glyph-name="glyph390" horiz-adv-x="192" 
d="M20 791l37 40l115 -112l-23 -25z" />
    <glyph glyph-name="glyph391" horiz-adv-x="213" 
d="M20 760q0 15 11 25.5t26 10.5t25 -10.5t10 -25.5t-10 -26t-25 -11t-26 11t-11 26zM121 760q0 15 11 25.5t26 10.5q14 0 24.5 -10.5t10.5 -25.5t-10.5 -26t-24.5 -11q-15 0 -26 11t-11 26z" />
    <glyph glyph-name="glyph392" horiz-adv-x="272" 
d="M20 778h232v-40h-232v40z" />
    <glyph glyph-name="glyph393" horiz-adv-x="192" 
d="M43 694l-23 25l115 112l37 -40z" />
    <glyph glyph-name="glyph394" horiz-adv-x="275" 
d="M156 832l99 -118l-21 -19l-98 89l-96 -88l-20 18l99 118h37z" />
    <glyph glyph-name="glyph395" horiz-adv-x="275" 
d="M119 690l-99 118l21 19l98 -89l96 88l20 -18l-99 -118h-37z" />
    <glyph glyph-name="glyph396" horiz-adv-x="226" 
d="M206 806v-19q0 -38 -24.5 -65t-68.5 -27t-68.5 27t-24.5 65v19h37v-19q0 -25 15 -42t41 -17t41 17t15 42v19h37z" />
    <glyph glyph-name="glyph397" horiz-adv-x="117" 
d="M20 753q0 17 11 28t27 11q17 0 28 -11t11 -28q0 -16 -11 -27t-28 -11q-16 0 -27 11t-11 27z" />
    <glyph glyph-name="glyph398" horiz-adv-x="226" 
d="M113 713q24 0 39.5 17t15.5 42t-15.5 42t-39.5 17t-39.5 -17t-15.5 -42t15.5 -42t39.5 -17zM113 680q-40 0 -66.5 27t-26.5 65t26.5 65t66.5 27t66.5 -27t26.5 -65t-26.5 -65t-66.5 -27z" />
    <glyph glyph-name="glyph399" horiz-adv-x="331" 
d="M309 794q1 -6 1.5 -12t0.5 -12q0 -14 -3 -27t-10.5 -23.5t-20 -17t-31.5 -6.5q-17 0 -33 7t-33 17l-39 22q-10 5 -21.5 10.5t-22.5 5.5q-17 0 -26.5 -9.5t-14 -20.5t-5 -21.5t-0.5 -11.5h-29q-1 5 -1.5 10t-0.5 10q0 32 20 56t58 24q15 0 29.5 -5t30.5 -14l41 -24
q13 -8 25 -13.5t23 -5.5q12 0 18.5 6t10 15.5t4 20t0.5 19.5h29z" />
    <glyph glyph-name="glyph400" horiz-adv-x="291" 
d="M38 694l-18 20l115 112l32 -35zM154 688l-20 18l101 124l36 -31z" />
    <glyph glyph-name="glyph401" horiz-adv-x="125" 
d="M105 677l-46 -121h-39l22 121h63z" />
    <glyph glyph-name="glyph402" horiz-adv-x="177" 
d="M127 -41l-60 -157h-42l36 157h66z" />
    <glyph glyph-name="glyph403" horiz-adv-x="477" 
d="M359 59q-23 -33 -60.5 -51t-83.5 -18q-77 0 -120 35.5t-43 101.5t44.5 101t126.5 35h131v78q0 48 -32 80.5t-92 32.5t-92 -30t-32 -73v-11h-48v7q0 35 12.5 63t35.5 47.5t55 30t71 10.5t70.5 -11t54 -32t35 -51t12.5 -67v-337h-33zM218 35q55 0 90.5 29t45.5 74v81h-135
q-18 0 -38 -3t-37 -12.5t-28.5 -28t-11.5 -49.5q0 -38 27 -64.5t87 -26.5z" />
    <glyph glyph-name="glyph404" horiz-adv-x="324" 
d="M31 486h82v133h50v-133h138v-42h-138v-292q0 -45 27 -76.5t78 -31.5h33v-44h-33q-69 0 -112 41.5t-43 114.5v288h-82v42z" />
    <glyph glyph-name="glyph405" horiz-adv-x="616" 
d="M460 489h-50v16q0 49 -27.5 83t-80.5 34q-54 0 -81.5 -30.5t-27.5 -78.5q0 -40 16 -66t32 -45l193 -231l90 189h50l-111 -224l114 -136h-59l-81 96q-32 -50 -80.5 -78t-112.5 -28q-90 0 -143 46.5t-53 129.5q0 66 44 114.5t129 71.5l-23 28q-9 10 -18.5 24.5t-18 32
t-14 37.5t-5.5 41q0 34 12 62.5t33 48t50.5 30.5t65.5 11q71 0 114 -44t43 -122v-12zM249 36q59 0 97 27t63 66l-160 190q-78 -16 -112.5 -56t-34.5 -90q0 -60 36 -98.5t111 -38.5z" />
    <glyph glyph-name="glyph406" horiz-adv-x="530" 
d="M119 187q0 -32 9.5 -59.5t28 -47.5t46 -31.5t62.5 -11.5t62.5 11.5t46 31.5t28 47.5t9.5 59.5v283q0 32 -9.5 59.5t-28 47.5t-46 31.5t-62.5 11.5t-62.5 -11.5t-46 -31.5t-28 -47.5t-9.5 -59.5v-283zM463 191q0 -47 -14.5 -84t-40.5 -63t-62.5 -40t-80.5 -14t-80.5 14
t-62.5 40t-40.5 63t-14.5 84v275q0 46 14.5 83.5t40.5 63.5t62.5 40t80.5 14t80.5 -14t62.5 -40t40.5 -63.5t14.5 -83.5v-275z" />
    <glyph glyph-name="glyph407" horiz-adv-x="530" 
d="M97 657h203v-610h150v-47h-353v47h151v563h-151v47z" />
    <glyph glyph-name="glyph408" horiz-adv-x="530" 
d="M70 29q0 84 37 145t114 114l97 67q42 29 64.5 64.5t22.5 82.5q0 53 -35.5 85.5t-104.5 32.5t-105 -36t-36 -89v-22h-50v18q0 41 14 73.5t39.5 55.5t61 35t77.5 12q43 0 78.5 -11t60.5 -32.5t39 -52.5t14 -71q0 -53 -26.5 -98t-77.5 -80l-126 -88q-33 -23 -53.5 -48
t-31 -49.5t-14.5 -47t-4 -40.5h333v-49h-388v29z" />
    <glyph glyph-name="glyph409" horiz-adv-x="530" 
d="M206 367h55q38 0 64 10.5t41.5 28t22.5 41t7 49.5q0 54 -34.5 89t-103.5 35q-68 0 -103.5 -34.5t-35.5 -85.5v-20h-50v16q0 40 14 71.5t39 53.5t60 34t77 12q86 0 138 -45.5t52 -123.5q0 -54 -22 -94t-69 -60q52 -22 77.5 -66.5t25.5 -103.5q0 -43 -14.5 -77t-41 -58
t-63 -36.5t-80.5 -12.5t-80 12t-62 34t-40.5 53.5t-14.5 70.5v15h50v-19q0 -50 37.5 -84.5t108.5 -34.5q73 0 109.5 39t36.5 103q0 24 -7.5 49.5t-24.5 46t-45 34t-69 13.5h-55v45z" />
    <glyph glyph-name="glyph410" horiz-adv-x="530" 
d="M409 657v-447h74v-47h-74v-163h-52v163h-316v50l296 444h72zM357 210v390l-262 -390h262z" />
    <glyph glyph-name="glyph411" horiz-adv-x="530" 
d="M438 610h-290v-249q22 14 52 24t71 10q46 0 82 -14.5t61 -41t38.5 -63t13.5 -80.5q0 -48 -14.5 -86t-41 -65t-63 -41t-80.5 -14t-80 11.5t-62 33t-40.5 52t-14.5 68.5v15h50v-19q0 -48 37.5 -81t108.5 -33q73 0 109.5 43.5t36.5 116.5q0 28 -7.5 55t-24.5 48.5
t-43.5 34.5t-65.5 13q-53 0 -83.5 -14.5t-49.5 -31.5h-42v355h342v-47z" />
    <glyph glyph-name="glyph412" horiz-adv-x="530" 
d="M471 189q0 -47 -15 -83.5t-41.5 -62.5t-63.5 -39.5t-81 -13.5t-80 15.5t-61.5 44t-39.5 69.5t-14 92v265q0 44 14.5 79.5t40.5 60t62 38t80 13.5q42 0 77 -12t60.5 -35t39.5 -55.5t14 -73.5v-13h-50v18q0 53 -36.5 89t-104.5 36q-35 0 -62 -11t-45.5 -29.5t-28 -44
t-9.5 -55.5v-155q23 24 60.5 42.5t91.5 18.5q46 0 81.5 -15t60 -42t37.5 -63t13 -78zM276 339q-31 0 -54.5 -6.5t-41.5 -17t-31 -23.5t-22 -26v-59q0 -37 9.5 -68t28 -54t46 -36t62.5 -13q71 0 107.5 42t36.5 107q0 29 -7.5 56.5t-24.5 49.5t-43.5 35t-65.5 13z" />
    <glyph glyph-name="glyph413" horiz-adv-x="530" 
d="M60 657h414v-36l-262 -621h-56l259 610h-355v47z" />
    <glyph glyph-name="glyph414" horiz-adv-x="530" 
d="M456 492q0 -54 -25 -92.5t-68 -58.5q48 -20 76 -63t28 -101q0 -42 -15 -76.5t-42 -59t-64 -38t-81 -13.5t-81 13.5t-64 38t-42 59t-15 76.5q0 58 28 101t76 63q-43 20 -68 59t-25 92q0 40 14 72t39.5 55t60.5 35.5t77 12.5t77 -12.5t60.5 -35.5t39.5 -55t14 -72zM117 178
q0 -30 10 -56t28.5 -45.5t46 -30.5t63.5 -11t63.5 11t46 30.5t28.5 45.5t10 56q0 28 -8.5 53.5t-26.5 45t-46 31t-67 11.5t-67 -11.5t-46 -31t-26.5 -45t-8.5 -53.5zM127 491q0 -26 8 -49.5t24.5 -41t42.5 -28t63 -10.5t63 10.5t42.5 28t24.5 41t8 49.5q0 56 -35.5 93.5
t-102.5 37.5t-102.5 -37.5t-35.5 -93.5z" />
    <glyph glyph-name="glyph415" horiz-adv-x="530" 
d="M59 468q0 46 15 83t41.5 63t63.5 39.5t81 13.5t80 -15.5t61.5 -44t39.5 -69.5t14 -92v-265q0 -44 -14.5 -79.5t-40.5 -60.5t-62 -38t-80 -13q-42 0 -77 12t-60.5 35t-39.5 55.5t-14 73.5v13h50v-18q0 -53 36.5 -89t104.5 -36q35 0 62 11t45.5 29.5t28 44t9.5 55.5v154
q-24 -24 -61 -42t-91 -18q-46 0 -81.5 15t-60 42t-37.5 63t-13 78zM254 318q31 0 54.5 6.5t41.5 17t31 23.5t22 26v59q0 34 -9.5 65t-28 54.5t-46 37.5t-62.5 14q-71 0 -107.5 -42t-36.5 -107q0 -29 7.5 -56.5t24.5 -49.5t43.5 -35t65.5 -13z" />
    <glyph glyph-name="glyph484" horiz-adv-x="477" 
d="M359 59q-23 -33 -60.5 -51t-83.5 -18q-77 0 -120 35.5t-43 101.5t44.5 101t126.5 35h131v78q0 48 -32 80.5t-92 32.5t-92 -30t-32 -73v-11h-48v7q0 35 12.5 63t35.5 47.5t55 30t71 10.5t70.5 -11t54 -32t35 -51t12.5 -67v-337h-33zM218 35q55 0 90.5 29t45.5 74v81h-135
q-18 0 -38 -3t-37 -12.5t-28.5 -28t-11.5 -49.5q0 -38 27 -64.5t87 -26.5zM110 647l37 40l115 -112l-23 -25z" />
    <glyph glyph-name="glyph485" horiz-adv-x="477" 
d="M359 59q-23 -33 -60.5 -51t-83.5 -18q-77 0 -120 35.5t-43 101.5t44.5 101t126.5 35h131v78q0 48 -32 80.5t-92 32.5t-92 -30t-32 -73v-11h-48v7q0 35 12.5 63t35.5 47.5t55 30t71 10.5t70.5 -11t54 -32t35 -51t12.5 -67v-337h-33zM218 35q55 0 90.5 29t45.5 74v81h-135
q-18 0 -38 -3t-37 -12.5t-28.5 -28t-11.5 -49.5q0 -38 27 -64.5t87 -26.5zM230 550l-23 25l115 112l37 -40z" />
    <glyph glyph-name="glyph486" horiz-adv-x="477" 
d="M359 59q-23 -33 -60.5 -51t-83.5 -18q-77 0 -120 35.5t-43 101.5t44.5 101t126.5 35h131v78q0 48 -32 80.5t-92 32.5t-92 -30t-32 -73v-11h-48v7q0 35 12.5 63t35.5 47.5t55 30t71 10.5t70.5 -11t54 -32t35 -51t12.5 -67v-337h-33zM218 35q55 0 90.5 29t45.5 74v81h-135
q-18 0 -38 -3t-37 -12.5t-28.5 -28t-11.5 -49.5q0 -38 27 -64.5t87 -26.5zM251 688l99 -118l-21 -19l-98 89l-96 -88l-20 18l99 118h37z" />
    <glyph glyph-name="glyph487" horiz-adv-x="477" 
d="M359 59q-23 -33 -60.5 -51t-83.5 -18q-77 0 -120 35.5t-43 101.5t44.5 101t126.5 35h131v78q0 48 -32 80.5t-92 32.5t-92 -30t-32 -73v-11h-48v7q0 35 12.5 63t35.5 47.5t55 30t71 10.5t70.5 -11t54 -32t35 -51t12.5 -67v-337h-33zM218 35q55 0 90.5 29t45.5 74v81h-135
q-18 0 -38 -3t-37 -12.5t-28.5 -28t-11.5 -49.5q0 -38 27 -64.5t87 -26.5zM375 659q1 -6 1.5 -12t0.5 -12q0 -14 -3 -27t-10.5 -23.5t-20 -17t-31.5 -6.5q-17 0 -33 7t-33 17l-39 22q-10 6 -21.5 11t-22.5 5q-17 0 -26.5 -9.5t-14 -20.5t-5 -21.5t-0.5 -11.5h-29
q-1 5 -1.5 10t-0.5 10q0 32 20 56t58 24q15 0 29.5 -5t30.5 -14l41 -24q13 -8 25 -13.5t23 -5.5q12 0 18.5 6t10 15.5t4 20t0.5 19.5h29z" />
    <glyph glyph-name="glyph488" horiz-adv-x="477" 
d="M359 59q-23 -33 -60.5 -51t-83.5 -18q-77 0 -120 35.5t-43 101.5t44.5 101t126.5 35h131v78q0 48 -32 80.5t-92 32.5t-92 -30t-32 -73v-11h-48v7q0 35 12.5 63t35.5 47.5t55 30t71 10.5t70.5 -11t54 -32t35 -51t12.5 -67v-337h-33zM218 35q55 0 90.5 29t45.5 74v81h-135
q-18 0 -38 -3t-37 -12.5t-28.5 -28t-11.5 -49.5q0 -38 27 -64.5t87 -26.5zM145 604q0 15 11 25.5t26 10.5t25 -10.5t10 -25.5t-10 -26t-25 -11t-26 11t-11 26zM246 604q0 15 11 25.5t26 10.5q14 0 24.5 -10.5t10.5 -25.5t-10.5 -26t-24.5 -11q-15 0 -26 11t-11 26z" />
    <glyph glyph-name="glyph489" horiz-adv-x="477" 
d="M359 59q-23 -33 -60.5 -51t-83.5 -18q-77 0 -120 35.5t-43 101.5t44.5 101t126.5 35h131v78q0 48 -32 80.5t-92 32.5t-92 -30t-32 -73v-11h-48v7q0 35 12.5 63t35.5 47.5t55 30t71 10.5t70.5 -11t54 -32t35 -51t12.5 -67v-337h-33zM218 35q55 0 90.5 29t45.5 74v81h-135
q-18 0 -38 -3t-37 -12.5t-28.5 -28t-11.5 -49.5q0 -38 27 -64.5t87 -26.5zM232 562q24 0 39.5 17t15.5 42t-15.5 42t-39.5 17t-39.5 -17t-15.5 -42t15.5 -42t39.5 -17zM232 529q-40 0 -66.5 27t-26.5 65t26.5 65t66.5 27t66.5 -27t26.5 -65t-26.5 -65t-66.5 -27z" />
    <glyph glyph-name="glyph490" horiz-adv-x="477" 
d="M359 59q-23 -33 -60.5 -51t-83.5 -18q-77 0 -120 35.5t-43 101.5t44.5 101t126.5 35h131v78q0 48 -32 80.5t-92 32.5t-92 -30t-32 -73v-11h-48v7q0 35 12.5 63t35.5 47.5t55 30t71 10.5t70.5 -11t54 -32t35 -51t12.5 -67v-337h-33zM218 35q55 0 90.5 29t45.5 74v81h-135
q-18 0 -38 -3t-37 -12.5t-28.5 -28t-11.5 -49.5q0 -38 27 -64.5t87 -26.5zM115 617h232v-40h-232v40z" />
    <glyph glyph-name="glyph491" horiz-adv-x="477" 
d="M359 59q-23 -33 -60.5 -51t-83.5 -18q-77 0 -120 35.5t-43 101.5t44.5 101t126.5 35h131v78q0 48 -32 80.5t-92 32.5t-92 -30t-32 -73v-11h-48v7q0 35 12.5 63t35.5 47.5t55 30t71 10.5t70.5 -11t54 -32t35 -51t12.5 -67v-337h-33zM218 35q55 0 90.5 29t45.5 74v81h-135
q-18 0 -38 -3t-37 -12.5t-28.5 -28t-11.5 -49.5q0 -38 27 -64.5t87 -26.5zM324 662v-19q0 -38 -24.5 -65t-68.5 -27t-68.5 27t-24.5 65v19h37v-19q0 -25 15 -42t41 -17t41 17t15 42v19h37z" />
    <glyph glyph-name="glyph492" horiz-adv-x="477" 
d="M404 -148v-37h-51q-44 0 -65 20.5t-21 49.5q0 19 8.5 37.5t23 34.5t32.5 29t38 21l-10 52q-23 -33 -60.5 -51t-83.5 -18q-77 0 -120 35.5t-43 101.5t44.5 101t126.5 35h131v78q0 48 -32 80.5t-92 32.5t-92 -30t-32 -73v-11h-48v7q0 35 12.5 63t35.5 47.5t55 30t71 10.5
t70.5 -11t54 -32t35 -51t12.5 -67v-337q-42 -23 -69.5 -50t-27.5 -58q0 -17 12.5 -28.5t40.5 -11.5h44zM218 35q55 0 90.5 29t45.5 74v81h-135q-18 0 -38 -3t-37 -12.5t-28.5 -28t-11.5 -49.5q0 -38 27 -64.5t87 -26.5z" />
    <glyph glyph-name="glyph493" horiz-adv-x="324" 
d="M31 486h82v133h50v-133h138v-42h-138v-292q0 -45 27 -76.5t78 -31.5h33v-44h-33q-20 0 -43 5l-16 -53h12q39 0 60 -18.5t21 -50.5q0 -33 -22 -51.5t-59 -18.5h-89v38h93q15 0 25 7.5t10 24.5q0 16 -10 24t-25 8h-50l-15 9l28 94q-35 18 -55 53t-20 85v288h-82v42z" />
    <glyph glyph-name="glyph494" horiz-adv-x="324" 
d="M31 486h82v133h50v-133h138v-42h-138v-292q0 -45 27 -76.5t78 -31.5h33v-44h-33q-69 0 -112 41.5t-43 114.5v288h-82v42zM311 677l-46 -121h-39l22 121h63z" />
    <glyph glyph-name="glyph495" horiz-adv-x="358" 
d="M50 485h82v133h50v-133h138v-42h-138v-117h138v-42h-138v-133q0 -45 27 -76.5t78 -31.5h33v-44h-33q-69 0 -112 41.5t-43 114.5v129h-82v42h82v117h-82v42z" />
    <glyph glyph-name="glyph496" horiz-adv-x="512" 
d="M219 486h82v133h50v-133h138v-42h-138v-292q0 -45 27 -76.5t78 -31.5h33v-44h-33q-69 0 -112 41.5t-43 114.5v288h-82v42zM231 633q-30 0 -50 -8.5t-32 -23.5t-17 -36t-5 -46v-519h-50v515q0 78 39.5 120t115.5 42h39v-44h-40z" />
    <glyph glyph-name="glyph497" horiz-adv-x="343" 
d="M31 486h82v133h50v-133h138v-42h-138v-292q0 -45 27 -76.5t78 -31.5h33v-44h-33q-69 0 -112 41.5t-43 114.5v288h-82v42zM202 -41l-60 -157h-42l36 157h66z" />
    </font>
</defs>
</svg>
