<?xml version="1.0" standalone="no"?>
<!DOCTYPE svg PUBLIC "-//W3C//DTD SVG 1.1//EN" "http://www.w3.org/Graphics/SVG/1.1/DTD/svg11.dtd" >
<svg>
<metadata>
Created by FontForge 20120731 at Sun Jun 30 18:13:59 2019
 By www
Copyright (c) 2016 by Eduardo Manso. All rights reserved.
</metadata>
<defs>
<font id="CiutadellaSlabW04-Regular" horiz-adv-x="559" >
  <font-face 
    font-family="CiutadellaSlabW04-Regular"
    font-weight="400"
    font-stretch="normal"
    units-per-em="1000"
    panose-1="1 0 0 0 0 0 0 0 0 0"
    ascent="800"
    descent="-200"
    x-height="489"
    cap-height="657"
    bbox="-149 -228 1366 875"
    underline-thickness="50"
    underline-position="-75"
    unicode-range="U+000D-FF19"
  />
<missing-glyph horiz-adv-x="829" 
d="M74 328q0 86 42.5 164t122.5 126.5t175 48.5q86 0 164.5 -42.5t127 -122t48.5 -174.5q0 -68 -26.5 -130.5t-73.5 -109t-110 -72.5t-131 -26t-130.5 26t-109 72.5t-73 109t-26.5 130.5zM122 328q0 -59 22.5 -113t62.5 -94t93.5 -63t112.5 -23t112.5 23t94 63t63 94
t22.5 113q0 44 -15 93t-56 99t-101 76t-119 26t-112.5 -23t-94 -63.5t-63 -94.5t-22.5 -113zM507 144l-92 92l-92 -92q-12 -12 -21 -12q-10 0 -21 12l-51 52q-11 11 -11 19q0 11 12 21l92 92l-92 92q-13 12 -13 22q0 8 11 19l51 52q10 11 21 11q10 0 22 -12l92 -92l92 92
q13 13 22 13q8 0 19 -11l52 -51q11 -10 11 -22q0 -10 -12 -21l-92 -92l92 -92q12 -14 12 -21q0 -10 -12 -21l-52 -51q-11 -11 -19 -11q-9 0 -21 12z" />
    <glyph glyph-name="uniFB01" unicode="fi" horiz-adv-x="593" 
d="M419 62v362h-232v-362h72v-62h-217v62h72v362h-79v62h79v24q0 81 42 124t121 43h215v-63h-211q-94 0 -94 -99v-29h305v-424h72v-62h-217v62h72z" />
    <glyph glyph-name="uniFB02" unicode="fl" horiz-adv-x="592" 
d="M419 62v552h-138q-94 0 -94 -99v-29h119v-62h-119v-362h72v-62h-217v62h72v362h-79v62h79v24q0 81 42 124t121 43h215v-615h72v-62h-217v62h72z" />
    <glyph glyph-name=".notdef" horiz-adv-x="829" 
d="M74 328q0 86 42.5 164t122.5 126.5t175 48.5q86 0 164.5 -42.5t127 -122t48.5 -174.5q0 -68 -26.5 -130.5t-73.5 -109t-110 -72.5t-131 -26t-130.5 26t-109 72.5t-73 109t-26.5 130.5zM122 328q0 -59 22.5 -113t62.5 -94t93.5 -63t112.5 -23t112.5 23t94 63t63 94
t22.5 113q0 44 -15 93t-56 99t-101 76t-119 26t-112.5 -23t-94 -63.5t-63 -94.5t-22.5 -113zM507 144l-92 92l-92 -92q-12 -12 -21 -12q-10 0 -21 12l-51 52q-11 11 -11 19q0 11 12 21l92 92l-92 92q-13 12 -13 22q0 8 11 19l51 52q10 11 21 11q10 0 22 -12l92 -92l92 92
q13 13 22 13q8 0 19 -11l52 -51q11 -10 11 -22q0 -10 -12 -21l-92 -92l92 -92q12 -14 12 -21q0 -10 -12 -21l-52 -51q-11 -11 -19 -11q-9 0 -21 12z" />
    <glyph glyph-name=".null" horiz-adv-x="0" 
 />
    <glyph glyph-name="uni000D" unicode="&#xd;" horiz-adv-x="0" 
 />
    <glyph glyph-name="glyph400" horiz-adv-x="0" 
 />
    <glyph glyph-name="glyph400" horiz-adv-x="0" 
 />
    <glyph glyph-name="space" unicode=" " horiz-adv-x="216" 
 />
    <glyph glyph-name="exclam" unicode="!" horiz-adv-x="247" 
d="M162 489l-16 -321h-45l-16 321v168h77v-168zM73 40q0 21 15 36t36 15t35.5 -15t14.5 -36t-14.5 -35.5t-35.5 -14.5t-36 14.5t-15 35.5z" />
    <glyph glyph-name="quotedbl" unicode="&#x22;" horiz-adv-x="308" 
d="M179 657h72v-71q0 -37 -9 -106l-7 -53h-40l-6 53q-4 20 -7 53.5t-3 52.5v71zM57 657h72v-71q0 -19 -3 -52.5t-7 -53.5l-6 -53h-40l-6 53q-4 20 -7 53.5t-3 52.5v71z" />
    <glyph glyph-name="numbersign" unicode="#" horiz-adv-x="639" 
d="M259 433l-39 -209h161l38 209h-160zM523 657l-31 -168h109v-56h-120l-39 -209h129v-56h-139l-31 -168h-62l31 168h-161l-31 -168h-61l31 168h-109v56h120l38 209h-128v56h139l31 168h61l-31 -168h161l31 168h62z" />
    <glyph glyph-name="dollar" unicode="$" horiz-adv-x="498" 
d="M278 -108h-59v102q-64 9 -104 53v-47h-67v188h70v-21q0 -48 34.5 -80t96.5 -32q31 0 61 11.5t49.5 40t19.5 65.5t-19.5 66t-82.5 56l-91 39q-129 55 -129 165q0 49 22.5 85t58 56.5t81.5 25.5v100h59v-102q28 -5 53.5 -19t41.5 -33v46h66v-184h-69v17q0 35 -18.5 63
t-47 39t-55.5 11q-26 0 -54.5 -9.5t-46.5 -33.5t-18 -56t18.5 -57.5t48.5 -37.5l106 -45q78 -32 114.5 -74.5t36.5 -108.5q0 -79 -48 -130.5t-128 -58.5v-100z" />
    <glyph glyph-name="percent" unicode="%" horiz-adv-x="601" 
d="M260 561v-128q0 -35 -17 -60.5t-42.5 -35t-47.5 -9.5t-47.5 9.5t-42.5 35t-17 60.5v128q0 48 28.5 76.5t78.5 28.5q22 0 47.5 -9.5t42.5 -35t17 -60.5zM272 329l192 328h66l-198 -329l-192 -328h-66zM103 562v-130q0 -23 13.5 -38t36.5 -15t36.5 15t13.5 38v130
q0 24 -13.5 38.5t-36.5 14.5t-36.5 -14.5t-13.5 -38.5zM556 224v-128q0 -35 -17 -60.5t-42.5 -35t-47.5 -9.5t-47.5 9.5t-42.5 35t-17 60.5v128q0 48 28.5 76.5t78.5 28.5q22 0 47.5 -9.5t42.5 -35t17 -60.5zM399 225v-130q0 -23 13.5 -38t36.5 -15t36.5 15t13.5 38v130
q0 24 -13.5 38.5t-36.5 14.5t-36.5 -14.5t-13.5 -38.5z" />
    <glyph glyph-name="ampersand" unicode="&#x26;" horiz-adv-x="634" 
d="M235 55q83 0 136 75l-142 174q-44 -11 -73 -34t-38.5 -48.5t-9.5 -46.5q0 -55 33 -87.5t94 -32.5zM477 0l-68 83q-34 -43 -74.5 -64.5t-69 -25t-39.5 -3.5q-89 0 -142.5 46.5t-53.5 130.5q0 65 43 112t120 70l-14 17q-23 30 -40.5 68t-17.5 77q0 71 46.5 113.5
t120.5 42.5t118.5 -45t44.5 -122v-17h-71v20q0 44 -24.5 72.5t-68.5 28.5t-68.5 -26.5t-24.5 -67.5q0 -55 47 -111l167 -207l82 168h99v-64h-61l-79 -155l62 -77h78v-64h-112z" />
    <glyph glyph-name="quotesingle" unicode="'" horiz-adv-x="188" 
d="M57 657h74v-71q0 -37 -9 -106l-7 -53h-42l-6 53q-4 20 -7 53.5t-3 52.5v71z" />
    <glyph glyph-name="parenleft" unicode="(" horiz-adv-x="289" 
d="M249 -44h10v-67h-9q-85 0 -130 46t-45 130v524q0 84 45 130t130 46h9v-67h-10q-27 0 -50 -10t-35.5 -35t-12.5 -60v-532q0 -35 12.5 -60t35.5 -35t50 -10z" />
    <glyph glyph-name="parenright" unicode=")" horiz-adv-x="289" 
d="M30 -44h10q27 0 50 10t35.5 35t12.5 60v532q0 35 -12.5 60t-35.5 35t-50 10h-10v67h9q85 0 130 -46t45 -130v-524q0 -84 -45 -130t-130 -46h-9v67z" />
    <glyph glyph-name="asterisk" unicode="*" horiz-adv-x="412" 
d="M235 386v-36h-57v36l10 86l-69 -51l-31 -18l-29 49l31 18l80 34l-80 34l-31 18l29 50l31 -18l70 -53l-11 86v36h57v-36l-11 -85l69 52l31 18l29 -50l-31 -18l-80 -34l81 -34l31 -18l-29 -49l-31 18l-70 51z" />
    <glyph glyph-name="plus" unicode="+" horiz-adv-x="473" 
d="M271 506v-145h156v-66h-156v-145h-70v145h-155v66h155v145h70z" />
    <glyph glyph-name="comma" unicode="," horiz-adv-x="207" 
d="M86 -96l-34 21q27 42 38 70q-15 4 -26.5 16t-11.5 31q0 20 14.5 34.5t35.5 14.5t36 -14.5t15 -34.5q0 -58 -67 -138z" />
    <glyph glyph-name="hyphen" unicode="-" horiz-adv-x="363" 
d="M64 229v66h235v-66h-235z" />
    <glyph glyph-name="period" unicode="." horiz-adv-x="202" 
d="M50 40q0 21 15 36t36 15t35.5 -15t14.5 -36t-14.5 -35.5t-35.5 -14.5t-36 14.5t-15 35.5z" />
    <glyph glyph-name="slash" unicode="/" horiz-adv-x="409" 
d="M314 765h74l-295 -876h-73z" />
    <glyph glyph-name="zero" unicode="0" horiz-adv-x="531" 
d="M470 463v-269q0 -93 -56.5 -148.5t-147.5 -55.5t-148 55.5t-57 148.5v269q0 94 55.5 149t149.5 55q91 0 147.5 -55.5t56.5 -148.5zM137 465v-273q0 -57 33.5 -95t95.5 -38q22 0 44.5 6.5t43 24.5t30.5 46.5t10 55.5v273q0 27 -10 55.5t-28 44.5t-39 24.5t-51 8.5
q-62 0 -95.5 -38t-33.5 -95z" />
    <glyph glyph-name="one" unicode="1" horiz-adv-x="375" 
d="M42 591v66h195v-593h118v-64h-313v64h119v527h-119z" />
    <glyph glyph-name="two" unicode="2" horiz-adv-x="507" 
d="M452 0h-404v36q0 79 32.5 139.5t105.5 109.5l103 71q83 55 83 138q0 47 -32 75.5t-90 28.5q-57 0 -90.5 -31.5t-33.5 -79.5v-21h-74v19q0 40 14.5 74t41.5 58t64 37t80 13q90 0 144.5 -46t54.5 -126q0 -57 -29 -104.5t-82 -83.5l-123 -85q-82 -57 -87 -152h254v87h68
v-157z" />
    <glyph glyph-name="three" unicode="3" horiz-adv-x="508" 
d="M196 311v62h51q33 0 61.5 10.5t44.5 38.5t16 66q0 49 -32 79.5t-89 30.5t-89.5 -30t-32.5 -78v-18h-73v16q0 80 54.5 129.5t142.5 49.5t142 -47.5t54 -125.5q0 -53 -22 -92t-64 -59q47 -21 72 -64t25 -102q0 -85 -56.5 -136t-149.5 -51q-90 0 -146 48.5t-56 129.5v15h73
v-17q0 -34 19.5 -61t50 -37.5t58.5 -10.5q23 0 46 6t43.5 22.5t30 44t9.5 55.5q0 23 -10 52.5t-40.5 51.5t-81.5 22h-51z" />
    <glyph glyph-name="four" unicode="4" horiz-adv-x="529" 
d="M336 64v100h-310v73l289 420h97v-426h73v-67h-73v-100h76v-64h-228v64h76zM100 231h236v340z" />
    <glyph glyph-name="five" unicode="5" horiz-adv-x="500" 
d="M251 -10q-44 0 -77 10t-59 27.5t-46.5 50.5t-20.5 81v15h73v-18q0 -31 19 -55.5t49.5 -34t59.5 -9.5q62 0 95 38t33 105q0 40 -14.5 71.5t-42 48.5t-67.5 17q-72 0 -119 -43h-63v363h356v-134h-68v66h-216v-221q48 34 119 34q89 0 141.5 -55.5t52.5 -146.5
q0 -97 -56.5 -153.5t-148.5 -56.5z" />
    <glyph glyph-name="six" unicode="6" horiz-adv-x="517" 
d="M469 191q0 -93 -57 -147t-149 -54q-91 0 -146.5 58.5t-55.5 159.5v260q0 92 55.5 145.5t148.5 53.5q88 0 142 -48.5t54 -130.5v-12h-73v15q0 34 -18.5 61t-48 37.5t-56.5 10.5q-62 0 -95 -35.5t-33 -89.5v-138q24 24 60 39t80 15q33 0 66.5 -10t61.5 -33.5t46 -63
t18 -93.5zM267 325q-83 0 -130 -62v-57q0 -41 14.5 -77t45 -54.5t67.5 -18.5q62 0 94.5 37t32.5 94q0 26 -9.5 58.5t-38.5 56t-76 23.5z" />
    <glyph glyph-name="seven" unicode="7" horiz-adv-x="443" 
d="M184 0h-82l237 589h-239v-87h-67v155h390v-55z" />
    <glyph glyph-name="eight" unicode="8" horiz-adv-x="515" 
d="M453 489q0 -51 -23.5 -90t-63.5 -58q45 -20 72 -62.5t27 -99.5q0 -85 -58 -137t-150 -52q-33 0 -68.5 9t-66 31t-51.5 59.5t-21 89.5q0 57 27 99.5t72 62.5q-40 19 -64 58t-24 90q0 29 9.5 59.5t33 57t62 44t91.5 17.5q32 0 65.5 -8.5t62.5 -29.5t48.5 -56t19.5 -84z
M138 486q0 -50 29 -83.5t90 -33.5q62 0 91 33.5t29 83.5q0 51 -32 83t-88 32t-87.5 -32t-31.5 -83zM128 182q0 -26 11 -55.5t41.5 -51t76.5 -21.5q62 0 96 37t34 91q0 56 -32.5 91.5t-97.5 35.5q-64 0 -96.5 -35.5t-32.5 -91.5z" />
    <glyph glyph-name="nine" unicode="9" horiz-adv-x="518" 
d="M250 332q82 0 131 62v52q0 31 -11 68t-41.5 62t-75.5 25q-61 0 -93.5 -37t-32.5 -94q0 -41 15 -73t42 -48.5t66 -16.5zM48 466q0 46 15 83.5t43 64t66 40t83 13.5q91 0 146.5 -60t55.5 -163v-255q0 -92 -55.5 -145.5t-148.5 -53.5q-88 0 -142.5 48.5t-54.5 130.5v12h73
v-15q0 -34 18.5 -61t48 -37.5t56.5 -10.5q62 0 95.5 36t33.5 90v136q-57 -53 -140 -53q-55 0 -97 22.5t-69 67.5t-27 110z" />
    <glyph glyph-name="colon" unicode=":" horiz-adv-x="228" 
d="M63 448q0 21 15 36t35 15q21 0 36 -15t15 -36t-15 -35.5t-36 -14.5q-20 0 -35 14.5t-15 35.5zM63 40q0 21 15 36t35 15q21 0 36 -15t15 -36t-15 -35.5t-36 -14.5q-20 0 -35 14.5t-15 35.5z" />
    <glyph glyph-name="semicolon" unicode=";" horiz-adv-x="233" 
d="M66 448q0 21 15 36t35 15q21 0 36 -15t15 -36t-15 -35.5t-36 -14.5q-20 0 -35 14.5t-15 35.5zM100 -96l-34 21q27 42 38 70q-15 4 -26.5 16t-11.5 31q0 20 15 34.5t35 14.5q21 0 36 -14.5t15 -34.5q0 -58 -67 -138z" />
    <glyph glyph-name="less" unicode="&#x3c;" horiz-adv-x="466" 
d="M43 294v64l358 139v-68l-269 -101l269 -103v-70z" />
    <glyph glyph-name="equal" unicode="=" horiz-adv-x="506" 
d="M64 392v66h378v-66h-378zM64 201v66h378v-66h-378z" />
    <glyph glyph-name="greater" unicode="&#x3e;" horiz-adv-x="466" 
d="M423 356v-64l-358 -139v68l269 101l-269 103v70z" />
    <glyph glyph-name="question" unicode="?" horiz-adv-x="458" 
d="M247 168h-62v49q0 37 17 72t77 91q45 43 58 67.5t13 52.5q0 44 -31.5 71t-86.5 27q-31 0 -60.5 -11t-48.5 -38t-19 -62v-24h-73v22q0 40 14.5 74t41.5 58t65 37t82 13q53 0 99.5 -20t70.5 -59.5t24 -86.5q0 -36 -18.5 -73.5t-77.5 -93.5q-6 -6 -21.5 -20t-24.5 -23
t-17.5 -20.5t-15 -29t-6.5 -41.5v-32zM166 40q0 21 14.5 35.5t35.5 14.5t35.5 -14.5t14.5 -35.5t-14.5 -35.5t-35.5 -14.5t-35.5 14.5t-14.5 35.5z" />
    <glyph glyph-name="at" unicode="@" horiz-adv-x="793" 
d="M231 186l17 94q5 32 20 65.5t45 56t74 22.5q36 0 64 -15t41 -40l17 47h48l-46 -266q-19 -105 77 -105q46 0 66.5 35.5t20.5 99.5v140q0 107 -75.5 171.5t-204.5 64.5q-128 0 -204 -64.5t-76 -171.5v-177q0 -107 76 -171.5t204 -64.5h87v-60h-87q-80 0 -144.5 21.5
t-108.5 62t-67 98t-23 126.5v153q0 70 22 127t65.5 97.5t108.5 62t147 21.5q80 0 145 -21.5t109 -62t67 -98t23 -126.5v-116q0 -66 -17 -110t-50.5 -68t-85.5 -24q-59 0 -95.5 28.5t-39.5 79.5q-20 -28 -47.5 -43.5t-59.5 -15.5q-64 0 -94.5 40.5t-18.5 106.5zM361 92
q35 0 60.5 25t32.5 62l18 104q5 27 -5.5 48.5t-31.5 30t-41 8.5q-33 0 -54.5 -25t-28.5 -64l-18 -100q-5 -29 3 -50.5t26.5 -30t38.5 -8.5z" />
    <glyph glyph-name="A" unicode="A" horiz-adv-x="611" 
d="M397 263l-94 295l-94 -295h188zM209 64v-64h-205v64h69l194 593h77l195 -593h69v-64h-211v64h63l-44 136h-226l-44 -136h63z" />
    <glyph glyph-name="B" unicode="B" horiz-adv-x="601" 
d="M124 64v529h-76v64h289q31 0 65.5 -8t64 -28t50 -53.5t20.5 -80.5q0 -53 -26 -91t-73 -56v-1q54 -17 84.5 -58t30.5 -101q0 -50 -25 -93t-72.5 -65t-100.5 -22h-307v64h76zM331 593h-131v-224h134q27 0 56.5 10t49 38t19.5 67q0 23 -11.5 49t-43 43t-73.5 17zM350 304
h-150v-240h146q59 0 93.5 32.5t34.5 86.5q0 26 -11 54.5t-41 47.5t-72 19z" />
    <glyph glyph-name="C" unicode="C" horiz-adv-x="545" 
d="M496 189q0 -33 -10.5 -68t-36 -64t-67.5 -48t-101 -19q-48 0 -88.5 14.5t-69.5 42t-45 67t-16 86.5v257q0 96 57.5 153t153.5 57q50 0 89 -17t64 -48v55h68v-204h-67v17q0 25 -9.5 49.5t-28.5 42t-46.5 27t-61.5 9.5q-41 0 -75 -17.5t-50.5 -51t-16.5 -70.5v-261
q0 -27 11.5 -60t46 -56t83.5 -23q50 0 83.5 20.5t46 51t12.5 56.5v23h74v-21z" />
    <glyph glyph-name="D" unicode="D" horiz-adv-x="617" 
d="M124 64v529h-76v64h287q101 0 162 -58.5t61 -156.5v-227q0 -98 -61 -156.5t-162 -58.5h-287v64h76zM335 588h-135v-519h135q69 0 107.5 40t38.5 104v231q0 64 -38.5 104t-107.5 40z" />
    <glyph glyph-name="E" unicode="E" 
d="M124 64v529h-76v64h453v-152h-68v83h-233v-219h259v-67h-259v-233h242v84h68v-153h-462v64h76z" />
    <glyph glyph-name="F" unicode="F" horiz-adv-x="540" 
d="M124 64v529h-76v64h458v-153h-68v84h-238v-236h264v-68h-264v-220h94v-64h-246v64h76z" />
    <glyph glyph-name="G" unicode="G" horiz-adv-x="553" 
d="M494 189q0 -91 -58.5 -145t-154.5 -54q-97 0 -158 57.5t-61 152.5v257q0 96 57.5 153t152.5 57q48 0 87.5 -16.5t64.5 -46.5v53h68v-194h-66v17q0 38 -22 67t-55.5 40t-66.5 11q-66 0 -104.5 -39t-38.5 -100v-261q0 -37 16.5 -70.5t50.5 -51t74 -17.5q42 0 76 16
t50.5 46.5t16.5 65.5v72h-123v62h194v-132z" />
    <glyph glyph-name="H" unicode="H" horiz-adv-x="663" 
d="M463 64v237h-263v-237h76v-64h-228v64h76v529h-76v64h228v-64h-76v-223h263v223h-76v64h228v-64h-76v-529h76v-64h-228v64h76z" />
    <glyph glyph-name="I" unicode="I" horiz-adv-x="324" 
d="M124 64v529h-76v64h228v-64h-76v-529h76v-64h-228v64h76z" />
    <glyph glyph-name="J" unicode="J" horiz-adv-x="515" 
d="M481 657v-64h-76v-413q0 -32 -9 -65t-35 -64t-66 -46t-81 -15q-85 0 -138.5 52t-53.5 138v24h75v-26q0 -51 32 -85t85 -34t84 33.5t31 85.5v415h-79v64h231z" />
    <glyph glyph-name="K" unicode="K" horiz-adv-x="615" 
d="M274 64v-64h-226v64h76v529h-76v64h225v-64h-73v-314l240 314h-64v64h209v-64h-66l-155 -203l169 -326h75v-64h-129l-168 326l-111 -145v-117h74z" />
    <glyph glyph-name="L" unicode="L" horiz-adv-x="516" 
d="M124 64v529h-76v64h230v-64h-78v-524h225v87h68v-156h-445v64h76z" />
    <glyph glyph-name="M" unicode="M" horiz-adv-x="724" 
d="M269 64v-64h-221v64h76v529h-76v64h143l173 -342l171 342h141v-64h-76v-529h76v-64h-225v64h76v436l-143 -283h-46l-145 287v-440h76z" />
    <glyph glyph-name="N" unicode="N" horiz-adv-x="654" 
d="M124 64v529h-76v64h144l280 -500v436h-76v64h223v-64h-76v-593h-63l-285 508v-444h75v-64h-222v64h76z" />
    <glyph glyph-name="O" unicode="O" horiz-adv-x="564" 
d="M502 457v-257q0 -47 -14 -81.5t-37 -61t-66 -47t-103 -20.5q-48 0 -88.5 14.5t-70 42t-45.5 67t-16 86.5v257q0 96 60 153t160 57q48 0 88.5 -14.5t70 -42t45.5 -67t16 -86.5zM139 459v-261q0 -61 38 -100t105 -39t105 39t38 100v261q0 61 -38 100t-105 39t-105 -39
t-38 -100z" />
    <glyph glyph-name="P" unicode="P" horiz-adv-x="575" 
d="M124 64v529h-76v64h277q35 0 67.5 -8.5t59 -24.5t46.5 -38.5t34.5 -57t14.5 -80.5q0 -95 -62.5 -154t-159.5 -59h-125v-171h94v-64h-246v64h76zM320 590h-120v-288h120q68 0 108.5 40t40.5 105t-40.5 104t-108.5 39z" />
    <glyph glyph-name="Q" unicode="Q" horiz-adv-x="562" 
d="M500 457v-257q0 -63 -29.5 -111.5t-79.5 -74.5l102 -147h-92l-85 126q-18 -3 -35 -3q-97 0 -158 57.5t-61 152.5v257q0 96 59.5 153t159.5 57q48 0 88.5 -14.5t69.5 -42t45 -67t16 -86.5zM139 459v-261q0 -27 11.5 -60t46 -56t84.5 -23q67 0 105 39t38 100v261
q0 61 -38 100t-105 39q-41 0 -75 -17.5t-50.5 -51t-16.5 -70.5z" />
    <glyph glyph-name="R" unicode="R" horiz-adv-x="618" 
d="M320 590h-120v-265h120q68 0 108.5 37t40.5 98q0 59 -40.5 94.5t-108.5 35.5zM124 64v529h-76v64h278q35 0 72.5 -9t74.5 -35.5t55.5 -67.5t18.5 -84q0 -31 -11 -67.5t-41 -68t-71 -47.5l95 -214h73v-64h-130l-113 260l-27 -1h-122v-195h74v-64h-226v64h76z" />
    <glyph glyph-name="S" unicode="S" horiz-adv-x="527" 
d="M272 -10q-48 0 -88 16.5t-65 46.5v-53h-68v191h68v-20q0 -51 38.5 -83.5t104.5 -32.5q50 0 83.5 19.5t45.5 47t12 51.5q0 36 -18 60.5t-43.5 38t-50.5 23.5l-95 38q-135 54 -135 165q0 74 54.5 121.5t140.5 47.5q44 0 80.5 -16t60.5 -45v51h65v-187h-67v16q0 23 -11 50
t-42.5 47t-78.5 20q-60 0 -94.5 -27.5t-34.5 -71.5q0 -33 21 -58t56 -38l108 -44q83 -32 121 -74t38 -109q0 -86 -57 -138.5t-149 -52.5z" />
    <glyph glyph-name="T" unicode="T" horiz-adv-x="529" 
d="M226 64v524h-130v-86h-67v155h472v-155h-68v86h-131v-524h79v-64h-233v64h78z" />
    <glyph glyph-name="U" unicode="U" horiz-adv-x="640" 
d="M608 657v-64h-76v-393q0 -47 -15.5 -86.5t-43.5 -67t-67.5 -42t-85.5 -14.5q-94 0 -153 57.5t-59 152.5v393h-76v64h228v-64h-75v-395q0 -28 12 -61.5t44 -55.5t79 -22t79.5 22t44.5 55.5t12 61.5v395h-75v64h227z" />
    <glyph glyph-name="V" unicode="V" horiz-adv-x="584" 
d="M575 593h-67l-176 -593h-79l-177 593h-67v64h210v-64h-63l139 -476l138 476h-63v64h205v-64z" />
    <glyph glyph-name="W" unicode="W" horiz-adv-x="802" 
d="M517 0l-116 521l-116 -521h-69l-138 593h-67v64h207v-64h-65l101 -455l114 519h69l114 -521l103 457h-67v64h204v-64h-67l-138 -593h-69z" />
    <glyph glyph-name="X" unicode="X" horiz-adv-x="571" 
d="M225 0h-207v64h67l156 265l-153 264h-66v64h213v-63h-62l116 -206l116 206h-63v63h207v-64h-66l-150 -259l155 -270h67v-64h-214v63h62l-119 210l-119 -210h60v-63z" />
    <glyph glyph-name="Y" unicode="Y" horiz-adv-x="565" 
d="M399 0h-232v64h78v195l-164 334h-66v64h210v-64h-62l124 -261l124 261h-62v64h201v-64h-65l-164 -333v-196h78v-64z" />
    <glyph glyph-name="Z" unicode="Z" horiz-adv-x="495" 
d="M452 0h-412v51l307 538h-228v-85h-66v153h388v-50l-306 -539h249v86h68v-154z" />
    <glyph glyph-name="bracketleft" unicode="[" horiz-adv-x="302" 
d="M164 696v-738h108v-69h-184v876h184v-69h-108z" />
    <glyph glyph-name="backslash" unicode="\" horiz-adv-x="410" 
d="M21 765h75l294 -876h-74z" />
    <glyph glyph-name="bracketright" unicode="]" horiz-adv-x="302" 
d="M138 -42v738h-108v69h184v-876h-184v69h108z" />
    <glyph glyph-name="asciicircum" unicode="^" horiz-adv-x="382" 
d="M162 657h58l118 -267h-71l-77 183l-78 -183h-68z" />
    <glyph glyph-name="underscore" unicode="_" horiz-adv-x="607" 
d="M25 -86v56h557v-56h-557z" />
    <glyph glyph-name="grave" unicode="`" horiz-adv-x="201" 
d="M148 547l-130 102l50 50l114 -119z" />
    <glyph glyph-name="a" unicode="a" horiz-adv-x="503" 
d="M219 52q49 0 83.5 30t34.5 71v60h-115q-102 0 -102 -81q0 -36 25.5 -58t73.5 -22zM410 62h72v-62h-128l-11 54q-22 -30 -58 -47t-78 -17q-75 0 -118.5 36t-43.5 103q0 69 45.5 105t126.5 36h120v68q0 31 -15.5 55.5t-41 34t-48.5 9.5q-36 0 -61.5 -15t-34.5 -36.5
t-9 -39.5v-12h-70v7q0 26 8.5 54t29.5 51t56 38t84 15q79 0 127 -45.5t48 -121.5v-270z" />
    <glyph glyph-name="b" unicode="b" horiz-adv-x="528" 
d="M101 62v551h-72v64h146v-237q21 27 54.5 43t72.5 16q80 0 125.5 -49t45.5 -132v-147q0 -83 -45.5 -132t-125.5 -49q-42 0 -77 17.5t-56 48.5l-11 -56h-129v62h72zM175 175q0 -24 10 -52t38.5 -48t66.5 -20q52 0 81 32t29 81v153q0 49 -29 81t-81 32q-53 0 -84 -34.5
t-31 -86.5v-138z" />
    <glyph glyph-name="c" unicode="c" horiz-adv-x="466" 
d="M420 160q0 -78 -50.5 -124t-132.5 -46q-41 0 -75.5 13t-59 38t-38 60.5t-13.5 78.5v129q0 87 49 138.5t128 51.5q81 0 127 -55v45h60v-165h-61v12q0 31 -17.5 55.5t-45.5 34t-53 9.5t-52 -11.5t-44.5 -41.5t-17.5 -68v-140q0 -52 30.5 -86.5t82.5 -34.5q26 0 53 9.5
t43.5 34.5t16.5 57v15h70v-9z" />
    <glyph glyph-name="d" unicode="d" horiz-adv-x="528" 
d="M238 55q38 0 66.5 20t38.5 48t10 52v138q0 52 -31 86.5t-84 34.5q-52 0 -81 -32t-29 -81v-153q0 -49 29 -81t81 -32zM427 62h72v-62h-129l-11 56q-21 -31 -56 -48.5t-77 -17.5q-80 0 -125.5 49t-45.5 132v147q0 83 45.5 132t125.5 49q39 0 72 -15.5t55 -43.5v173h-71v64
h145v-615z" />
    <glyph glyph-name="e" unicode="e" horiz-adv-x="467" 
d="M349 163h70v-7q0 -76 -50 -121t-132 -45q-84 0 -135 49.5t-51 132.5v137q0 43 13.5 78.5t38 60.5t59 38t75.5 13q81 0 131.5 -51.5t50.5 -138.5v-74h-295v-70q0 -50 30.5 -82.5t82.5 -32.5q25 0 52 10t43.5 35t16.5 57v11zM124 316v-24h225v24q0 53 -30.5 88t-81.5 35
q-52 0 -82.5 -35t-30.5 -88z" />
    <glyph glyph-name="f" unicode="f" horiz-adv-x="339" 
d="M114 62v362h-79v62h79v24q0 81 42 124t121 43h42v-63h-38q-94 0 -94 -99v-29h126v-62h-126v-362h88v-62h-233v62h72z" />
    <glyph glyph-name="g" unicode="g" horiz-adv-x="526" 
d="M236 73q25 0 52.5 11.5t45.5 41t18 67.5v120q0 52 -31.5 86.5t-84.5 34.5q-51 0 -80 -32t-29 -81v-135q0 -49 29 -81t80 -32zM497 489v-65h-72v-451q0 -79 -50 -124.5t-133 -45.5q-81 0 -131 40t-50 106v5h71v-10q0 -34 29 -57.5t81 -23.5q51 0 80.5 29.5t29.5 76.5v97
q-22 -28 -55.5 -43t-72.5 -15q-80 0 -125.5 49t-45.5 131v130q0 83 45.5 132t125.5 49q42 0 77 -17.5t57 -48.5l11 56h128z" />
    <glyph glyph-name="h" unicode="h" horiz-adv-x="563" 
d="M397 62v259q0 35 -16 63t-42 39t-50 11q-51 0 -82.5 -35t-31.5 -86v-251h69v-62h-215v62h72v551h-72v64h146v-237q21 28 54.5 43.5t72.5 15.5q79 0 124 -48.5t45 -130.5v-258h71v-62h-214v62h69z" />
    <glyph glyph-name="i" unicode="i" horiz-adv-x="286" 
d="M94 628q0 21 14 35.5t35 14.5t35 -14.5t14 -35.5t-14 -35t-35 -14t-35 14t-14 35zM112 62v362h-72v65h145v-427h72v-62h-217v62h72z" />
    <glyph glyph-name="j" unicode="j" horiz-adv-x="257" 
d="M83 628q0 21 14 35.5t35 14.5t35.5 -14.5t14.5 -35.5t-14.5 -35t-35.5 -14t-35 14t-14 35zM176 489v-509q0 -87 -46 -132t-129 -45h-27v63h23q52 0 78.5 29t26.5 80v449h-74v65h148z" />
    <glyph glyph-name="k" unicode="k" horiz-adv-x="537" 
d="M175 677v-439l180 189h-60v62h205v-63h-63l-123 -128l140 -236h67v-62h-116l-145 248l-85 -88v-98h68v-62h-214v62h72v552h-72v63h146z" />
    <glyph glyph-name="l" unicode="l" horiz-adv-x="276" 
d="M101 62v551h-72v64h146v-615h71v-62h-217v62h72z" />
    <glyph glyph-name="m" unicode="m" horiz-adv-x="858" 
d="M692 62v259q0 35 -15.5 63t-40.5 39t-49 11q-36 0 -64 -19.5t-38 -46.5t-10 -49v-257h68v-62h-209v62h68v259q0 35 -15.5 63t-40.5 39t-49 11q-23 0 -50 -11.5t-44.5 -40.5t-17.5 -65v-255h68v-62h-213v62h72v362h-72v65h128l10 -58q22 32 56 50t76 18q52 0 90 -23
t57 -65q19 41 57 64.5t86 23.5q78 0 121.5 -48.5t43.5 -130.5v-258h72v-62h-213v62h68z" />
    <glyph glyph-name="n" unicode="n" horiz-adv-x="570" 
d="M404 62v259q0 35 -15.5 63t-41 39t-49.5 11t-51 -11.5t-44.5 -41.5t-17.5 -68v-251h69v-62h-214v62h72v362h-72v65h128l11 -58q22 32 56 50t76 18q78 0 122 -48.5t44 -130.5v-258h72v-62h-214v62h69z" />
    <glyph glyph-name="o" unicode="o" horiz-adv-x="477" 
d="M426 309v-129q0 -32 -9 -65t-31 -60.5t-59 -46t-88 -18.5q-84 0 -136 51.5t-52 138.5v129q0 87 52 138.5t136 51.5q41 0 75.5 -13t59.5 -38t38.5 -60.5t13.5 -78.5zM124 314v-140q0 -53 31 -87t84 -34t83.5 34.5t30.5 86.5v140q0 52 -30.5 86.5t-83.5 34.5t-84 -34
t-31 -87z" />
    <glyph glyph-name="p" unicode="p" horiz-adv-x="528" 
d="M290 434q-53 0 -84 -34.5t-31 -86.5v-138q0 -24 10 -52t38.5 -48t66.5 -20q52 0 81 32t29 81v153q0 49 -29 81t-81 32zM101 -125v549h-72v65h129l11 -57q21 31 56 49t77 18q80 0 125.5 -49t45.5 -132v-147q0 -83 -45.5 -132t-125.5 -49q-39 0 -72.5 15.5t-54.5 43.5v-174
h72v-62h-218v62h72z" />
    <glyph glyph-name="q" unicode="q" horiz-adv-x="528" 
d="M353 -125v174q-21 -28 -54.5 -43.5t-72.5 -15.5q-80 0 -125.5 49t-45.5 132v147q0 83 45.5 132t125.5 49q42 0 77 -18t56 -49l11 57h129v-65h-72v-549h72v-62h-218v62h72zM353 313q0 52 -31 86.5t-84 34.5q-52 0 -81 -32t-29 -81v-153q0 -49 29 -81t81 -32q38 0 66.5 20
t38.5 48t10 52v138z" />
    <glyph glyph-name="r" unicode="r" horiz-adv-x="356" 
d="M112 62v362h-72v65h128l12 -62q20 33 54.5 52.5t75.5 19.5l24 -2v-70l-30 3q-53 0 -86 -32.5t-33 -85.5v-250h88v-62h-233v62h72z" />
    <glyph glyph-name="s" unicode="s" horiz-adv-x="449" 
d="M236 -10q-39 0 -72 13t-54 36v-39h-62v151h61v-16q0 -38 32 -62.5t85 -24.5q50 0 77.5 23t27.5 59q0 29 -15.5 47t-49.5 28l-96 29q-35 10 -62 29t-39 45t-12 54q0 41 23 72.5t57.5 48t76.5 16.5q76 0 117 -46v36h60v-141h-59v12q0 25 -16.5 45.5t-42.5 28.5t-50 8
q-27 0 -51.5 -10.5t-35 -28.5t-10.5 -35q0 -47 61 -66l84 -25q46 -14 74 -31.5t43 -43t15 -63.5q0 -66 -46 -107.5t-121 -41.5z" />
    <glyph glyph-name="t" unicode="t" horiz-adv-x="325" 
d="M19 424v62h78v133h73v-133h127v-62h-127v-270q0 -41 23 -66t66 -25h38v-63h-41q-76 0 -117.5 40.5t-41.5 118.5v265h-78z" />
    <glyph glyph-name="u" unicode="u" 
d="M458 62h71v-62h-128l-11 56q-21 -31 -56 -48.5t-77 -17.5q-76 0 -119.5 47.5t-43.5 127.5v259h-72v65h145v-324q0 -48 27 -79t77 -31q24 0 51 11.5t44.5 41.5t17.5 67v249h-73v65h147v-427z" />
    <glyph glyph-name="v" unicode="v" horiz-adv-x="527" 
d="M512 424h-63l-150 -424h-71l-150 424h-63v65h197v-65h-56l111 -327l110 327h-57v65h192v-65z" />
    <glyph glyph-name="w" unicode="w" horiz-adv-x="725" 
d="M461 0l-98 366l-99 -366h-66l-119 424h-63v65h196v-65h-57l80 -313l97 378h65l97 -378l80 313h-58v65h192v-65h-63l-118 -424h-66z" />
    <glyph glyph-name="x" unicode="x" horiz-adv-x="534" 
d="M219 0h-194v62h66l131 180l-124 182h-69v65h201v-61h-50l91 -136l94 136h-55v61h196v-65h-68l-128 -175l132 -187h67v-62h-204v59h54l-97 140l-96 -140h53v-59z" />
    <glyph glyph-name="y" unicode="y" horiz-adv-x="526" 
d="M313 -187h-191v62h61l47 123l-152 426h-63v65h198v-65h-57l111 -325l110 325h-57v65h192v-65h-63l-196 -549h60v-62z" />
    <glyph glyph-name="z" unicode="z" horiz-adv-x="455" 
d="M410 0h-366v45l269 385h-199v-84h-63v143h353v-46l-270 -384h211v84h65v-143z" />
    <glyph glyph-name="braceleft" unicode="{" horiz-adv-x="318" 
d="M105 60v156q0 39 -17.5 61.5t-53.5 22.5h-9v60h9q36 0 53.5 22.5t17.5 61.5v150q0 81 44.5 126t127.5 45h12v-67h-13q-49 0 -72 -27.5t-23 -74.5v-150q0 -40 -15.5 -70t-44.5 -46q60 -34 60 -117v-155q0 -47 23 -74.5t72 -27.5h13v-67h-12q-83 0 -127.5 45t-44.5 126z
" />
    <glyph glyph-name="bar" unicode="|" horiz-adv-x="246" 
d="M158 765v-876h-70v876h70z" />
    <glyph glyph-name="braceright" unicode="}" horiz-adv-x="319" 
d="M213 216v-156q0 -81 -44.5 -126t-127.5 -45h-12v67h13q49 0 72 27.5t23 74.5v155q0 83 60 117q-29 16 -44.5 46t-15.5 70v150q0 47 -23 74.5t-72 27.5h-13v67h12q83 0 127.5 -45t44.5 -126v-150q0 -39 17.5 -61.5t53.5 -22.5h9v-60h-9q-36 0 -53.5 -22.5t-17.5 -61.5z
" />
    <glyph glyph-name="asciitilde" unicode="~" horiz-adv-x="525" 
d="M421 395l47 -28q-45 -94 -113 -94q-19 0 -38.5 7t-52.5 30q-24 15 -38.5 22.5t-31.5 7.5q-27 0 -48 -21t-43 -60l-46 29q51 113 138 113q14 0 34 -5t65 -34q24 -15 36 -21.5t25 -6.5q32 0 66 61z" />
    <glyph glyph-name="uni00A0" unicode="&#xa0;" horiz-adv-x="227" 
 />
    <glyph glyph-name="exclamdown" unicode="&#xa1;" horiz-adv-x="236" 
d="M118 398q-21 0 -36 15t-15 36t15 35.5t36 14.5t35.5 -14.5t14.5 -35.5t-14.5 -36t-35.5 -15zM140 321l16 -321v-168h-77v168l16 321h45z" />
    <glyph glyph-name="cent" unicode="&#xa2;" horiz-adv-x="471" 
d="M420 245q0 -71 -41 -115.5t-111 -52.5v-87h-62v87q-71 9 -113 59.5t-42 128.5v129q0 40 14 81.5t51.5 71.5t89.5 36v84h62v-87q25 -5 48 -18.5t39 -32.5v45h60v-165h-61v12q0 31 -17.5 55.5t-45.5 34t-53 9.5t-52 -11.5t-44.5 -41.5t-17.5 -68v-140q0 -52 30.5 -86.5
t82.5 -34.5q26 0 53 9.5t43.5 34.5t16.5 57v15h70v-9z" />
    <glyph glyph-name="sterling" unicode="&#xa3;" horiz-adv-x="554" 
d="M495 0h-451v65h64v201h-64v61h64v134q0 93 53.5 149.5t137.5 56.5q40 0 73.5 -15.5t55.5 -44.5v50h65v-204h-62v22q0 54 -33.5 89.5t-90.5 35.5q-60 0 -92 -39.5t-32 -97.5v-136h183v-61h-183v-201h244v88h68v-153z" />
    <glyph glyph-name="currency" unicode="&#xa4;" horiz-adv-x="577" 
d="M478 98l-80 85q-22 -16 -50 -25t-60 -9q-29 0 -58.5 9t-50.5 24l-79 -84l-48 47l85 81q-26 44 -26 99v9q0 27 7 53.5t19 46.5l-85 80l48 47l79 -84q21 15 50.5 24t58.5 9q30 0 59.5 -9t50.5 -24l80 84l47 -47l-85 -81q12 -19 19 -45.5t7 -53.5v-9q0 -26 -7 -52.5
t-19 -46.5l85 -81zM181 337v-14q0 -48 28.5 -78.5t78.5 -30.5q37 0 63 17.5t35.5 43.5t9.5 48v14q0 34 -16.5 61t-42 37.5t-49.5 10.5q-23 0 -48.5 -10.5t-42 -37.5t-16.5 -61z" />
    <glyph glyph-name="yen" unicode="&#xa5;" horiz-adv-x="580" 
d="M406 0h-233v64h80v106h-158v53h158v57l-10 21h-148v53h121l-119 239h-71v64h207v-64h-57l114 -239h4l115 239h-57v64h201v-64h-70l-120 -239h124v-53h-151l-10 -20v-58h161v-53h-161v-106h80v-64z" />
    <glyph glyph-name="brokenbar" unicode="&#xa6;" horiz-adv-x="250" 
d="M87 405v360h76v-360h-76zM87 -111v360h76v-360h-76z" />
    <glyph glyph-name="section" unicode="&#xa7;" horiz-adv-x="508" 
d="M451 234v-17l-259 110q-135 55 -135 167q0 77 53 125t138 48q42 0 76.5 -16t57.5 -45v51h68v-190h-67v18q0 24 -11 51.5t-41.5 47.5t-77.5 20q-43 0 -73 -16.5t-40.5 -41t-10.5 -45.5q0 -34 21 -60.5t55 -41.5l149 -64q61 -26 79 -49.5t18 -51.5zM260 -197
q-41 0 -76 15.5t-58 44.5v-50h-67v190h66v-18q0 -24 11 -51.5t41.5 -47.5t77.5 -20q43 0 73 16.5t40.5 41t10.5 45.5q0 33 -21 60t-55 42l-149 64q-60 25 -78.5 49t-18.5 52v16l259 -109q135 -55 135 -168q0 -76 -53 -124t-138 -48z" />
    <glyph glyph-name="dieresis" unicode="&#xa8;" horiz-adv-x="238" 
d="M132 607q0 18 13.5 30.5t31.5 12.5q17 0 30 -12.5t13 -30.5t-13 -31.5t-30 -13.5q-18 0 -31.5 13.5t-13.5 31.5zM18 607q0 18 13.5 30.5t31.5 12.5t30.5 -12.5t12.5 -30.5t-12.5 -31.5t-30.5 -13.5t-31.5 13.5t-13.5 31.5z" />
    <glyph glyph-name="copyright" unicode="&#xa9;" horiz-adv-x="769" 
d="M45 327q0 86 42.5 164.5t122 127t174.5 48.5q68 0 130.5 -26.5t109.5 -73.5t73.5 -109.5t26.5 -130.5t-26.5 -130.5t-73.5 -109t-109.5 -72.5t-130.5 -26t-130.5 26t-109 72.5t-73 109t-26.5 130.5zM99 327q0 -58 22 -110.5t61 -92.5t91.5 -62t110.5 -22q43 0 84 13
t75.5 36t65 61t45.5 86t15 91q0 58 -22 111t-61.5 93t-92 62.5t-109.5 22.5t-109.5 -22.5t-92 -62.5t-61.5 -93t-22 -111zM527 266q0 -62 -41 -98.5t-107 -36.5q-67 0 -108.5 40.5t-41.5 108.5v92q0 68 41 108.5t104 40.5q67 0 101 -42v33h48v-129h-57v9q0 31 -23.5 52
t-63.5 21q-39 0 -62.5 -25t-23.5 -63v-101q0 -38 24 -63.5t62 -25.5q41 0 63 21t22 53v12h63v-7z" />
    <glyph glyph-name="ordfeminine" unicode="&#xaa;" horiz-adv-x="325" 
d="M143 450q20 0 33 12.5t13 29.5v21h-43q-41 0 -41 -32q0 -14 9.5 -22.5t28.5 -8.5zM244 457h31v-45h-75l-5 23q-9 -12 -27 -20t-37 -8q-37 0 -59 18t-22 52q0 36 23.5 54.5t63.5 18.5h52v29q0 17 -11 27.5t-30 10.5t-30 -10.5t-11 -25.5v-6h-51v3q0 38 26.5 60.5
t67.5 22.5q42 0 68 -23.5t26 -63.5v-117z" />
    <glyph glyph-name="guillemotleft" unicode="&#xab;" horiz-adv-x="322" 
d="M47 233l59 165h54l-49 -165l49 -165h-54zM153 233l56 165h53l-45 -165l45 -165h-53z" />
    <glyph glyph-name="logicalnot" unicode="&#xac;" horiz-adv-x="506" 
d="M61 295v66h381v-211h-71v145h-310z" />
    <glyph glyph-name="uni00AD" unicode="&#xad;" horiz-adv-x="363" 
d="M64 229v66h235v-66h-235z" />
    <glyph glyph-name="registered" unicode="&#xae;" horiz-adv-x="503" 
d="M46 460q0 31 10.5 66t39.5 70t71.5 53t83.5 18t79 -16t67 -44.5t45 -66.5t16 -80q0 -52 -27.5 -101.5t-77.5 -76.5t-102 -27t-101.5 27t-76.5 76.5t-27 101.5zM91 460q0 -42 21 -81t59.5 -60.5t79.5 -21.5t80 21.5t60 61t21 80.5q0 68 -47.5 116.5t-113.5 48.5
t-113 -48.5t-47 -116.5zM261 536h-41v-65h41q17 0 27 9t10 24t-9.5 23.5t-27.5 8.5zM177 381v162h-27v30h115q34 0 56.5 -18.5t22.5 -49.5q0 -21 -11 -37.5t-27 -24.5l26 -62h24v-29h-60l-33 82h-43v-53h26v-29h-96v29h27z" />
    <glyph glyph-name="macron" unicode="&#xaf;" horiz-adv-x="271" 
d="M18 572v55h235v-55h-235z" />
    <glyph glyph-name="degree" unicode="&#xb0;" horiz-adv-x="398" 
d="M42 509q0 65 46 111.5t110 46.5q40 0 78.5 -21t59.5 -59t21 -78q0 -48 -27 -87t-63.5 -54.5t-68.5 -15.5q-64 0 -110 46t-46 111zM103 509q0 -19 9.5 -42.5t33.5 -41t52 -17.5q29 0 53 17.5t33.5 41t9.5 42.5t-9.5 42.5t-33.5 41t-53 17.5q-28 0 -52 -17.5t-33.5 -41
t-9.5 -42.5z" />
    <glyph glyph-name="plusminus" unicode="&#xb1;" horiz-adv-x="513" 
d="M292 528v-130h156v-58h-156v-129h-70v129h-156v58h156v130h70zM66 110v55h379v-55h-379z" />
    <glyph glyph-name="uni00B2" unicode="&#xb2;" horiz-adv-x="283" 
d="M246 480h-213v27q0 75 58 114l57 37q38 26 38 62q0 19 -12 30.5t-34 11.5q-23 0 -36 -12.5t-13 -32.5v-9h-56v9q0 20 10 42.5t36 38t60 15.5q22 0 46.5 -8t41 -30t16.5 -53q0 -60 -59 -100l-58 -39q-29 -20 -32 -53h104v41h46v-91z" />
    <glyph glyph-name="uni00B3" unicode="&#xb3;" horiz-adv-x="278" 
d="M109 628v44h24q50 0 50 46q0 21 -12.5 33t-34.5 12t-35 -12.5t-13 -32.5v-7h-55v8q0 41 29.5 68t75.5 27t74 -25t28 -64q0 -53 -39 -73q44 -22 44 -80q0 -32 -17 -55.5t-42.5 -32t-48.5 -8.5q-22 0 -47.5 8.5t-42 32t-16.5 54.5v8h55v-8q0 -20 13.5 -33t36.5 -13
q24 0 37.5 14t13.5 39q0 22 -14 36t-40 14h-24z" />
    <glyph glyph-name="acute" unicode="&#xb4;" horiz-adv-x="201" 
d="M182 649l-130 -102l-34 33l114 119z" />
    <glyph glyph-name="uni00B5" unicode="&#xb5;" horiz-adv-x="567" 
d="M465 62h71v-62h-128l-11 56q-21 -31 -56 -48.5t-77 -17.5q-30 0 -54.5 10t-40.5 26l5 -176v-37h-73v611h-72v65h145v-324q0 -48 27 -79t77 -31q37 0 64.5 19.5t38 47.5t10.5 52v250h-72v65h146v-427z" />
    <glyph glyph-name="paragraph" unicode="&#xb6;" horiz-adv-x="505" 
d="M284 592v-369h-28q-49 0 -91.5 14.5t-73.5 42.5t-48 69t-17 91q0 48 18 88.5t51 69.5t78.5 44t97.5 15h146v-768h-76v703h-57z" />
    <glyph glyph-name="periodcentered" unicode="&#xb7;" horiz-adv-x="222" 
d="M60 274q0 21 15 36t36 15t35.5 -15t14.5 -36t-14.5 -35.5t-35.5 -14.5t-36 14.5t-15 35.5z" />
    <glyph glyph-name="cedilla" unicode="&#xb8;" horiz-adv-x="235" 
d="M119 -211q-37 0 -60 19.5t-23 53.5h48q0 -31 35 -31q17 0 27 9.5t10 24.5v11q0 15 -10 25t-27 10q-20 0 -33 -18l-32 18l49 99h50l-31 -58h5q34 0 56 -21t22 -56v-7q0 -36 -24 -57.5t-62 -21.5z" />
    <glyph glyph-name="uni00B9" unicode="&#xb9;" horiz-adv-x="226" 
d="M32 759v50h114v-280h58v-48h-172v48h57v230h-57z" />
    <glyph glyph-name="ordmasculine" unicode="&#xba;" horiz-adv-x="298" 
d="M247 564v-59q0 -44 -27.5 -71t-70.5 -27q-44 0 -71 27t-27 71v59q0 44 27 71t71 27q43 0 70.5 -27t27.5 -71zM105 569v-68q0 -20 12 -33.5t32 -13.5t31.5 13.5t11.5 33.5v68q0 20 -12 33t-31 13q-20 0 -32 -13t-12 -33z" />
    <glyph glyph-name="guillemotright" unicode="&#xbb;" horiz-adv-x="322" 
d="M216 398l59 -165l-59 -165h-54l49 165l-49 165h54zM113 398l56 -165l-56 -165h-53l45 165l-45 165h53z" />
    <glyph glyph-name="onequarter" unicode="&#xbc;" horiz-adv-x="609" 
d="M286 329l192 328h66l-198 -329l-192 -328h-66zM47 607v50h114v-280h58v-48h-172v48h57v230h-57zM565 0h-121v46h33v32h-151v53l138 197h69v-203h35v-47h-35v-32h32v-46zM378 125h99v139z" />
    <glyph glyph-name="onehalf" unicode="&#xbd;" horiz-adv-x="620" 
d="M285 329l192 328h66l-198 -329l-192 -328h-66zM47 607v50h114v-280h58v-48h-172v48h57v230h-57zM573 0h-213v27q0 75 58 114l57 37q38 26 38 62q0 19 -12 30.5t-34 11.5q-23 0 -36 -12.5t-13 -32.5v-9h-56v9q0 20 10 42.5t36 38t60 15.5q22 0 46.5 -8t41 -30t16.5 -53
q0 -60 -59 -100l-58 -39q-29 -20 -32 -53h104v41h46v-91z" />
    <glyph glyph-name="threequarters" unicode="&#xbe;" horiz-adv-x="608" 
d="M284 329l192 328h66l-198 -329l-192 -328h-66zM119 481v44h24q50 0 50 46q0 21 -12.5 33t-34.5 12t-35 -12.5t-13 -32.5v-7h-55v8q0 41 29.5 68t75.5 27t74 -25t28 -64q0 -53 -39 -73q44 -22 44 -80q0 -32 -17 -55.5t-42.5 -32t-48.5 -8.5q-22 0 -47.5 8.5t-42 32
t-16.5 54.5v8h55v-8q0 -20 13.5 -33t36.5 -13q24 0 37.5 14t13.5 39q0 22 -14 36t-40 14h-24zM564 0h-121v46h33v32h-151v53l138 197h69v-203h35v-47h-35v-32h32v-46zM377 125h99v139z" />
    <glyph glyph-name="questiondown" unicode="&#xbf;" horiz-adv-x="452" 
d="M289 449q0 -21 -14.5 -35.5t-35.5 -14.5t-35.5 14.5t-14.5 35.5t14.5 35.5t35.5 14.5t35.5 -14.5t14.5 -35.5zM208 321h62v-49q0 -37 -17 -72t-77 -91q-45 -43 -58 -67.5t-13 -52.5q0 -44 31.5 -71t86.5 -27q31 0 60.5 11t48.5 38t19 62v24h73v-22q0 -40 -14.5 -74
t-41.5 -58t-65 -37t-82 -13q-53 0 -99.5 20t-70.5 59.5t-24 86.5q0 36 18.5 73.5t77.5 93.5q6 6 21.5 20t24.5 23t17.5 20.5t15 29t6.5 41.5v32z" />
    <glyph glyph-name="Agrave" unicode="&#xc0;" horiz-adv-x="611" 
d="M306 694l-130 101l50 51l114 -119zM397 263l-94 295l-94 -295h188zM209 64v-64h-205v64h69l194 593h77l195 -593h69v-64h-211v64h63l-44 136h-226l-44 -136h63z" />
    <glyph glyph-name="Aacute" unicode="&#xc1;" horiz-adv-x="611" 
d="M436 795l-130 -101l-34 33l114 119zM397 263l-94 295l-94 -295h188zM209 64v-64h-205v64h69l194 593h77l195 -593h69v-64h-211v64h63l-44 136h-226l-44 -136h63z" />
    <glyph glyph-name="Acircumflex" unicode="&#xc2;" horiz-adv-x="611" 
d="M287 844h42l102 -123l-30 -26l-95 85l-93 -84l-29 25zM397 263l-94 295l-94 -295h188zM209 64v-64h-205v64h69l194 593h77l195 -593h69v-64h-211v64h63l-44 136h-226l-44 -136h63z" />
    <glyph glyph-name="Atilde" unicode="&#xc3;" horiz-adv-x="611" 
d="M415 802h40l2 -24q0 -36 -18.5 -59t-53.5 -23q-28 0 -63 21l-41 22q-28 14 -40 14q-20 0 -31.5 -17t-11.5 -40h-40q-3 12 -3 23q0 36 23.5 60.5t60.5 24.5q26 0 57 -17l41 -22q32 -18 45 -18q33 0 33 55zM397 263l-94 295l-94 -295h188zM209 64v-64h-205v64h69l194 593
h77l195 -593h69v-64h-211v64h63l-44 136h-226l-44 -136h63z" />
    <glyph glyph-name="Adieresis" unicode="&#xc4;" horiz-adv-x="611" 
d="M319 762q0 18 13.5 30.5t31.5 12.5q17 0 30 -12.5t13 -30.5t-13 -31.5t-30 -13.5q-18 0 -31.5 13.5t-13.5 31.5zM205 762q0 18 13.5 30.5t31.5 12.5t30.5 -12.5t12.5 -30.5t-12.5 -31.5t-30.5 -13.5t-31.5 13.5t-13.5 31.5zM397 263l-94 295l-94 -295h188zM209 64v-64
h-205v64h69l194 593h77l195 -593h69v-64h-211v64h63l-44 136h-226l-44 -136h63z" />
    <glyph glyph-name="Aring" unicode="&#xc5;" horiz-adv-x="611" 
d="M306 657q23 0 37 16t14 39t-14 39t-37 16q-22 0 -36.5 -16t-14.5 -39t14.5 -39t36.5 -16zM397 263l-94 295l-94 -295h188zM209 64v-64h-205v64h69l185 565q-23 12 -36.5 34.5t-13.5 48.5q0 18 9.5 40.5t33.5 39t55 16.5q20 0 43 -9.5t39 -33.5t16 -53q0 -26 -14 -49
t-37 -35l186 -564h69v-64h-211v64h63l-44 136h-226l-44 -136h63z" />
    <glyph glyph-name="AE" unicode="&#xc6;" horiz-adv-x="837" 
d="M400 587l-156 -322h156v322zM213 64v-64h-212v64h67l294 593h415v-152h-68v83h-233v-219h274v-67h-274v-233h242v84h67v-153h-461v64h76v135h-187l-66 -135h66z" />
    <glyph glyph-name="Ccedilla" unicode="&#xc7;" horiz-adv-x="545" 
d="M268 -211q-37 0 -60 19.5t-23 53.5h48q0 -31 35 -31q17 0 27 9.5t10 24.5v11q0 15 -10 25t-27 10q-20 0 -33 -18l-32 18l40 81q-82 11 -131.5 66.5t-49.5 141.5v257q0 96 57.5 153t153.5 57q50 0 89 -17t64 -48v55h68v-204h-67v17q0 25 -9.5 49.5t-28.5 42t-46.5 27
t-61.5 9.5q-41 0 -75 -17.5t-50.5 -51t-16.5 -70.5v-261q0 -27 11.5 -60t46 -56t83.5 -23q50 0 83.5 20.5t46 51t12.5 56.5v23h74v-21q0 -89 -56 -142.5t-149 -56.5l-20 -38h5q34 0 56 -21t22 -56v-7q0 -36 -24 -57.5t-62 -21.5z" />
    <glyph glyph-name="Egrave" unicode="&#xc8;" 
d="M278 694l-130 101l50 51l114 -119zM124 64v529h-76v64h453v-152h-68v83h-233v-219h259v-67h-259v-233h242v84h68v-153h-462v64h76z" />
    <glyph glyph-name="Eacute" unicode="&#xc9;" 
d="M409 795l-130 -101l-34 33l114 119zM124 64v529h-76v64h453v-152h-68v83h-233v-219h259v-67h-259v-233h242v84h68v-153h-462v64h76z" />
    <glyph glyph-name="Ecircumflex" unicode="&#xca;" 
d="M259 844h42l102 -123l-30 -26l-95 85l-93 -84l-29 25zM124 64v529h-76v64h453v-152h-68v83h-233v-219h259v-67h-259v-233h242v84h68v-153h-462v64h76z" />
    <glyph glyph-name="Edieresis" unicode="&#xcb;" 
d="M292 762q0 18 13.5 30.5t31.5 12.5q17 0 30 -12.5t13 -30.5t-13 -31.5t-30 -13.5q-18 0 -31.5 13.5t-13.5 31.5zM178 762q0 18 13.5 30.5t31.5 12.5t30.5 -12.5t12.5 -30.5t-12.5 -31.5t-30.5 -13.5t-31.5 13.5t-13.5 31.5zM124 64v529h-76v64h453v-152h-68v83h-233v-219
h259v-67h-259v-233h242v84h68v-153h-462v64h76z" />
    <glyph glyph-name="Igrave" unicode="&#xcc;" horiz-adv-x="324" 
d="M161 694l-130 101l50 51l114 -119zM124 64v529h-76v64h228v-64h-76v-529h76v-64h-228v64h76z" />
    <glyph glyph-name="Iacute" unicode="&#xcd;" horiz-adv-x="324" 
d="M292 795l-130 -101l-34 33l114 119zM124 64v529h-76v64h228v-64h-76v-529h76v-64h-228v64h76z" />
    <glyph glyph-name="Icircumflex" unicode="&#xce;" horiz-adv-x="324" 
d="M142 844h42l102 -123l-30 -26l-95 85l-93 -84l-29 25zM124 64v529h-76v64h228v-64h-76v-529h76v-64h-228v64h76z" />
    <glyph glyph-name="Idieresis" unicode="&#xcf;" horiz-adv-x="324" 
d="M175 762q0 18 13.5 30.5t31.5 12.5q17 0 30 -12.5t13 -30.5t-13 -31.5t-30 -13.5q-18 0 -31.5 13.5t-13.5 31.5zM61 762q0 18 13.5 30.5t31.5 12.5t30.5 -12.5t12.5 -30.5t-12.5 -31.5t-30.5 -13.5t-31.5 13.5t-13.5 31.5zM124 64v529h-76v64h228v-64h-76v-529h76v-64
h-228v64h76z" />
    <glyph glyph-name="Eth" unicode="&#xd0;" horiz-adv-x="612" 
d="M124 64v239h-73v64h73v226h-76v64h284q100 0 160.5 -58.5t60.5 -156.5v-227q0 -98 -60.5 -156.5t-160.5 -58.5h-284v64h76zM332 588h-132v-221h132v-64h-132v-234h132q68 0 106.5 40t38.5 104v231q0 64 -38.5 104t-106.5 40z" />
    <glyph glyph-name="Ntilde" unicode="&#xd1;" horiz-adv-x="654" 
d="M440 802h40l2 -24q0 -36 -18.5 -59t-53.5 -23q-28 0 -63 21l-41 22q-28 14 -40 14q-20 0 -31.5 -17t-11.5 -40h-40q-3 12 -3 23q0 36 23.5 60.5t60.5 24.5q26 0 57 -17l41 -22q32 -18 45 -18q33 0 33 55zM124 64v529h-76v64h144l280 -500v436h-76v64h223v-64h-76v-593
h-63l-285 508v-444h75v-64h-222v64h76z" />
    <glyph glyph-name="Ograve" unicode="&#xd2;" horiz-adv-x="564" 
d="M281 694l-130 101l50 51l114 -119zM502 457v-257q0 -47 -14 -81.5t-37 -61t-66 -47t-103 -20.5q-48 0 -88.5 14.5t-70 42t-45.5 67t-16 86.5v257q0 96 60 153t160 57q48 0 88.5 -14.5t70 -42t45.5 -67t16 -86.5zM139 459v-261q0 -61 38 -100t105 -39t105 39t38 100v261
q0 61 -38 100t-105 39t-105 -39t-38 -100z" />
    <glyph glyph-name="Oacute" unicode="&#xd3;" horiz-adv-x="564" 
d="M412 795l-130 -101l-34 33l114 119zM502 457v-257q0 -47 -14 -81.5t-37 -61t-66 -47t-103 -20.5q-48 0 -88.5 14.5t-70 42t-45.5 67t-16 86.5v257q0 96 60 153t160 57q48 0 88.5 -14.5t70 -42t45.5 -67t16 -86.5zM139 459v-261q0 -61 38 -100t105 -39t105 39t38 100v261
q0 61 -38 100t-105 39t-105 -39t-38 -100z" />
    <glyph glyph-name="Ocircumflex" unicode="&#xd4;" horiz-adv-x="564" 
d="M262 844h42l102 -123l-30 -26l-95 85l-93 -84l-29 25zM502 457v-257q0 -47 -14 -81.5t-37 -61t-66 -47t-103 -20.5q-48 0 -88.5 14.5t-70 42t-45.5 67t-16 86.5v257q0 96 60 153t160 57q48 0 88.5 -14.5t70 -42t45.5 -67t16 -86.5zM139 459v-261q0 -61 38 -100t105 -39
t105 39t38 100v261q0 61 -38 100t-105 39t-105 -39t-38 -100z" />
    <glyph glyph-name="Otilde" unicode="&#xd5;" horiz-adv-x="564" 
d="M391 802h40l2 -24q0 -36 -18.5 -59t-53.5 -23q-28 0 -63 21l-41 22q-28 14 -40 14q-20 0 -31.5 -17t-11.5 -40h-40q-3 12 -3 23q0 36 23.5 60.5t60.5 24.5q26 0 57 -17l41 -22q32 -18 45 -18q33 0 33 55zM502 457v-257q0 -47 -14 -81.5t-37 -61t-66 -47t-103 -20.5
q-48 0 -88.5 14.5t-70 42t-45.5 67t-16 86.5v257q0 96 60 153t160 57q48 0 88.5 -14.5t70 -42t45.5 -67t16 -86.5zM139 459v-261q0 -61 38 -100t105 -39t105 39t38 100v261q0 61 -38 100t-105 39t-105 -39t-38 -100z" />
    <glyph glyph-name="Odieresis" unicode="&#xd6;" horiz-adv-x="564" 
d="M295 762q0 18 13.5 30.5t31.5 12.5q17 0 30 -12.5t13 -30.5t-13 -31.5t-30 -13.5q-18 0 -31.5 13.5t-13.5 31.5zM181 762q0 18 13.5 30.5t31.5 12.5t30.5 -12.5t12.5 -30.5t-12.5 -31.5t-30.5 -13.5t-31.5 13.5t-13.5 31.5zM502 457v-257q0 -47 -14 -81.5t-37 -61
t-66 -47t-103 -20.5q-48 0 -88.5 14.5t-70 42t-45.5 67t-16 86.5v257q0 96 60 153t160 57q48 0 88.5 -14.5t70 -42t45.5 -67t16 -86.5zM139 459v-261q0 -61 38 -100t105 -39t105 39t38 100v261q0 61 -38 100t-105 39t-105 -39t-38 -100z" />
    <glyph glyph-name="multiply" unicode="&#xd7;" horiz-adv-x="421" 
d="M56 222l106 106l-106 106l49 48l105 -106l106 106l48 -48l-106 -106l107 -106l-48 -48l-107 106l-106 -106z" />
    <glyph glyph-name="Oslash" unicode="&#xd8;" horiz-adv-x="557" 
d="M137 197q0 -41 17 -73l215 448q-36 28 -91 28q-66 0 -103.5 -39t-37.5 -101v-263zM278 57q24 0 49.5 7t48.5 26.5t33 49.5t10 57v263q0 40 -16 72l-215 -448q37 -27 90 -27zM278 -10q-32 0 -64 8t-56 22l-32 -69h-58l48 101q-26 27 -40 65.5t-14 82.5v257q0 96 59 153
t157 57q33 0 65 -8t55 -22l33 69h58l-49 -101q26 -27 40 -65.5t14 -82.5v-257q0 -35 -10.5 -71.5t-36 -67t-68 -51t-101.5 -20.5z" />
    <glyph glyph-name="Ugrave" unicode="&#xd9;" horiz-adv-x="640" 
d="M319 694l-130 101l50 51l114 -119zM608 657v-64h-76v-393q0 -47 -15.5 -86.5t-43.5 -67t-67.5 -42t-85.5 -14.5q-94 0 -153 57.5t-59 152.5v393h-76v64h228v-64h-75v-395q0 -28 12 -61.5t44 -55.5t79 -22t79.5 22t44.5 55.5t12 61.5v395h-75v64h227z" />
    <glyph glyph-name="Uacute" unicode="&#xda;" horiz-adv-x="640" 
d="M450 795l-130 -101l-34 33l114 119zM608 657v-64h-76v-393q0 -47 -15.5 -86.5t-43.5 -67t-67.5 -42t-85.5 -14.5q-94 0 -153 57.5t-59 152.5v393h-76v64h228v-64h-75v-395q0 -28 12 -61.5t44 -55.5t79 -22t79.5 22t44.5 55.5t12 61.5v395h-75v64h227z" />
    <glyph glyph-name="Ucircumflex" unicode="&#xdb;" horiz-adv-x="640" 
d="M301 844h42l102 -123l-30 -26l-95 85l-93 -84l-29 25zM608 657v-64h-76v-393q0 -47 -15.5 -86.5t-43.5 -67t-67.5 -42t-85.5 -14.5q-94 0 -153 57.5t-59 152.5v393h-76v64h228v-64h-75v-395q0 -28 12 -61.5t44 -55.5t79 -22t79.5 22t44.5 55.5t12 61.5v395h-75v64h227z
" />
    <glyph glyph-name="Udieresis" unicode="&#xdc;" horiz-adv-x="640" 
d="M333 762q0 18 13.5 30.5t31.5 12.5q17 0 30 -12.5t13 -30.5t-13 -31.5t-30 -13.5q-18 0 -31.5 13.5t-13.5 31.5zM219 762q0 18 13.5 30.5t31.5 12.5t30.5 -12.5t12.5 -30.5t-12.5 -31.5t-30.5 -13.5t-31.5 13.5t-13.5 31.5zM608 657v-64h-76v-393q0 -47 -15.5 -86.5
t-43.5 -67t-67.5 -42t-85.5 -14.5q-94 0 -153 57.5t-59 152.5v393h-76v64h228v-64h-75v-395q0 -28 12 -61.5t44 -55.5t79 -22t79.5 22t44.5 55.5t12 61.5v395h-75v64h227z" />
    <glyph glyph-name="Yacute" unicode="&#xdd;" horiz-adv-x="565" 
d="M417 795l-130 -101l-34 33l114 119zM399 0h-232v64h78v195l-164 334h-66v64h210v-64h-62l124 -261l124 261h-62v64h201v-64h-65l-164 -333v-196h78v-64z" />
    <glyph glyph-name="Thorn" unicode="&#xde;" horiz-adv-x="580" 
d="M276 0h-228v64h76v529h-76v64h228v-64h-76v-54h125q35 0 67.5 -8.5t59 -24.5t46.5 -38.5t34.5 -57t14.5 -80.5q0 -95 -62.5 -154t-159.5 -59h-125v-53h76v-64zM320 472h-120v-288h120q68 0 108.5 40t40.5 105t-40.5 104t-108.5 39z" />
    <glyph glyph-name="germandbls" unicode="&#xdf;" horiz-adv-x="536" 
d="M104 64v423q0 90 48 140t135 50q83 0 135.5 -47t52.5 -123q0 -53 -26.5 -92t-73.5 -57v-2q40 -13 68 -41t38 -62.5t10 -65.5q0 -41 -13 -72t-34.5 -54.5t-61 -42t-93.5 -18.5h-37v62h30q60 0 96.5 35t36.5 93q0 44 -19.5 76t-48.5 44.5t-58 12.5h-37v61h23
q26 0 55.5 10.5t49 39t19.5 67.5q0 37 -17 65t-44 38t-52 10q-30 0 -56 -11t-39.5 -40.5t-13.5 -70.5v-492h-149v64h76z" />
    <glyph glyph-name="agrave" unicode="&#xe0;" horiz-adv-x="503" 
d="M230 547l-130 102l50 50l114 -119zM219 52q49 0 83.5 30t34.5 71v60h-115q-102 0 -102 -81q0 -36 25.5 -58t73.5 -22zM410 62h72v-62h-128l-11 54q-22 -30 -58 -47t-78 -17q-75 0 -118.5 36t-43.5 103q0 69 45.5 105t126.5 36h120v68q0 31 -15.5 55.5t-41 34t-48.5 9.5
q-36 0 -61.5 -15t-34.5 -36.5t-9 -39.5v-12h-70v7q0 26 8.5 54t29.5 51t56 38t84 15q79 0 127 -45.5t48 -121.5v-270z" />
    <glyph glyph-name="aacute" unicode="&#xe1;" horiz-adv-x="503" 
d="M360 649l-130 -102l-34 33l114 119zM219 52q49 0 83.5 30t34.5 71v60h-115q-102 0 -102 -81q0 -36 25.5 -58t73.5 -22zM410 62h72v-62h-128l-11 54q-22 -30 -58 -47t-78 -17q-75 0 -118.5 36t-43.5 103q0 69 45.5 105t126.5 36h120v68q0 31 -15.5 55.5t-41 34t-48.5 9.5
q-36 0 -61.5 -15t-34.5 -36.5t-9 -39.5v-12h-70v7q0 26 8.5 54t29.5 51t56 38t84 15q79 0 127 -45.5t48 -121.5v-270z" />
    <glyph glyph-name="acircumflex" unicode="&#xe2;" horiz-adv-x="503" 
d="M210 697h42l102 -123l-30 -26l-95 85l-93 -84l-29 25zM219 52q49 0 83.5 30t34.5 71v60h-115q-102 0 -102 -81q0 -36 25.5 -58t73.5 -22zM410 62h72v-62h-128l-11 54q-22 -30 -58 -47t-78 -17q-75 0 -118.5 36t-43.5 103q0 69 45.5 105t126.5 36h120v68q0 31 -15.5 55.5
t-41 34t-48.5 9.5q-36 0 -61.5 -15t-34.5 -36.5t-9 -39.5v-12h-70v7q0 26 8.5 54t29.5 51t56 38t84 15q79 0 127 -45.5t48 -121.5v-270z" />
    <glyph glyph-name="atilde" unicode="&#xe3;" horiz-adv-x="503" 
d="M339 662h40l2 -24q0 -36 -18.5 -59t-53.5 -23q-25 0 -63 21l-41 22q-24 14 -40 14q-20 0 -31.5 -17t-11.5 -39h-40l-3 22q0 17 7.5 37t28 34.5t48.5 14.5q26 0 57 -17l41 -23q30 -17 45 -17q33 0 33 54zM219 52q49 0 83.5 30t34.5 71v60h-115q-102 0 -102 -81
q0 -36 25.5 -58t73.5 -22zM410 62h72v-62h-128l-11 54q-22 -30 -58 -47t-78 -17q-75 0 -118.5 36t-43.5 103q0 69 45.5 105t126.5 36h120v68q0 31 -15.5 55.5t-41 34t-48.5 9.5q-36 0 -61.5 -15t-34.5 -36.5t-9 -39.5v-12h-70v7q0 26 8.5 54t29.5 51t56 38t84 15
q79 0 127 -45.5t48 -121.5v-270z" />
    <glyph glyph-name="adieresis" unicode="&#xe4;" horiz-adv-x="503" 
d="M243 607q0 18 13.5 30.5t31.5 12.5q17 0 30 -12.5t13 -30.5t-13 -31.5t-30 -13.5q-18 0 -31.5 13.5t-13.5 31.5zM129 607q0 18 13.5 30.5t31.5 12.5t30.5 -12.5t12.5 -30.5t-12.5 -31.5t-30.5 -13.5t-31.5 13.5t-13.5 31.5zM219 52q49 0 83.5 30t34.5 71v60h-115
q-102 0 -102 -81q0 -36 25.5 -58t73.5 -22zM410 62h72v-62h-128l-11 54q-22 -30 -58 -47t-78 -17q-75 0 -118.5 36t-43.5 103q0 69 45.5 105t126.5 36h120v68q0 31 -15.5 55.5t-41 34t-48.5 9.5q-36 0 -61.5 -15t-34.5 -36.5t-9 -39.5v-12h-70v7q0 26 8.5 54t29.5 51t56 38
t84 15q79 0 127 -45.5t48 -121.5v-270z" />
    <glyph glyph-name="aring" unicode="&#xe5;" horiz-adv-x="503" 
d="M230 528q-30 0 -54.5 16.5t-34 39t-9.5 40.5t9.5 40.5t34 39t54.5 16.5t54.5 -16.5t34 -39t9.5 -40.5t-9.5 -40.5t-34 -39t-54.5 -16.5zM230 569q23 0 37 16t14 39t-14 38.5t-37 15.5q-22 0 -36.5 -15.5t-14.5 -38.5t14.5 -39t36.5 -16zM219 52q49 0 83.5 30t34.5 71v60
h-115q-102 0 -102 -81q0 -36 25.5 -58t73.5 -22zM410 62h72v-62h-128l-11 54q-22 -30 -58 -47t-78 -17q-75 0 -118.5 36t-43.5 103q0 69 45.5 105t126.5 36h120v68q0 31 -15.5 55.5t-41 34t-48.5 9.5q-36 0 -61.5 -15t-34.5 -36.5t-9 -39.5v-12h-70v7q0 26 8.5 54t29.5 51
t56 38t84 15q79 0 127 -45.5t48 -121.5v-270z" />
    <glyph glyph-name="ae" unicode="&#xe6;" horiz-adv-x="756" 
d="M47 132q0 67 45 101t126 34h122v62q0 34 -16 60.5t-42 37t-50 10.5q-23 0 -48.5 -9.5t-42 -34.5t-16.5 -56v-11h-71v6q0 76 49.5 121.5t128.5 45.5q49 0 87.5 -20.5t59.5 -57.5q21 37 60 57.5t87 20.5q29 0 60 -9t58 -31t45 -59.5t18 -90.5v-74h-295v-70
q0 -36 17.5 -64.5t44.5 -39.5t52 -11t52 10t43.5 35t16.5 57v11h69v-7q0 -76 -50 -121t-131 -45q-54 0 -95.5 24t-62.5 67q-20 -42 -62.5 -66.5t-96.5 -24.5q-75 0 -118.5 37t-43.5 105zM412 316v-24h226v24q0 53 -30.5 88t-81.5 35q-53 0 -83.5 -35t-30.5 -88zM221 52
q26 0 54 11.5t46.5 41.5t18.5 67v38h-117q-101 0 -101 -80q0 -35 25 -56.5t74 -21.5z" />
    <glyph glyph-name="ccedilla" unicode="&#xe7;" horiz-adv-x="466" 
d="M224 -211q-37 0 -60 19.5t-23 53.5h48q0 -31 35 -31q17 0 27 9.5t10 24.5v11q0 15 -10 25t-27 10q-20 0 -33 -18l-32 18l41 82q-69 11 -109 61t-40 126v129q0 87 49 138.5t128 51.5q81 0 127 -55v45h60v-165h-61v12q0 31 -17.5 55.5t-45.5 34t-53 9.5t-52 -11.5
t-44.5 -41.5t-17.5 -68v-140q0 -52 30.5 -86.5t82.5 -34.5q26 0 53 9.5t43.5 34.5t16.5 57v15h70v-9q0 -76 -47 -121.5t-126 -48.5l-20 -38h5q34 0 56 -21t22 -56v-7q0 -36 -24 -57.5t-62 -21.5z" />
    <glyph glyph-name="egrave" unicode="&#xe8;" horiz-adv-x="467" 
d="M234 547l-130 102l50 50l114 -119zM349 163h70v-7q0 -76 -50 -121t-132 -45q-84 0 -135 49.5t-51 132.5v137q0 43 13.5 78.5t38 60.5t59 38t75.5 13q81 0 131.5 -51.5t50.5 -138.5v-74h-295v-70q0 -50 30.5 -82.5t82.5 -32.5q25 0 52 10t43.5 35t16.5 57v11zM124 316v-24
h225v24q0 53 -30.5 88t-81.5 35q-52 0 -82.5 -35t-30.5 -88z" />
    <glyph glyph-name="eacute" unicode="&#xe9;" horiz-adv-x="467" 
d="M364 649l-130 -102l-34 33l114 119zM349 163h70v-7q0 -76 -50 -121t-132 -45q-84 0 -135 49.5t-51 132.5v137q0 43 13.5 78.5t38 60.5t59 38t75.5 13q81 0 131.5 -51.5t50.5 -138.5v-74h-295v-70q0 -50 30.5 -82.5t82.5 -32.5q25 0 52 10t43.5 35t16.5 57v11zM124 316
v-24h225v24q0 53 -30.5 88t-81.5 35q-52 0 -82.5 -35t-30.5 -88z" />
    <glyph glyph-name="ecircumflex" unicode="&#xea;" horiz-adv-x="467" 
d="M214 697h42l102 -123l-30 -26l-95 85l-93 -84l-29 25zM349 163h70v-7q0 -76 -50 -121t-132 -45q-84 0 -135 49.5t-51 132.5v137q0 43 13.5 78.5t38 60.5t59 38t75.5 13q81 0 131.5 -51.5t50.5 -138.5v-74h-295v-70q0 -50 30.5 -82.5t82.5 -32.5q25 0 52 10t43.5 35
t16.5 57v11zM124 316v-24h225v24q0 53 -30.5 88t-81.5 35q-52 0 -82.5 -35t-30.5 -88z" />
    <glyph glyph-name="edieresis" unicode="&#xeb;" horiz-adv-x="467" 
d="M247 607q0 18 13.5 30.5t31.5 12.5q17 0 30 -12.5t13 -30.5t-13 -31.5t-30 -13.5q-18 0 -31.5 13.5t-13.5 31.5zM133 607q0 18 13.5 30.5t31.5 12.5t30.5 -12.5t12.5 -30.5t-12.5 -31.5t-30.5 -13.5t-31.5 13.5t-13.5 31.5zM349 163h70v-7q0 -76 -50 -121t-132 -45
q-84 0 -135 49.5t-51 132.5v137q0 43 13.5 78.5t38 60.5t59 38t75.5 13q81 0 131.5 -51.5t50.5 -138.5v-74h-295v-70q0 -50 30.5 -82.5t82.5 -32.5q25 0 52 10t43.5 35t16.5 57v11zM124 316v-24h225v24q0 53 -30.5 88t-81.5 35q-52 0 -82.5 -35t-30.5 -88z" />
    <glyph glyph-name="igrave" unicode="&#xec;" horiz-adv-x="286" 
d="M128 547l-130 102l50 50l114 -119zM112 62v362h-72v65h145v-427h72v-62h-217v62h72z" />
    <glyph glyph-name="iacute" unicode="&#xed;" horiz-adv-x="286" 
d="M258 649l-130 -102l-34 33l114 119zM112 62v362h-72v65h145v-427h72v-62h-217v62h72z" />
    <glyph glyph-name="icircumflex" unicode="&#xee;" horiz-adv-x="286" 
d="M108 697h42l102 -123l-30 -26l-95 85l-93 -84l-29 25zM112 62v362h-72v65h145v-427h72v-62h-217v62h72z" />
    <glyph glyph-name="idieresis" unicode="&#xef;" horiz-adv-x="286" 
d="M141 607q0 18 13.5 30.5t31.5 12.5q17 0 30 -12.5t13 -30.5t-13 -31.5t-30 -13.5q-18 0 -31.5 13.5t-13.5 31.5zM27 607q0 18 13.5 30.5t31.5 12.5t30.5 -12.5t12.5 -30.5t-12.5 -31.5t-30.5 -13.5t-31.5 13.5t-13.5 31.5zM112 62v362h-72v65h145v-427h72v-62h-217v62h72
z" />
    <glyph glyph-name="eth" unicode="&#xf0;" horiz-adv-x="496" 
d="M238 -10q-41 0 -75.5 13t-59.5 38t-38.5 60.5t-13.5 78.5v129q0 87 48.5 138.5t128.5 51.5q41 0 73 -17.5t51 -48.5q-4 39 -15 71t-39 70l-100 -32v47l70 23q-38 40 -65 65h81q28 -26 45 -46l88 29v-48l-58 -18q31 -42 48 -90.5t17 -129.5v-194q0 -32 -9 -65t-31 -60.5
t-58.5 -46t-87.5 -18.5zM124 314v-140q0 -52 30.5 -86.5t83.5 -34.5q52 0 82.5 34.5t30.5 86.5v140q0 52 -30.5 86.5t-82.5 34.5q-53 0 -83.5 -34.5t-30.5 -86.5z" />
    <glyph glyph-name="ntilde" unicode="&#xf1;" horiz-adv-x="570" 
d="M394 662h40l2 -24q0 -36 -18.5 -59t-53.5 -23q-25 0 -63 21l-41 22q-24 14 -40 14q-20 0 -31.5 -17t-11.5 -39h-40l-3 22q0 17 7.5 37t28 34.5t48.5 14.5q26 0 57 -17l41 -23q30 -17 45 -17q33 0 33 54zM404 62v259q0 35 -15.5 63t-41 39t-49.5 11t-51 -11.5t-44.5 -41.5
t-17.5 -68v-251h69v-62h-214v62h72v362h-72v65h128l11 -58q22 32 56 50t76 18q78 0 122 -48.5t44 -130.5v-258h72v-62h-214v62h69z" />
    <glyph glyph-name="ograve" unicode="&#xf2;" horiz-adv-x="477" 
d="M238 547l-130 102l50 50l114 -119zM426 309v-129q0 -32 -9 -65t-31 -60.5t-59 -46t-88 -18.5q-84 0 -136 51.5t-52 138.5v129q0 87 52 138.5t136 51.5q41 0 75.5 -13t59.5 -38t38.5 -60.5t13.5 -78.5zM124 314v-140q0 -53 31 -87t84 -34t83.5 34.5t30.5 86.5v140
q0 52 -30.5 86.5t-83.5 34.5t-84 -34t-31 -87z" />
    <glyph glyph-name="oacute" unicode="&#xf3;" horiz-adv-x="477" 
d="M368 649l-130 -102l-34 33l114 119zM426 309v-129q0 -32 -9 -65t-31 -60.5t-59 -46t-88 -18.5q-84 0 -136 51.5t-52 138.5v129q0 87 52 138.5t136 51.5q41 0 75.5 -13t59.5 -38t38.5 -60.5t13.5 -78.5zM124 314v-140q0 -53 31 -87t84 -34t83.5 34.5t30.5 86.5v140
q0 52 -30.5 86.5t-83.5 34.5t-84 -34t-31 -87z" />
    <glyph glyph-name="ocircumflex" unicode="&#xf4;" horiz-adv-x="477" 
d="M218 697h42l102 -123l-30 -26l-95 85l-93 -84l-29 25zM426 309v-129q0 -32 -9 -65t-31 -60.5t-59 -46t-88 -18.5q-84 0 -136 51.5t-52 138.5v129q0 87 52 138.5t136 51.5q41 0 75.5 -13t59.5 -38t38.5 -60.5t13.5 -78.5zM124 314v-140q0 -53 31 -87t84 -34t83.5 34.5
t30.5 86.5v140q0 52 -30.5 86.5t-83.5 34.5t-84 -34t-31 -87z" />
    <glyph glyph-name="otilde" unicode="&#xf5;" horiz-adv-x="477" 
d="M348 662h40l2 -24q0 -36 -18.5 -59t-53.5 -23q-25 0 -63 21l-41 22q-24 14 -40 14q-20 0 -31.5 -17t-11.5 -39h-40l-3 22q0 17 7.5 37t28 34.5t48.5 14.5q26 0 57 -17l41 -23q30 -17 45 -17q33 0 33 54zM426 309v-129q0 -32 -9 -65t-31 -60.5t-59 -46t-88 -18.5
q-84 0 -136 51.5t-52 138.5v129q0 87 52 138.5t136 51.5q41 0 75.5 -13t59.5 -38t38.5 -60.5t13.5 -78.5zM124 314v-140q0 -53 31 -87t84 -34t83.5 34.5t30.5 86.5v140q0 52 -30.5 86.5t-83.5 34.5t-84 -34t-31 -87z" />
    <glyph glyph-name="odieresis" unicode="&#xf6;" horiz-adv-x="477" 
d="M251 607q0 18 13.5 30.5t31.5 12.5q17 0 30 -12.5t13 -30.5t-13 -31.5t-30 -13.5q-18 0 -31.5 13.5t-13.5 31.5zM137 607q0 18 13.5 30.5t31.5 12.5t30.5 -12.5t12.5 -30.5t-12.5 -31.5t-30.5 -13.5t-31.5 13.5t-13.5 31.5zM426 309v-129q0 -32 -9 -65t-31 -60.5t-59 -46
t-88 -18.5q-84 0 -136 51.5t-52 138.5v129q0 87 52 138.5t136 51.5q41 0 75.5 -13t59.5 -38t38.5 -60.5t13.5 -78.5zM124 314v-140q0 -53 31 -87t84 -34t83.5 34.5t30.5 86.5v140q0 52 -30.5 86.5t-83.5 34.5t-84 -34t-31 -87z" />
    <glyph glyph-name="divide" unicode="&#xf7;" horiz-adv-x="498" 
d="M201 485q0 19 14.5 33t33.5 14q18 0 32.5 -14.5t14.5 -32.5q0 -19 -14 -33.5t-33 -14.5t-33.5 14.5t-14.5 33.5zM59 296v64h381v-64h-381zM201 172q0 19 14.5 33.5t33.5 14.5t33 -14.5t14 -33.5q0 -18 -14.5 -32.5t-32.5 -14.5q-19 0 -33.5 14t-14.5 33z" />
    <glyph glyph-name="oslash" unicode="&#xf8;" horiz-adv-x="475" 
d="M123 173q0 -39 17 -68l164 313q-28 19 -67 19q-53 0 -83.5 -34.5t-30.5 -86.5v-143zM237 52q53 0 84 34t31 87v143q0 38 -16 68l-165 -313q29 -19 66 -19zM237 -10q-53 0 -94 21l-32 -60h-54l47 89q-25 25 -39 61t-14 79v129q0 43 13.5 78.5t38 60.5t59 38t75.5 13
q53 0 95 -22l32 62h54l-47 -91q25 -24 39 -60t14 -79v-129q0 -32 -9 -65t-31 -60.5t-59 -46t-88 -18.5z" />
    <glyph glyph-name="ugrave" unicode="&#xf9;" 
d="M256 547l-130 102l50 50l114 -119zM458 62h71v-62h-128l-11 56q-21 -31 -56 -48.5t-77 -17.5q-76 0 -119.5 47.5t-43.5 127.5v259h-72v65h145v-324q0 -48 27 -79t77 -31q24 0 51 11.5t44.5 41.5t17.5 67v249h-73v65h147v-427z" />
    <glyph glyph-name="uacute" unicode="&#xfa;" 
d="M386 649l-130 -102l-34 33l114 119zM458 62h71v-62h-128l-11 56q-21 -31 -56 -48.5t-77 -17.5q-76 0 -119.5 47.5t-43.5 127.5v259h-72v65h145v-324q0 -48 27 -79t77 -31q24 0 51 11.5t44.5 41.5t17.5 67v249h-73v65h147v-427z" />
    <glyph glyph-name="ucircumflex" unicode="&#xfb;" 
d="M236 697h42l102 -123l-30 -26l-95 85l-93 -84l-29 25zM458 62h71v-62h-128l-11 56q-21 -31 -56 -48.5t-77 -17.5q-76 0 -119.5 47.5t-43.5 127.5v259h-72v65h145v-324q0 -48 27 -79t77 -31q24 0 51 11.5t44.5 41.5t17.5 67v249h-73v65h147v-427z" />
    <glyph glyph-name="udieresis" unicode="&#xfc;" 
d="M269 607q0 18 13.5 30.5t31.5 12.5q17 0 30 -12.5t13 -30.5t-13 -31.5t-30 -13.5q-18 0 -31.5 13.5t-13.5 31.5zM155 607q0 18 13.5 30.5t31.5 12.5t30.5 -12.5t12.5 -30.5t-12.5 -31.5t-30.5 -13.5t-31.5 13.5t-13.5 31.5zM458 62h71v-62h-128l-11 56q-21 -31 -56 -48.5
t-77 -17.5q-76 0 -119.5 47.5t-43.5 127.5v259h-72v65h145v-324q0 -48 27 -79t77 -31q24 0 51 11.5t44.5 41.5t17.5 67v249h-73v65h147v-427z" />
    <glyph glyph-name="yacute" unicode="&#xfd;" horiz-adv-x="526" 
d="M398 649l-130 -102l-34 33l114 119zM313 -187h-191v62h61l47 123l-152 426h-63v65h198v-65h-57l111 -325l110 325h-57v65h192v-65h-63l-196 -549h60v-62z" />
    <glyph glyph-name="thorn" unicode="&#xfe;" horiz-adv-x="509" 
d="M271 434q-39 0 -67.5 -20t-39 -48.5t-10.5 -52.5v-138q0 -24 10.5 -52t39 -48t67.5 -20q52 0 81 31.5t29 81.5v153q0 48 -29.5 80.5t-80.5 32.5zM81 -125v738h-72v64h145v-237q22 28 55.5 43.5t73.5 15.5q79 0 125 -49t46 -132v-147q0 -83 -46 -132t-125 -49
q-40 0 -73.5 15t-55.5 43v-173h73v-62h-218v62h72z" />
    <glyph glyph-name="ydieresis" unicode="&#xff;" horiz-adv-x="526" 
d="M281 607q0 18 13.5 30.5t31.5 12.5q17 0 30 -12.5t13 -30.5t-13 -31.5t-30 -13.5q-18 0 -31.5 13.5t-13.5 31.5zM167 607q0 18 13.5 30.5t31.5 12.5t30.5 -12.5t12.5 -30.5t-12.5 -31.5t-30.5 -13.5t-31.5 13.5t-13.5 31.5zM313 -187h-191v62h61l47 123l-152 426h-63v65
h198v-65h-57l111 -325l110 325h-57v65h192v-65h-63l-196 -549h60v-62z" />
    <glyph glyph-name="Amacron" unicode="&#x100;" horiz-adv-x="611" 
d="M189 732v55h235v-55h-235zM397 263l-94 295l-94 -295h188zM209 64v-64h-205v64h69l194 593h77l195 -593h69v-64h-211v64h63l-44 136h-226l-44 -136h63z" />
    <glyph glyph-name="amacron" unicode="&#x101;" horiz-adv-x="503" 
d="M113 572v55h235v-55h-235zM219 52q49 0 83.5 30t34.5 71v60h-115q-102 0 -102 -81q0 -36 25.5 -58t73.5 -22zM410 62h72v-62h-128l-11 54q-22 -30 -58 -47t-78 -17q-75 0 -118.5 36t-43.5 103q0 69 45.5 105t126.5 36h120v68q0 31 -15.5 55.5t-41 34t-48.5 9.5
q-36 0 -61.5 -15t-34.5 -36.5t-9 -39.5v-12h-70v7q0 26 8.5 54t29.5 51t56 38t84 15q79 0 127 -45.5t48 -121.5v-270z" />
    <glyph glyph-name="Abreve" unicode="&#x102;" horiz-adv-x="611" 
d="M360 812h49v-19q0 -19 -9.5 -42t-34.5 -39.5t-58 -16.5q-46 0 -74 28t-28 70v19h49v-19q0 -23 14.5 -39t38.5 -16t38.5 16t14.5 39v19zM397 263l-94 295l-94 -295h188zM209 64v-64h-205v64h69l194 593h77l195 -593h69v-64h-211v64h63l-44 136h-226l-44 -136h63z" />
    <glyph glyph-name="abreve" unicode="&#x103;" horiz-adv-x="503" 
d="M283 666h49v-20q0 -19 -9.5 -42t-34.5 -39.5t-58 -16.5q-46 0 -74 28t-28 70v20h49v-20q0 -23 14.5 -39t38.5 -16t38.5 16t14.5 39v20zM219 52q49 0 83.5 30t34.5 71v60h-115q-102 0 -102 -81q0 -36 25.5 -58t73.5 -22zM410 62h72v-62h-128l-11 54q-22 -30 -58 -47
t-78 -17q-75 0 -118.5 36t-43.5 103q0 69 45.5 105t126.5 36h120v68q0 31 -15.5 55.5t-41 34t-48.5 9.5q-36 0 -61.5 -15t-34.5 -36.5t-9 -39.5v-12h-70v7q0 26 8.5 54t29.5 51t56 38t84 15q79 0 127 -45.5t48 -121.5v-270z" />
    <glyph glyph-name="Aogonek" unicode="&#x104;" horiz-adv-x="611" 
d="M555 -174q-25 -15 -57 -15q-22 0 -45.5 7.5t-38.5 27.5t-15 46q0 64 83 108h-85v64h63l-44 136h-226l-44 -136h63v-64h-205v64h69l194 593h77l195 -593h69v-64h-68q-38 -20 -57 -43.5t-19 -43.5q0 -18 13.5 -30.5t42.5 -12.5q14 0 35 3v-47zM397 263l-94 295l-94 -295
h188z" />
    <glyph glyph-name="aogonek" unicode="&#x105;" horiz-adv-x="503" 
d="M429 -174q-25 -15 -57 -15q-22 0 -45.5 7.5t-38.5 27.5t-15 46q0 64 81 108l-11 54q-22 -30 -58 -47t-78 -17q-75 0 -118.5 36t-43.5 103q0 69 45.5 105t126.5 36h120v68q0 31 -15.5 55.5t-41 34t-48.5 9.5q-36 0 -61.5 -15t-34.5 -36.5t-9 -39.5v-12h-70v7q0 26 8.5 54
t29.5 51t56 38t84 15q79 0 127 -45.5t48 -121.5v-270h72v-62h-68q-38 -20 -57 -43.5t-19 -43.5q0 -18 13.5 -30.5t42.5 -12.5q14 0 35 3v-47zM219 52q49 0 83.5 30t34.5 71v60h-115q-102 0 -102 -81q0 -36 25.5 -58t73.5 -22z" />
    <glyph glyph-name="Cacute" unicode="&#x106;" horiz-adv-x="545" 
d="M410 795l-130 -101l-34 33l114 119zM496 189q0 -33 -10.5 -68t-36 -64t-67.5 -48t-101 -19q-48 0 -88.5 14.5t-69.5 42t-45 67t-16 86.5v257q0 96 57.5 153t153.5 57q50 0 89 -17t64 -48v55h68v-204h-67v17q0 25 -9.5 49.5t-28.5 42t-46.5 27t-61.5 9.5q-41 0 -75 -17.5
t-50.5 -51t-16.5 -70.5v-261q0 -27 11.5 -60t46 -56t83.5 -23q50 0 83.5 20.5t46 51t12.5 56.5v23h74v-21z" />
    <glyph glyph-name="cacute" unicode="&#x107;" horiz-adv-x="466" 
d="M365 649l-130 -102l-34 33l114 119zM420 160q0 -78 -50.5 -124t-132.5 -46q-41 0 -75.5 13t-59 38t-38 60.5t-13.5 78.5v129q0 87 49 138.5t128 51.5q81 0 127 -55v45h60v-165h-61v12q0 31 -17.5 55.5t-45.5 34t-53 9.5t-52 -11.5t-44.5 -41.5t-17.5 -68v-140
q0 -52 30.5 -86.5t82.5 -34.5q26 0 53 9.5t43.5 34.5t16.5 57v15h70v-9z" />
    <glyph glyph-name="Ccircumflex" unicode="&#x108;" horiz-adv-x="545" 
d="M261 844h42l102 -123l-30 -26l-95 85l-93 -84l-29 25zM496 189q0 -33 -10.5 -68t-36 -64t-67.5 -48t-101 -19q-48 0 -88.5 14.5t-69.5 42t-45 67t-16 86.5v257q0 96 57.5 153t153.5 57q50 0 89 -17t64 -48v55h68v-204h-67v17q0 25 -9.5 49.5t-28.5 42t-46.5 27t-61.5 9.5
q-41 0 -75 -17.5t-50.5 -51t-16.5 -70.5v-261q0 -27 11.5 -60t46 -56t83.5 -23q50 0 83.5 20.5t46 51t12.5 56.5v23h74v-21z" />
    <glyph glyph-name="ccircumflex" unicode="&#x109;" horiz-adv-x="466" 
d="M215 697h42l102 -123l-30 -26l-95 85l-93 -84l-29 25zM420 160q0 -78 -50.5 -124t-132.5 -46q-41 0 -75.5 13t-59 38t-38 60.5t-13.5 78.5v129q0 87 49 138.5t128 51.5q81 0 127 -55v45h60v-165h-61v12q0 31 -17.5 55.5t-45.5 34t-53 9.5t-52 -11.5t-44.5 -41.5
t-17.5 -68v-140q0 -52 30.5 -86.5t82.5 -34.5q26 0 53 9.5t43.5 34.5t16.5 57v15h70v-9z" />
    <glyph glyph-name="Cdotaccent" unicode="&#x10a;" horiz-adv-x="545" 
d="M232 760q0 21 14.5 35t34.5 14t34 -14t14 -35q0 -19 -14 -33.5t-34 -14.5t-34.5 14.5t-14.5 33.5zM496 189q0 -33 -10.5 -68t-36 -64t-67.5 -48t-101 -19q-48 0 -88.5 14.5t-69.5 42t-45 67t-16 86.5v257q0 96 57.5 153t153.5 57q50 0 89 -17t64 -48v55h68v-204h-67v17
q0 25 -9.5 49.5t-28.5 42t-46.5 27t-61.5 9.5q-41 0 -75 -17.5t-50.5 -51t-16.5 -70.5v-261q0 -27 11.5 -60t46 -56t83.5 -23q50 0 83.5 20.5t46 51t12.5 56.5v23h74v-21z" />
    <glyph glyph-name="cdotaccent" unicode="&#x10b;" horiz-adv-x="466" 
d="M187 607q0 20 14.5 34.5t34.5 14.5t34 -14.5t14 -34.5t-14 -34t-34 -14t-34.5 14t-14.5 34zM420 160q0 -78 -50.5 -124t-132.5 -46q-41 0 -75.5 13t-59 38t-38 60.5t-13.5 78.5v129q0 87 49 138.5t128 51.5q81 0 127 -55v45h60v-165h-61v12q0 31 -17.5 55.5t-45.5 34
t-53 9.5t-52 -11.5t-44.5 -41.5t-17.5 -68v-140q0 -52 30.5 -86.5t82.5 -34.5q26 0 53 9.5t43.5 34.5t16.5 57v15h70v-9z" />
    <glyph glyph-name="Ccaron" unicode="&#x10c;" horiz-adv-x="545" 
d="M302 691h-42l-103 123l30 26l95 -85l93 84l29 -25zM496 189q0 -33 -10.5 -68t-36 -64t-67.5 -48t-101 -19q-48 0 -88.5 14.5t-69.5 42t-45 67t-16 86.5v257q0 96 57.5 153t153.5 57q50 0 89 -17t64 -48v55h68v-204h-67v17q0 25 -9.5 49.5t-28.5 42t-46.5 27t-61.5 9.5
q-41 0 -75 -17.5t-50.5 -51t-16.5 -70.5v-261q0 -27 11.5 -60t46 -56t83.5 -23q50 0 83.5 20.5t46 51t12.5 56.5v23h74v-21z" />
    <glyph glyph-name="ccaron" unicode="&#x10d;" horiz-adv-x="466" 
d="M257 548h-42l-103 123l30 26l95 -85l93 84l29 -25zM420 160q0 -78 -50.5 -124t-132.5 -46q-41 0 -75.5 13t-59 38t-38 60.5t-13.5 78.5v129q0 87 49 138.5t128 51.5q81 0 127 -55v45h60v-165h-61v12q0 31 -17.5 55.5t-45.5 34t-53 9.5t-52 -11.5t-44.5 -41.5t-17.5 -68
v-140q0 -52 30.5 -86.5t82.5 -34.5q26 0 53 9.5t43.5 34.5t16.5 57v15h70v-9z" />
    <glyph glyph-name="Dcaron" unicode="&#x10e;" horiz-adv-x="617" 
d="M315 691h-42l-103 123l30 26l95 -85l93 84l29 -25zM124 64v529h-76v64h287q101 0 162 -58.5t61 -156.5v-227q0 -98 -61 -156.5t-162 -58.5h-287v64h76zM335 588h-135v-519h135q69 0 107.5 40t38.5 104v231q0 64 -38.5 104t-107.5 40z" />
    <glyph glyph-name="dcaron" unicode="&#x10f;" horiz-adv-x="546" 
d="M521 677h77l-53 -132h-47zM238 55q38 0 66.5 20t38.5 48t10 52v138q0 52 -31 86.5t-84 34.5q-52 0 -81 -32t-29 -81v-153q0 -49 29 -81t81 -32zM427 62h72v-62h-129l-11 56q-21 -31 -56 -48.5t-77 -17.5q-80 0 -125.5 49t-45.5 132v147q0 83 45.5 132t125.5 49
q39 0 72 -15.5t55 -43.5v173h-71v64h145v-615z" />
    <glyph glyph-name="Dcroat" unicode="&#x110;" horiz-adv-x="612" 
d="M124 64v239h-73v64h73v226h-76v64h284q100 0 160.5 -58.5t60.5 -156.5v-227q0 -98 -60.5 -156.5t-160.5 -58.5h-284v64h76zM332 588h-132v-221h132v-64h-132v-234h132q68 0 106.5 40t38.5 104v231q0 64 -38.5 104t-106.5 40z" />
    <glyph glyph-name="dcroat" unicode="&#x111;" horiz-adv-x="528" 
d="M238 55q38 0 66.5 20t38.5 48t10 52v138q0 52 -31 86.5t-84 34.5q-52 0 -81 -32t-29 -81v-153q0 -49 29 -81t81 -32zM359 56q-21 -31 -56 -48.5t-77 -17.5q-80 0 -125.5 49t-45.5 132v147q0 83 45.5 132t125.5 49q39 0 72 -15.5t55 -43.5v87h-118v52h118v34h-71v64h145
v-98h62v-52h-62v-465h72v-62h-129z" />
    <glyph glyph-name="Emacron" unicode="&#x112;" 
d="M161 732v55h235v-55h-235zM124 64v529h-76v64h453v-152h-68v83h-233v-219h259v-67h-259v-233h242v84h68v-153h-462v64h76z" />
    <glyph glyph-name="emacron" unicode="&#x113;" horiz-adv-x="467" 
d="M117 572v55h235v-55h-235zM349 163h70v-7q0 -76 -50 -121t-132 -45q-84 0 -135 49.5t-51 132.5v137q0 43 13.5 78.5t38 60.5t59 38t75.5 13q81 0 131.5 -51.5t50.5 -138.5v-74h-295v-70q0 -50 30.5 -82.5t82.5 -32.5q25 0 52 10t43.5 35t16.5 57v11zM124 316v-24h225v24
q0 53 -30.5 88t-81.5 35q-52 0 -82.5 -35t-30.5 -88z" />
    <glyph glyph-name="Ebreve" unicode="&#x114;" 
d="M332 812h49v-19q0 -19 -9.5 -42t-34.5 -39.5t-58 -16.5q-46 0 -74 28t-28 70v19h49v-19q0 -23 14.5 -39t38.5 -16t38.5 16t14.5 39v19zM124 64v529h-76v64h453v-152h-68v83h-233v-219h259v-67h-259v-233h242v84h68v-153h-462v64h76z" />
    <glyph glyph-name="ebreve" unicode="&#x115;" horiz-adv-x="467" 
d="M287 666h49v-20q0 -19 -9.5 -42t-34.5 -39.5t-58 -16.5q-46 0 -74 28t-28 70v20h49v-20q0 -23 14.5 -39t38.5 -16t38.5 16t14.5 39v20zM349 163h70v-7q0 -76 -50 -121t-132 -45q-84 0 -135 49.5t-51 132.5v137q0 43 13.5 78.5t38 60.5t59 38t75.5 13q81 0 131.5 -51.5
t50.5 -138.5v-74h-295v-70q0 -50 30.5 -82.5t82.5 -32.5q25 0 52 10t43.5 35t16.5 57v11zM124 316v-24h225v24q0 53 -30.5 88t-81.5 35q-52 0 -82.5 -35t-30.5 -88z" />
    <glyph glyph-name="Edotaccent" unicode="&#x116;" 
d="M230 760q0 21 14.5 35t34.5 14t34 -14t14 -35q0 -19 -14 -33.5t-34 -14.5t-34.5 14.5t-14.5 33.5zM124 64v529h-76v64h453v-152h-68v83h-233v-219h259v-67h-259v-233h242v84h68v-153h-462v64h76z" />
    <glyph glyph-name="edotaccent" unicode="&#x117;" horiz-adv-x="467" 
d="M185 607q0 20 14.5 34.5t34.5 14.5t34 -14.5t14 -34.5t-14 -34t-34 -14t-34.5 14t-14.5 34zM349 163h70v-7q0 -76 -50 -121t-132 -45q-84 0 -135 49.5t-51 132.5v137q0 43 13.5 78.5t38 60.5t59 38t75.5 13q81 0 131.5 -51.5t50.5 -138.5v-74h-295v-70q0 -50 30.5 -82.5
t82.5 -32.5q25 0 52 10t43.5 35t16.5 57v11zM124 316v-24h225v24q0 53 -30.5 88t-81.5 35q-52 0 -82.5 -35t-30.5 -88z" />
    <glyph glyph-name="Eogonek" unicode="&#x118;" 
d="M449 -174q-25 -15 -57 -15q-22 0 -45.5 7.5t-38.5 27.5t-15 46q0 64 83 108h-328v64h76v529h-76v64h453v-152h-68v83h-233v-219h259v-67h-259v-233h242v84h68v-153h-76q-38 -20 -57 -43.5t-19 -43.5q0 -18 13.5 -30.5t42.5 -12.5q14 0 35 3v-47z" />
    <glyph glyph-name="eogonek" unicode="&#x119;" horiz-adv-x="467" 
d="M273 -189q-45 0 -71.5 23t-26.5 58q0 56 60 98h-4q-81 2 -130.5 51.5t-49.5 130.5v137q0 43 13.5 78.5t38 60.5t59 38t75.5 13q81 0 131.5 -51.5t50.5 -138.5v-74h-295v-70q0 -50 30.5 -82.5t82.5 -32.5q25 0 52 10t43.5 35t16.5 57v11h70v-7q0 -56 -28 -95t-76 -58
q-20 -8 -39 -24.5t-27.5 -34t-8.5 -31.5q0 -43 56 -43q14 0 35 3v-47q-25 -15 -58 -15zM124 316v-24h225v24q0 53 -30.5 88t-81.5 35q-52 0 -82.5 -35t-30.5 -88z" />
    <glyph glyph-name="Ecaron" unicode="&#x11a;" 
d="M300 691h-42l-103 123l30 26l95 -85l93 84l29 -25zM124 64v529h-76v64h453v-152h-68v83h-233v-219h259v-67h-259v-233h242v84h68v-153h-462v64h76z" />
    <glyph glyph-name="ecaron" unicode="&#x11b;" horiz-adv-x="467" 
d="M256 548h-42l-103 123l30 26l95 -85l93 84l29 -25zM349 163h70v-7q0 -76 -50 -121t-132 -45q-84 0 -135 49.5t-51 132.5v137q0 43 13.5 78.5t38 60.5t59 38t75.5 13q81 0 131.5 -51.5t50.5 -138.5v-74h-295v-70q0 -50 30.5 -82.5t82.5 -32.5q25 0 52 10t43.5 35t16.5 57
v11zM124 316v-24h225v24q0 53 -30.5 88t-81.5 35q-52 0 -82.5 -35t-30.5 -88z" />
    <glyph glyph-name="Gcircumflex" unicode="&#x11c;" horiz-adv-x="553" 
d="M258 844h42l102 -123l-30 -26l-95 85l-93 -84l-29 25zM494 189q0 -91 -58.5 -145t-154.5 -54q-97 0 -158 57.5t-61 152.5v257q0 96 57.5 153t152.5 57q48 0 87.5 -16.5t64.5 -46.5v53h68v-194h-66v17q0 38 -22 67t-55.5 40t-66.5 11q-66 0 -104.5 -39t-38.5 -100v-261
q0 -37 16.5 -70.5t50.5 -51t74 -17.5q42 0 76 16t50.5 46.5t16.5 65.5v72h-123v62h194v-132z" />
    <glyph glyph-name="gcircumflex" unicode="&#x11d;" horiz-adv-x="526" 
d="M221 697h42l102 -123l-30 -26l-95 85l-93 -84l-29 25zM236 73q25 0 52.5 11.5t45.5 41t18 67.5v120q0 52 -31.5 86.5t-84.5 34.5q-51 0 -80 -32t-29 -81v-135q0 -49 29 -81t80 -32zM497 489v-65h-72v-451q0 -79 -50 -124.5t-133 -45.5q-81 0 -131 40t-50 106v5h71v-10
q0 -34 29 -57.5t81 -23.5q51 0 80.5 29.5t29.5 76.5v97q-22 -28 -55.5 -43t-72.5 -15q-80 0 -125.5 49t-45.5 131v130q0 83 45.5 132t125.5 49q42 0 77 -17.5t57 -48.5l11 56h128z" />
    <glyph glyph-name="Gbreve" unicode="&#x11e;" horiz-adv-x="553" 
d="M331 812h49v-19q0 -19 -9.5 -42t-34.5 -39.5t-58 -16.5q-46 0 -74 28t-28 70v19h49v-19q0 -23 14.5 -39t38.5 -16t38.5 16t14.5 39v19zM494 189q0 -91 -58.5 -145t-154.5 -54q-97 0 -158 57.5t-61 152.5v257q0 96 57.5 153t152.5 57q48 0 87.5 -16.5t64.5 -46.5v53h68
v-194h-66v17q0 38 -22 67t-55.5 40t-66.5 11q-66 0 -104.5 -39t-38.5 -100v-261q0 -37 16.5 -70.5t50.5 -51t74 -17.5q42 0 76 16t50.5 46.5t16.5 65.5v72h-123v62h194v-132z" />
    <glyph glyph-name="gbreve" unicode="&#x11f;" horiz-adv-x="526" 
d="M295 666h49v-20q0 -19 -9.5 -42t-34.5 -39.5t-58 -16.5q-46 0 -74 28t-28 70v20h49v-20q0 -23 14.5 -39t38.5 -16t38.5 16t14.5 39v20zM236 73q25 0 52.5 11.5t45.5 41t18 67.5v120q0 52 -31.5 86.5t-84.5 34.5q-51 0 -80 -32t-29 -81v-135q0 -49 29 -81t80 -32zM497 489
v-65h-72v-451q0 -79 -50 -124.5t-133 -45.5q-81 0 -131 40t-50 106v5h71v-10q0 -34 29 -57.5t81 -23.5q51 0 80.5 29.5t29.5 76.5v97q-22 -28 -55.5 -43t-72.5 -15q-80 0 -125.5 49t-45.5 131v130q0 83 45.5 132t125.5 49q42 0 77 -17.5t57 -48.5l11 56h128z" />
    <glyph glyph-name="Gdotaccent" unicode="&#x120;" horiz-adv-x="553" 
d="M229 760q0 21 14.5 35t34.5 14t34 -14t14 -35q0 -19 -14 -33.5t-34 -14.5t-34.5 14.5t-14.5 33.5zM494 189q0 -91 -58.5 -145t-154.5 -54q-97 0 -158 57.5t-61 152.5v257q0 96 57.5 153t152.5 57q48 0 87.5 -16.5t64.5 -46.5v53h68v-194h-66v17q0 38 -22 67t-55.5 40
t-66.5 11q-66 0 -104.5 -39t-38.5 -100v-261q0 -37 16.5 -70.5t50.5 -51t74 -17.5q42 0 76 16t50.5 46.5t16.5 65.5v72h-123v62h194v-132z" />
    <glyph glyph-name="gdotaccent" unicode="&#x121;" horiz-adv-x="526" 
d="M193 607q0 20 14.5 34.5t34.5 14.5t34 -14.5t14 -34.5t-14 -34t-34 -14t-34.5 14t-14.5 34zM236 73q25 0 52.5 11.5t45.5 41t18 67.5v120q0 52 -31.5 86.5t-84.5 34.5q-51 0 -80 -32t-29 -81v-135q0 -49 29 -81t80 -32zM497 489v-65h-72v-451q0 -79 -50 -124.5
t-133 -45.5q-81 0 -131 40t-50 106v5h71v-10q0 -34 29 -57.5t81 -23.5q51 0 80.5 29.5t29.5 76.5v97q-22 -28 -55.5 -43t-72.5 -15q-80 0 -125.5 49t-45.5 131v130q0 83 45.5 132t125.5 49q42 0 77 -17.5t57 -48.5l11 56h128z" />
    <glyph glyph-name="Gcommaaccent" unicode="&#x122;" horiz-adv-x="553" 
d="M494 189q0 -91 -58.5 -145t-154.5 -54q-97 0 -158 57.5t-61 152.5v257q0 96 57.5 153t152.5 57q48 0 87.5 -16.5t64.5 -46.5v53h68v-194h-66v17q0 38 -22 67t-55.5 40t-66.5 11q-66 0 -104.5 -39t-38.5 -100v-261q0 -37 16.5 -70.5t50.5 -51t74 -17.5q42 0 76 16
t50.5 46.5t16.5 65.5v72h-123v62h194v-132zM253 -228l-33 20q25 37 37 68q-19 5 -27.5 18.5t-8.5 25.5q0 19 14.5 32.5t33.5 13.5q20 0 34.5 -13.5t14.5 -32.5q0 -56 -65 -132z" />
    <glyph glyph-name="gcommaaccent" unicode="&#x123;" horiz-adv-x="526" 
d="M239 553q-20 0 -34 13.5t-14 32.5q0 53 63 130l31 -19q-19 -29 -35 -68q14 -4 24.5 -14t10.5 -29t-13.5 -32.5t-32.5 -13.5zM236 73q25 0 52.5 11.5t45.5 41t18 67.5v120q0 52 -31.5 86.5t-84.5 34.5q-51 0 -80 -32t-29 -81v-135q0 -49 29 -81t80 -32zM497 489v-65h-72
v-451q0 -79 -50 -124.5t-133 -45.5q-81 0 -131 40t-50 106v5h71v-10q0 -34 29 -57.5t81 -23.5q51 0 80.5 29.5t29.5 76.5v97q-22 -28 -55.5 -43t-72.5 -15q-80 0 -125.5 49t-45.5 131v130q0 83 45.5 132t125.5 49q42 0 77 -17.5t57 -48.5l11 56h128z" />
    <glyph glyph-name="Hcircumflex" unicode="&#x124;" horiz-adv-x="663" 
d="M312 844h42l102 -123l-30 -26l-95 85l-93 -84l-29 25zM463 64v237h-263v-237h76v-64h-228v64h76v529h-76v64h228v-64h-76v-223h263v223h-76v64h228v-64h-76v-529h76v-64h-228v64h76z" />
    <glyph glyph-name="hcircumflex" unicode="&#x125;" horiz-adv-x="563" 
d="M92 845h42l102 -123l-30 -26l-95 85l-93 -84l-29 25zM397 62v259q0 35 -16 63t-42 39t-50 11q-51 0 -82.5 -35t-31.5 -86v-251h69v-62h-215v62h72v551h-72v64h146v-237q21 28 54.5 43.5t72.5 15.5q79 0 124 -48.5t45 -130.5v-258h71v-62h-214v62h69z" />
    <glyph glyph-name="Hbar" unicode="&#x126;" horiz-adv-x="663" 
d="M200 370h263v81h-263v-81zM276 64v-64h-228v64h76v387h-66v54h66v88h-76v64h228v-64h-76v-88h263v88h-76v64h228v-64h-76v-88h66v-54h-66v-387h76v-64h-228v64h76v237h-263v-237h76z" />
    <glyph glyph-name="hbar" unicode="&#x127;" horiz-adv-x="563" 
d="M244 62v-62h-215v62h72v465h-72v52h72v34h-72v64h146v-98h105v-52h-105v-87q21 28 54.5 43.5t72.5 15.5q79 0 124 -48.5t45 -130.5v-258h71v-62h-214v62h69v259q0 35 -16 63t-42 39t-50 11q-51 0 -82.5 -35t-31.5 -86v-251h69z" />
    <glyph glyph-name="Itilde" unicode="&#x128;" horiz-adv-x="324" 
d="M271 802h40l2 -24q0 -36 -18.5 -59t-53.5 -23q-28 0 -63 21l-41 22q-28 14 -40 14q-20 0 -31.5 -17t-11.5 -40h-40q-3 12 -3 23q0 36 23.5 60.5t60.5 24.5q26 0 57 -17l41 -22q32 -18 45 -18q33 0 33 55zM124 64v529h-76v64h228v-64h-76v-529h76v-64h-228v64h76z" />
    <glyph glyph-name="itilde" unicode="&#x129;" horiz-adv-x="286" 
d="M237 662h40l2 -24q0 -36 -18.5 -59t-53.5 -23q-25 0 -63 21l-41 22q-24 14 -40 14q-20 0 -31.5 -17t-11.5 -39h-40l-3 22q0 17 7.5 37t28 34.5t48.5 14.5q26 0 57 -17l41 -23q30 -17 45 -17q33 0 33 54zM112 62v362h-72v65h145v-427h72v-62h-217v62h72z" />
    <glyph glyph-name="Imacron" unicode="&#x12a;" horiz-adv-x="324" 
d="M44 732v55h235v-55h-235zM124 64v529h-76v64h228v-64h-76v-529h76v-64h-228v64h76z" />
    <glyph glyph-name="imacron" unicode="&#x12b;" horiz-adv-x="286" 
d="M11 572v55h235v-55h-235zM112 62v362h-72v65h145v-427h72v-62h-217v62h72z" />
    <glyph glyph-name="Iogonek" unicode="&#x12e;" horiz-adv-x="324" 
d="M217 -174q-25 -15 -57 -15q-22 0 -45.5 7.5t-38.5 27.5t-15 46q0 64 83 108h-96v64h76v529h-76v64h228v-64h-76v-529h76v-64h-74q-38 -20 -57 -43.5t-19 -43.5q0 -18 13.5 -30.5t42.5 -12.5q14 0 35 3v-47z" />
    <glyph glyph-name="iogonek" unicode="&#x12f;" horiz-adv-x="286" 
d="M94 628q0 21 14 35.5t35 14.5t35 -14.5t14 -35.5t-14 -35t-35 -14t-35 14t-14 35zM201 -174q-25 -15 -57 -15q-22 0 -45.5 7.5t-38.5 27.5t-15 46q0 64 83 108h-88v62h72v362h-72v65h145v-427h72v-62h-71q-38 -20 -57 -43.5t-19 -43.5q0 -18 13.5 -30.5t42.5 -12.5
q14 0 35 3v-47z" />
    <glyph glyph-name="Idotaccent" unicode="&#x130;" horiz-adv-x="324" 
d="M113 760q0 21 14.5 35t34.5 14t34 -14t14 -35q0 -19 -14 -33.5t-34 -14.5t-34.5 14.5t-14.5 33.5zM124 64v529h-76v64h228v-64h-76v-529h76v-64h-228v64h76z" />
    <glyph glyph-name="dotlessi" unicode="&#x131;" horiz-adv-x="286" 
d="M112 62v362h-72v65h145v-427h72v-62h-217v62h72z" />
    <glyph glyph-name="IJ" unicode="&#x132;" horiz-adv-x="839" 
d="M124 64v529h-76v64h228v-64h-76v-529h76v-64h-228v64h76zM805 657v-64h-76v-413q0 -32 -9 -65t-35 -64t-66 -46t-81 -15q-85 0 -138.5 52t-53.5 138v24h75v-26q0 -51 32 -85t85 -34t84 33.5t31 85.5v415h-79v64h231z" />
    <glyph glyph-name="ij" unicode="&#x133;" horiz-adv-x="543" 
d="M369 628q0 21 14 35.5t35 14.5t35.5 -14.5t14.5 -35.5t-14.5 -35t-35.5 -14t-35 14t-14 35zM94 628q0 21 14 35.5t35 14.5t35 -14.5t14 -35.5t-14 -35t-35 -14t-35 14t-14 35zM462 489v-509q0 -87 -46 -132t-129 -45h-27v63h23q52 0 78.5 29t26.5 80v449h-74v65h148z
M112 62v362h-72v65h145v-427h72v-62h-217v62h72z" />
    <glyph glyph-name="Jcircumflex" unicode="&#x134;" horiz-adv-x="515" 
d="M349 844h42l102 -123l-30 -26l-95 85l-93 -84l-29 25zM482 657v-64h-76v-413q0 -32 -9 -65t-35 -64t-66 -46t-81 -15q-85 0 -138.5 52t-53.5 138v24h75v-26q0 -51 32 -85t85 -34t84 33.5t31 85.5v415h-79v64h231z" />
    <glyph glyph-name="jcircumflex" unicode="&#x135;" horiz-adv-x="256" 
d="M89 697h42l102 -123l-30 -26l-95 85l-93 -84l-29 25zM175 489v-509q0 -85 -47 -131t-128 -46h-27v63h23q51 0 78 29t27 80v450h-72v64h146z" />
    <glyph glyph-name="Kcommaaccent" unicode="&#x136;" horiz-adv-x="615" 
d="M274 64v-64h-226v64h76v529h-76v64h225v-64h-73v-314l240 314h-64v64h209v-64h-66l-155 -203l169 -326h75v-64h-129l-168 326l-111 -145v-117h74zM297 -228l-33 20q25 37 37 68q-19 5 -27.5 18.5t-8.5 25.5q0 19 14.5 32.5t33.5 13.5q20 0 34.5 -13.5t14.5 -32.5
q0 -56 -65 -132z" />
    <glyph glyph-name="kcommaaccent" unicode="&#x137;" horiz-adv-x="537" 
d="M175 677v-439l180 189h-60v62h205v-63h-63l-123 -128l140 -236h67v-62h-116l-145 248l-85 -88v-98h68v-62h-214v62h72v552h-72v63h146zM249 -228l-33 20q25 37 37 68q-19 5 -27.5 18.5t-8.5 25.5q0 19 14.5 32.5t33.5 13.5q20 0 34.5 -13.5t14.5 -32.5q0 -56 -65 -132z
" />
    <glyph glyph-name="kgreenlandic" unicode="&#x138;" horiz-adv-x="547" 
d="M254 62v-62h-214v62h72v364h-72v63h145v-249l181 187h-60v62h205v-63h-63l-123 -128l140 -236h66v-62h-116l-145 247l-85 -86v-99h69z" />
    <glyph glyph-name="Lacute" unicode="&#x139;" horiz-adv-x="516" 
d="M293 795l-130 -101l-34 33l114 119zM124 64v529h-76v64h230v-64h-78v-524h225v87h68v-156h-445v64h76z" />
    <glyph glyph-name="lacute" unicode="&#x13a;" horiz-adv-x="276" 
d="M262 805l-130 -102l-34 33l114 119zM101 62v551h-72v64h146v-615h71v-62h-217v62h72z" />
    <glyph glyph-name="Lcommaaccent" unicode="&#x13b;" horiz-adv-x="516" 
d="M124 64v529h-76v64h230v-64h-78v-524h225v87h68v-156h-445v64h76zM245 -228l-33 20q25 37 37 68q-19 5 -27.5 18.5t-8.5 25.5q0 19 14.5 32.5t33.5 13.5q20 0 34.5 -13.5t14.5 -32.5q0 -56 -65 -132z" />
    <glyph glyph-name="lcommaaccent" unicode="&#x13c;" horiz-adv-x="276" 
d="M101 62v551h-72v64h146v-615h71v-62h-217v62h72zM112 -228l-33 20q25 37 37 68q-19 5 -27.5 18.5t-8.5 25.5q0 19 14.5 32.5t33.5 13.5q20 0 34.5 -13.5t14.5 -32.5q0 -56 -65 -132z" />
    <glyph glyph-name="Lcaron" unicode="&#x13d;" horiz-adv-x="517" 
d="M370 677h77l-53 -132h-47zM124 64v529h-76v64h230v-64h-78v-524h225v87h68v-156h-445v64h76z" />
    <glyph glyph-name="lcaron" unicode="&#x13e;" horiz-adv-x="294" 
d="M101 62v551h-72v64h146v-615h71v-62h-217v62h72zM269 677h77l-53 -132h-47z" />
    <glyph glyph-name="Ldot" unicode="&#x13f;" horiz-adv-x="518" 
d="M124 64v529h-76v64h230v-64h-78v-524h225v87h68v-156h-445v64h76zM370 331q0 21 15 36t36 15t35.5 -15t14.5 -36t-14.5 -35.5t-35.5 -14.5t-36 14.5t-15 35.5z" />
    <glyph glyph-name="ldot" unicode="&#x140;" horiz-adv-x="316" 
d="M101 62v551h-72v64h146v-615h71v-62h-217v62h72zM245 331q0 21 15 36t36 15t35.5 -15t14.5 -36t-14.5 -35.5t-35.5 -14.5t-36 14.5t-15 35.5z" />
    <glyph glyph-name="Lslash" unicode="&#x141;" horiz-adv-x="518" 
d="M495 0h-445v64h76v242l-90 -47v68l90 46v220h-76v64h230v-64h-78v-181l122 63v-67l-122 -63v-276h225v87h68v-156z" />
    <glyph glyph-name="lslash" unicode="&#x142;" horiz-adv-x="278" 
d="M246 0h-217v62h72v272l-63 -33v67l63 33v212h-72v64h146v-237l67 35v-67l-67 -35v-311h71v-62z" />
    <glyph glyph-name="Nacute" unicode="&#x143;" horiz-adv-x="654" 
d="M461 795l-130 -101l-34 33l114 119zM124 64v529h-76v64h144l280 -500v436h-76v64h223v-64h-76v-593h-63l-285 508v-444h75v-64h-222v64h76z" />
    <glyph glyph-name="nacute" unicode="&#x144;" horiz-adv-x="570" 
d="M415 649l-130 -102l-34 33l114 119zM404 62v259q0 35 -15.5 63t-41 39t-49.5 11t-51 -11.5t-44.5 -41.5t-17.5 -68v-251h69v-62h-214v62h72v362h-72v65h128l11 -58q22 32 56 50t76 18q78 0 122 -48.5t44 -130.5v-258h72v-62h-214v62h69z" />
    <glyph glyph-name="Ncommaaccent" unicode="&#x145;" horiz-adv-x="654" 
d="M124 64v529h-76v64h144l280 -500v436h-76v64h223v-64h-76v-593h-63l-285 508v-444h75v-64h-222v64h76zM308 -228l-33 20q25 37 37 68q-19 5 -27.5 18.5t-8.5 25.5q0 19 14.5 32.5t33.5 13.5q20 0 34.5 -13.5t14.5 -32.5q0 -56 -65 -132z" />
    <glyph glyph-name="ncommaaccent" unicode="&#x146;" horiz-adv-x="570" 
d="M404 62v259q0 35 -15.5 63t-41 39t-49.5 11t-51 -11.5t-44.5 -41.5t-17.5 -68v-251h69v-62h-214v62h72v362h-72v65h128l11 -58q22 32 56 50t76 18q78 0 122 -48.5t44 -130.5v-258h72v-62h-214v62h69zM269 -228l-33 20q25 37 37 68q-19 5 -27.5 18.5t-8.5 25.5
q0 19 14.5 32.5t33.5 13.5q20 0 34.5 -13.5t14.5 -32.5q0 -56 -65 -132z" />
    <glyph glyph-name="Ncaron" unicode="&#x147;" horiz-adv-x="654" 
d="M352 691h-42l-103 123l30 26l95 -85l93 84l29 -25zM124 64v529h-76v64h144l280 -500v436h-76v64h223v-64h-76v-593h-63l-285 508v-444h75v-64h-222v64h76z" />
    <glyph glyph-name="ncaron" unicode="&#x148;" horiz-adv-x="570" 
d="M306 548h-42l-103 123l30 26l95 -85l93 84l29 -25zM404 62v259q0 35 -15.5 63t-41 39t-49.5 11t-51 -11.5t-44.5 -41.5t-17.5 -68v-251h69v-62h-214v62h72v362h-72v65h128l11 -58q22 32 56 50t76 18q78 0 122 -48.5t44 -130.5v-258h72v-62h-214v62h69z" />
    <glyph glyph-name="napostrophe" unicode="&#x149;" horiz-adv-x="599" 
d="M70 531l-33 20q25 37 37 68q-19 5 -27.5 18.5t-8.5 25.5q0 19 14.5 32.5t33.5 13.5q20 0 34.5 -13.5t14.5 -32.5q0 -56 -65 -132zM434 62v259q0 35 -15.5 63t-41 39t-49.5 11t-51 -11.5t-44.5 -41.5t-17.5 -68v-251h69v-62h-214v62h72v362h-72v65h128l11 -58q22 32 56 50
t76 18q78 0 122 -48.5t44 -130.5v-258h72v-62h-214v62h69z" />
    <glyph glyph-name="Omacron" unicode="&#x14c;" horiz-adv-x="564" 
d="M164 732v55h235v-55h-235zM502 457v-257q0 -47 -14 -81.5t-37 -61t-66 -47t-103 -20.5q-48 0 -88.5 14.5t-70 42t-45.5 67t-16 86.5v257q0 96 60 153t160 57q48 0 88.5 -14.5t70 -42t45.5 -67t16 -86.5zM139 459v-261q0 -61 38 -100t105 -39t105 39t38 100v261
q0 61 -38 100t-105 39t-105 -39t-38 -100z" />
    <glyph glyph-name="omacron" unicode="&#x14d;" horiz-adv-x="477" 
d="M121 572v55h235v-55h-235zM426 309v-129q0 -32 -9 -65t-31 -60.5t-59 -46t-88 -18.5q-84 0 -136 51.5t-52 138.5v129q0 87 52 138.5t136 51.5q41 0 75.5 -13t59.5 -38t38.5 -60.5t13.5 -78.5zM124 314v-140q0 -53 31 -87t84 -34t83.5 34.5t30.5 86.5v140q0 52 -30.5 86.5
t-83.5 34.5t-84 -34t-31 -87z" />
    <glyph glyph-name="Obreve" unicode="&#x14e;" horiz-adv-x="564" 
d="M335 812h49v-19q0 -19 -9.5 -42t-34.5 -39.5t-58 -16.5q-46 0 -74 28t-28 70v19h49v-19q0 -23 14.5 -39t38.5 -16t38.5 16t14.5 39v19zM502 457v-257q0 -47 -14 -81.5t-37 -61t-66 -47t-103 -20.5q-48 0 -88.5 14.5t-70 42t-45.5 67t-16 86.5v257q0 96 60 153t160 57
q48 0 88.5 -14.5t70 -42t45.5 -67t16 -86.5zM139 459v-261q0 -61 38 -100t105 -39t105 39t38 100v261q0 61 -38 100t-105 39t-105 -39t-38 -100z" />
    <glyph glyph-name="obreve" unicode="&#x14f;" horiz-adv-x="477" 
d="M292 666h49v-20q0 -19 -9.5 -42t-34.5 -39.5t-58 -16.5q-46 0 -74 28t-28 70v20h49v-20q0 -23 14.5 -39t38.5 -16t38.5 16t14.5 39v20zM426 309v-129q0 -32 -9 -65t-31 -60.5t-59 -46t-88 -18.5q-84 0 -136 51.5t-52 138.5v129q0 87 52 138.5t136 51.5q41 0 75.5 -13
t59.5 -38t38.5 -60.5t13.5 -78.5zM124 314v-140q0 -53 31 -87t84 -34t83.5 34.5t30.5 86.5v140q0 52 -30.5 86.5t-83.5 34.5t-84 -34t-31 -87z" />
    <glyph glyph-name="Ohungarumlaut" unicode="&#x150;" horiz-adv-x="564" 
d="M451 800l-123 -110l-27 27l107 124zM335 799l-127 -105l-28 27l112 120zM502 457v-257q0 -47 -14 -81.5t-37 -61t-66 -47t-103 -20.5q-48 0 -88.5 14.5t-70 42t-45.5 67t-16 86.5v257q0 96 60 153t160 57q48 0 88.5 -14.5t70 -42t45.5 -67t16 -86.5zM139 459v-261
q0 -61 38 -100t105 -39t105 39t38 100v261q0 61 -38 100t-105 39t-105 -39t-38 -100z" />
    <glyph glyph-name="ohungarumlaut" unicode="&#x151;" horiz-adv-x="477" 
d="M414 656l-123 -109l-27 27l107 124zM298 655l-127 -104l-28 26l112 120zM426 309v-129q0 -32 -9 -65t-31 -60.5t-59 -46t-88 -18.5q-84 0 -136 51.5t-52 138.5v129q0 87 52 138.5t136 51.5q41 0 75.5 -13t59.5 -38t38.5 -60.5t13.5 -78.5zM124 314v-140q0 -53 31 -87
t84 -34t83.5 34.5t30.5 86.5v140q0 52 -30.5 86.5t-83.5 34.5t-84 -34t-31 -87z" />
    <glyph glyph-name="OE" unicode="&#x152;" horiz-adv-x="855" 
d="M139 459v-261q0 -37 16 -70.5t49.5 -51t73.5 -17.5q48 0 81.5 21.5t46 53.5t12.5 59v266q0 27 -11.5 60t-45.5 56t-83 23q-40 0 -73.5 -17.5t-49.5 -51t-16 -70.5zM420 47q-26 -27 -64 -42t-82 -15q-46 0 -85.5 14.5t-67.5 42t-43.5 67t-15.5 86.5v257q0 96 57.5 153
t154.5 57q44 0 82 -15t64 -43v48h375v-152h-68v83h-233v-219h274v-67h-274v-233h242v84h67v-153h-383v47z" />
    <glyph glyph-name="oe" unicode="&#x153;" horiz-adv-x="766" 
d="M649 163h69v-7q0 -76 -50 -121t-132 -45q-51 0 -90.5 23t-59.5 64q-20 -41 -59.5 -64t-89.5 -23q-41 0 -75.5 13t-59 38t-38 60.5t-13.5 78.5v129q0 43 13.5 78.5t38 60.5t59 38t75.5 13q51 0 90 -24t60 -66q20 42 59.5 66t89.5 24q81 0 131.5 -51.5t50.5 -138.5v-74
h-295v-70q0 -36 17.5 -64.5t44.5 -39.5t52 -11t52 10t43.5 35t16.5 57v11zM423 316v-24h226v24q0 53 -30.5 88t-82.5 35t-82.5 -35t-30.5 -88zM124 314v-140q0 -52 30.5 -86.5t82.5 -34.5t82.5 34.5t30.5 86.5v140q0 52 -30.5 86.5t-82.5 34.5t-82.5 -34.5t-30.5 -86.5z" />
    <glyph glyph-name="Racute" unicode="&#x154;" horiz-adv-x="618" 
d="M436 795l-130 -101l-34 33l114 119zM320 590h-120v-265h120q68 0 108.5 37t40.5 98q0 59 -40.5 94.5t-108.5 35.5zM124 64v529h-76v64h278q35 0 72.5 -9t74.5 -35.5t55.5 -67.5t18.5 -84q0 -31 -11 -67.5t-41 -68t-71 -47.5l95 -214h73v-64h-130l-113 260l-27 -1h-122
v-195h74v-64h-226v64h76z" />
    <glyph glyph-name="racute" unicode="&#x155;" horiz-adv-x="356" 
d="M317 649l-130 -102l-34 33l114 119zM112 62v362h-72v65h128l12 -62q20 33 54.5 52.5t75.5 19.5l24 -2v-70l-30 3q-53 0 -86 -32.5t-33 -85.5v-250h88v-62h-233v62h72z" />
    <glyph glyph-name="Rcommaaccent" unicode="&#x156;" horiz-adv-x="618" 
d="M320 590h-120v-265h120q68 0 108.5 37t40.5 98q0 59 -40.5 94.5t-108.5 35.5zM124 64v529h-76v64h278q35 0 72.5 -9t74.5 -35.5t55.5 -67.5t18.5 -84q0 -31 -11 -67.5t-41 -68t-71 -47.5l95 -214h73v-64h-130l-113 260l-27 -1h-122v-195h74v-64h-226v64h76zM292 -228
l-33 20q25 37 37 68q-19 5 -27.5 18.5t-8.5 25.5q0 19 14.5 32.5t33.5 13.5q20 0 34.5 -13.5t14.5 -32.5q0 -56 -65 -132z" />
    <glyph glyph-name="rcommaaccent" unicode="&#x157;" horiz-adv-x="356" 
d="M112 62v362h-72v65h128l12 -62q20 33 54.5 52.5t75.5 19.5l24 -2v-70l-30 3q-53 0 -86 -32.5t-33 -85.5v-250h88v-62h-233v62h72zM122 -228l-33 20q25 37 37 68q-19 5 -27.5 18.5t-8.5 25.5q0 19 14.5 32.5t33.5 13.5q20 0 34.5 -13.5t14.5 -32.5q0 -56 -65 -132z" />
    <glyph glyph-name="Rcaron" unicode="&#x158;" horiz-adv-x="618" 
d="M327 691h-42l-103 123l30 26l95 -85l93 84l29 -25zM320 590h-120v-265h120q68 0 108.5 37t40.5 98q0 59 -40.5 94.5t-108.5 35.5zM124 64v529h-76v64h278q35 0 72.5 -9t74.5 -35.5t55.5 -67.5t18.5 -84q0 -31 -11 -67.5t-41 -68t-71 -47.5l95 -214h73v-64h-130l-113 260
l-27 -1h-122v-195h74v-64h-226v64h76z" />
    <glyph glyph-name="rcaron" unicode="&#x159;" horiz-adv-x="356" 
d="M208 548h-42l-103 123l30 26l95 -85l93 84l29 -25zM112 62v362h-72v65h128l12 -62q20 33 54.5 52.5t75.5 19.5l24 -2v-70l-30 3q-53 0 -86 -32.5t-33 -85.5v-250h88v-62h-233v62h72z" />
    <glyph glyph-name="Sacute" unicode="&#x15a;" horiz-adv-x="527" 
d="M402 795l-130 -101l-34 33l114 119zM272 -10q-48 0 -88 16.5t-65 46.5v-53h-68v191h68v-20q0 -51 38.5 -83.5t104.5 -32.5q50 0 83.5 19.5t45.5 47t12 51.5q0 36 -18 60.5t-43.5 38t-50.5 23.5l-95 38q-135 54 -135 165q0 74 54.5 121.5t140.5 47.5q44 0 80.5 -16
t60.5 -45v51h65v-187h-67v16q0 23 -11 50t-42.5 47t-78.5 20q-60 0 -94.5 -27.5t-34.5 -71.5q0 -33 21 -58t56 -38l108 -44q83 -32 121 -74t38 -109q0 -86 -57 -138.5t-149 -52.5z" />
    <glyph glyph-name="sacute" unicode="&#x15b;" horiz-adv-x="449" 
d="M355 649l-130 -102l-34 33l114 119zM236 -10q-39 0 -72 13t-54 36v-39h-62v151h61v-16q0 -38 32 -62.5t85 -24.5q50 0 77.5 23t27.5 59q0 29 -15.5 47t-49.5 28l-96 29q-35 10 -62 29t-39 45t-12 54q0 41 23 72.5t57.5 48t76.5 16.5q76 0 117 -46v36h60v-141h-59v12
q0 25 -16.5 45.5t-42.5 28.5t-50 8q-27 0 -51.5 -10.5t-35 -28.5t-10.5 -35q0 -47 61 -66l84 -25q46 -14 74 -31.5t43 -43t15 -63.5q0 -66 -46 -107.5t-121 -41.5z" />
    <glyph glyph-name="Scircumflex" unicode="&#x15c;" horiz-adv-x="527" 
d="M253 844h42l102 -123l-30 -26l-95 85l-93 -84l-29 25zM272 -10q-48 0 -88 16.5t-65 46.5v-53h-68v191h68v-20q0 -51 38.5 -83.5t104.5 -32.5q50 0 83.5 19.5t45.5 47t12 51.5q0 36 -18 60.5t-43.5 38t-50.5 23.5l-95 38q-135 54 -135 165q0 74 54.5 121.5t140.5 47.5
q44 0 80.5 -16t60.5 -45v51h65v-187h-67v16q0 23 -11 50t-42.5 47t-78.5 20q-60 0 -94.5 -27.5t-34.5 -71.5q0 -33 21 -58t56 -38l108 -44q83 -32 121 -74t38 -109q0 -86 -57 -138.5t-149 -52.5z" />
    <glyph glyph-name="scircumflex" unicode="&#x15d;" horiz-adv-x="449" 
d="M205 697h42l102 -123l-30 -26l-95 85l-93 -84l-29 25zM236 -10q-39 0 -72 13t-54 36v-39h-62v151h61v-16q0 -38 32 -62.5t85 -24.5q50 0 77.5 23t27.5 59q0 29 -15.5 47t-49.5 28l-96 29q-35 10 -62 29t-39 45t-12 54q0 41 23 72.5t57.5 48t76.5 16.5q76 0 117 -46v36h60
v-141h-59v12q0 25 -16.5 45.5t-42.5 28.5t-50 8q-27 0 -51.5 -10.5t-35 -28.5t-10.5 -35q0 -47 61 -66l84 -25q46 -14 74 -31.5t43 -43t15 -63.5q0 -66 -46 -107.5t-121 -41.5z" />
    <glyph glyph-name="Scedilla" unicode="&#x15e;" horiz-adv-x="527" 
d="M253 -211q-37 0 -60 19.5t-23 53.5h48q0 -31 35 -31q17 0 27 9.5t10 24.5v11q0 15 -10 25t-27 10q-20 0 -33 -18l-32 18l41 83q-71 12 -110 59v-53h-68v191h68v-20q0 -51 38.5 -83.5t104.5 -32.5q50 0 83.5 19.5t45.5 47t12 51.5q0 36 -18 60.5t-43.5 38t-50.5 23.5
l-95 38q-135 54 -135 165q0 74 54.5 121.5t140.5 47.5q44 0 80.5 -16t60.5 -45v51h65v-187h-67v16q0 23 -11 50t-42.5 47t-78.5 20q-60 0 -94.5 -27.5t-34.5 -71.5q0 -33 21 -58t56 -38l108 -44q83 -32 121 -74t38 -109q0 -42 -13 -73.5t-34 -55.5t-61 -43t-94 -19l-20 -38
h5q34 0 56 -21t22 -56v-7q0 -36 -24 -57.5t-62 -21.5z" />
    <glyph glyph-name="scedilla" unicode="&#x15f;" horiz-adv-x="449" 
d="M214 -211q-37 0 -60 19.5t-23 53.5h48q0 -31 35 -31q17 0 27 9.5t10 24.5v11q0 15 -10 25t-27 10q-20 0 -33 -18l-32 18l41 84q-50 11 -80 44v-39h-62v151h61v-16q0 -38 32 -62.5t85 -24.5q50 0 77.5 23t27.5 59q0 29 -15.5 47t-49.5 28l-96 29q-35 10 -62 29t-39 45
t-12 54q0 41 23 72.5t57.5 48t76.5 16.5q76 0 117 -46v36h60v-141h-59v12q0 25 -16.5 45.5t-42.5 28.5t-50 8q-27 0 -51.5 -10.5t-35 -28.5t-10.5 -35q0 -47 61 -66l84 -25q46 -14 74 -31.5t43 -43t15 -63.5q0 -66 -46 -107.5t-120 -41.5l-20 -38h5q34 0 56 -21t22 -56v-7
q0 -36 -24 -57.5t-62 -21.5z" />
    <glyph glyph-name="Scaron" unicode="&#x160;" horiz-adv-x="527" 
d="M294 691h-42l-103 123l30 26l95 -85l93 84l29 -25zM272 -10q-48 0 -88 16.5t-65 46.5v-53h-68v191h68v-20q0 -51 38.5 -83.5t104.5 -32.5q50 0 83.5 19.5t45.5 47t12 51.5q0 36 -18 60.5t-43.5 38t-50.5 23.5l-95 38q-135 54 -135 165q0 74 54.5 121.5t140.5 47.5
q44 0 80.5 -16t60.5 -45v51h65v-187h-67v16q0 23 -11 50t-42.5 47t-78.5 20q-60 0 -94.5 -27.5t-34.5 -71.5q0 -33 21 -58t56 -38l108 -44q83 -32 121 -74t38 -109q0 -86 -57 -138.5t-149 -52.5z" />
    <glyph glyph-name="scaron" unicode="&#x161;" horiz-adv-x="449" 
d="M247 548h-42l-103 123l30 26l95 -85l93 84l29 -25zM236 -10q-39 0 -72 13t-54 36v-39h-62v151h61v-16q0 -38 32 -62.5t85 -24.5q50 0 77.5 23t27.5 59q0 29 -15.5 47t-49.5 28l-96 29q-35 10 -62 29t-39 45t-12 54q0 41 23 72.5t57.5 48t76.5 16.5q76 0 117 -46v36h60
v-141h-59v12q0 25 -16.5 45.5t-42.5 28.5t-50 8q-27 0 -51.5 -10.5t-35 -28.5t-10.5 -35q0 -47 61 -66l84 -25q46 -14 74 -31.5t43 -43t15 -63.5q0 -66 -46 -107.5t-121 -41.5z" />
    <glyph glyph-name="Tcommaaccent" unicode="&#x162;" horiz-adv-x="529" 
d="M254 -211q-37 0 -60 19.5t-23 53.5h48q0 -31 35 -31q17 0 27 9.5t10 24.5v11q0 15 -10 25t-27 10q-20 0 -33 -18l-32 18l44 89h-85v64h78v524h-130v-86h-67v155h472v-155h-68v86h-131v-524h79v-64h-98l-26 -48h5q34 0 56 -21t22 -56v-7q0 -36 -24 -57.5t-62 -21.5z" />
    <glyph glyph-name="tcommaaccent" unicode="&#x163;" horiz-adv-x="327" 
d="M170 -211q-38 0 -60.5 19.5t-22.5 53.5h48q0 -31 35 -31q12 0 24 7.5t12 26.5v11q0 15 -9.5 25t-26.5 10q-20 0 -33 -18l-32 18l56 113q-62 40 -62 135v265h-78v62h78v133h73v-133h127v-62h-127v-270q0 -41 23 -66t66 -25h38v-63h-41q-32 0 -56 7l-29 -55h5
q34 0 55.5 -21t21.5 -56v-7q0 -36 -23.5 -57.5t-61.5 -21.5z" />
    <glyph glyph-name="Tcaron" unicode="&#x164;" horiz-adv-x="529" 
d="M286 691h-42l-103 123l30 26l95 -85l93 84l29 -25zM226 64v524h-130v-86h-67v155h472v-155h-68v86h-131v-524h79v-64h-233v64h78z" />
    <glyph glyph-name="tcaron" unicode="&#x165;" horiz-adv-x="325" 
d="M247 682h77l-53 -132h-47zM19 424v62h78v133h73v-133h127v-62h-127v-270q0 -41 23 -66t66 -25h38v-63h-41q-76 0 -117.5 40.5t-41.5 118.5v265h-78z" />
    <glyph glyph-name="Tbar" unicode="&#x166;" horiz-adv-x="535" 
d="M384 64v-64h-233v64h78v290h-134v61h134v173h-130v-86h-67v155h472v-155h-68v86h-131v-173h135v-61h-135v-290h79z" />
    <glyph glyph-name="tbar" unicode="&#x167;" horiz-adv-x="327" 
d="M298 63v-63h-41q-76 0 -117.5 40.5t-41.5 118.5v102h-57v60h57v103h-78v62h78v133h73v-133h127v-62h-127v-103h103v-60h-103v-107q0 -41 23 -66t66 -25h38z" />
    <glyph glyph-name="Utilde" unicode="&#x168;" horiz-adv-x="640" 
d="M429 802h40l2 -24q0 -36 -18.5 -59t-53.5 -23q-28 0 -63 21l-41 22q-28 14 -40 14q-20 0 -31.5 -17t-11.5 -40h-40q-3 12 -3 23q0 36 23.5 60.5t60.5 24.5q26 0 57 -17l41 -22q32 -18 45 -18q33 0 33 55zM608 657v-64h-76v-393q0 -47 -15.5 -86.5t-43.5 -67t-67.5 -42
t-85.5 -14.5q-94 0 -153 57.5t-59 152.5v393h-76v64h228v-64h-75v-395q0 -28 12 -61.5t44 -55.5t79 -22t79.5 22t44.5 55.5t12 61.5v395h-75v64h227z" />
    <glyph glyph-name="utilde" unicode="&#x169;" 
d="M365 662h40l2 -24q0 -36 -18.5 -59t-53.5 -23q-25 0 -63 21l-41 22q-24 14 -40 14q-20 0 -31.5 -17t-11.5 -39h-40l-3 22q0 17 7.5 37t28 34.5t48.5 14.5q26 0 57 -17l41 -23q30 -17 45 -17q33 0 33 54zM458 62h71v-62h-128l-11 56q-21 -31 -56 -48.5t-77 -17.5
q-76 0 -119.5 47.5t-43.5 127.5v259h-72v65h145v-324q0 -48 27 -79t77 -31q24 0 51 11.5t44.5 41.5t17.5 67v249h-73v65h147v-427z" />
    <glyph glyph-name="Umacron" unicode="&#x16a;" horiz-adv-x="640" 
d="M203 732v55h235v-55h-235zM608 657v-64h-76v-393q0 -47 -15.5 -86.5t-43.5 -67t-67.5 -42t-85.5 -14.5q-94 0 -153 57.5t-59 152.5v393h-76v64h228v-64h-75v-395q0 -28 12 -61.5t44 -55.5t79 -22t79.5 22t44.5 55.5t12 61.5v395h-75v64h227z" />
    <glyph glyph-name="umacron" unicode="&#x16b;" 
d="M139 572v55h235v-55h-235zM458 62h71v-62h-128l-11 56q-21 -31 -56 -48.5t-77 -17.5q-76 0 -119.5 47.5t-43.5 127.5v259h-72v65h145v-324q0 -48 27 -79t77 -31q24 0 51 11.5t44.5 41.5t17.5 67v249h-73v65h147v-427z" />
    <glyph glyph-name="Ubreve" unicode="&#x16c;" horiz-adv-x="640" 
d="M374 812h49v-19q0 -19 -9.5 -42t-34.5 -39.5t-58 -16.5q-46 0 -74 28t-28 70v19h49v-19q0 -23 14.5 -39t38.5 -16t38.5 16t14.5 39v19zM608 657v-64h-76v-393q0 -47 -15.5 -86.5t-43.5 -67t-67.5 -42t-85.5 -14.5q-94 0 -153 57.5t-59 152.5v393h-76v64h228v-64h-75v-395
q0 -28 12 -61.5t44 -55.5t79 -22t79.5 22t44.5 55.5t12 61.5v395h-75v64h227z" />
    <glyph glyph-name="ubreve" unicode="&#x16d;" 
d="M309 666h49v-20q0 -19 -9.5 -42t-34.5 -39.5t-58 -16.5q-46 0 -74 28t-28 70v20h49v-20q0 -23 14.5 -39t38.5 -16t38.5 16t14.5 39v20zM458 62h71v-62h-128l-11 56q-21 -31 -56 -48.5t-77 -17.5q-76 0 -119.5 47.5t-43.5 127.5v259h-72v65h145v-324q0 -48 27 -79t77 -31
q24 0 51 11.5t44.5 41.5t17.5 67v249h-73v65h147v-427z" />
    <glyph glyph-name="Uring" unicode="&#x16e;" horiz-adv-x="640" 
d="M320 684q-20 0 -43 9.5t-39 33.5t-16 52q0 18 9.5 40.5t33.5 39t55 16.5q20 0 43 -9.5t39 -33.5t16 -53q0 -18 -9.5 -40.5t-33.5 -38.5t-55 -16zM320 724q23 0 37 16t14 39t-14 39t-37 16q-22 0 -36.5 -16t-14.5 -39t14.5 -39t36.5 -16zM608 657v-64h-76v-393
q0 -47 -15.5 -86.5t-43.5 -67t-67.5 -42t-85.5 -14.5q-94 0 -153 57.5t-59 152.5v393h-76v64h228v-64h-75v-395q0 -28 12 -61.5t44 -55.5t79 -22t79.5 22t44.5 55.5t12 61.5v395h-75v64h227z" />
    <glyph glyph-name="uring" unicode="&#x16f;" 
d="M256 528q-30 0 -54.5 16.5t-34 39t-9.5 40.5t9.5 40.5t34 39t54.5 16.5t54.5 -16.5t34 -39t9.5 -40.5t-9.5 -40.5t-34 -39t-54.5 -16.5zM256 569q23 0 37 16t14 39t-14 38.5t-37 15.5q-22 0 -36.5 -15.5t-14.5 -38.5t14.5 -39t36.5 -16zM458 62h71v-62h-128l-11 56
q-21 -31 -56 -48.5t-77 -17.5q-76 0 -119.5 47.5t-43.5 127.5v259h-72v65h145v-324q0 -48 27 -79t77 -31q24 0 51 11.5t44.5 41.5t17.5 67v249h-73v65h147v-427z" />
    <glyph glyph-name="Uhungarumlaut" unicode="&#x170;" horiz-adv-x="640" 
d="M489 800l-123 -110l-27 27l107 124zM373 799l-127 -105l-28 27l112 120zM608 657v-64h-76v-393q0 -47 -15.5 -86.5t-43.5 -67t-67.5 -42t-85.5 -14.5q-94 0 -153 57.5t-59 152.5v393h-76v64h228v-64h-75v-395q0 -28 12 -61.5t44 -55.5t79 -22t79.5 22t44.5 55.5t12 61.5
v395h-75v64h227z" />
    <glyph glyph-name="uhungarumlaut" unicode="&#x171;" 
d="M431 656l-123 -109l-27 27l107 124zM315 655l-127 -104l-28 26l112 120zM458 62h71v-62h-128l-11 56q-21 -31 -56 -48.5t-77 -17.5q-76 0 -119.5 47.5t-43.5 127.5v259h-72v65h145v-324q0 -48 27 -79t77 -31q24 0 51 11.5t44.5 41.5t17.5 67v249h-73v65h147v-427z" />
    <glyph glyph-name="Uogonek" unicode="&#x172;" horiz-adv-x="640" 
d="M361 -189q-45 0 -71.5 23t-26.5 58q0 56 59 98h-7q-45 1 -83.5 16t-66 42.5t-42.5 66t-15 85.5v393h-76v64h228v-64h-75v-395q0 -28 12 -61.5t44 -55.5t79 -22t79.5 22t44.5 55.5t12 61.5v395h-75v64h227v-64h-76v-393q0 -141 -129 -197q-19 -8 -38.5 -24.5t-28 -34
t-8.5 -31.5q0 -43 56 -43q13 0 34 3v-47q-24 -15 -57 -15z" />
    <glyph glyph-name="uogonek" unicode="&#x173;" 
d="M475 -174q-25 -15 -57 -15q-22 0 -45.5 7.5t-38.5 27.5t-15 46q0 65 82 108l-11 56q-21 -31 -56 -48.5t-77 -17.5q-76 0 -119.5 47.5t-43.5 127.5v259h-72v65h145v-324q0 -48 27 -79t77 -31q24 0 51 11.5t44.5 41.5t17.5 67v249h-73v65h147v-427h71v-62h-69
q-38 -20 -57 -43.5t-19 -43.5q0 -18 13.5 -30.5t42.5 -12.5q14 0 35 3v-47z" />
    <glyph glyph-name="Wcircumflex" unicode="&#x174;" horiz-adv-x="802" 
d="M381 844h42l102 -123l-30 -26l-95 85l-93 -84l-29 25zM517 0l-116 521l-116 -521h-69l-138 593h-67v64h207v-64h-65l101 -455l114 519h69l114 -521l103 457h-67v64h204v-64h-67l-138 -593h-69z" />
    <glyph glyph-name="wcircumflex" unicode="&#x175;" horiz-adv-x="725" 
d="M345 697h42l102 -123l-30 -26l-95 85l-93 -84l-29 25zM461 0l-98 366l-99 -366h-66l-119 424h-63v65h196v-65h-57l80 -313l97 378h65l97 -378l80 313h-58v65h192v-65h-63l-118 -424h-66z" />
    <glyph glyph-name="Ycircumflex" unicode="&#x176;" horiz-adv-x="565" 
d="M268 844h42l102 -123l-30 -26l-95 85l-93 -84l-29 25zM399 0h-232v64h78v195l-164 334h-66v64h210v-64h-62l124 -261l124 261h-62v64h201v-64h-65l-164 -333v-196h78v-64z" />
    <glyph glyph-name="ycircumflex" unicode="&#x177;" horiz-adv-x="526" 
d="M247 697h42l102 -123l-30 -26l-95 85l-93 -84l-29 25zM313 -187h-191v62h61l47 123l-152 426h-63v65h198v-65h-57l111 -325l110 325h-57v65h192v-65h-63l-196 -549h60v-62z" />
    <glyph glyph-name="Ydieresis" unicode="&#x178;" horiz-adv-x="565" 
d="M300 762q0 18 13.5 30.5t31.5 12.5q17 0 30 -12.5t13 -30.5t-13 -31.5t-30 -13.5q-18 0 -31.5 13.5t-13.5 31.5zM186 762q0 18 13.5 30.5t31.5 12.5t30.5 -12.5t12.5 -30.5t-12.5 -31.5t-30.5 -13.5t-31.5 13.5t-13.5 31.5zM399 0h-232v64h78v195l-164 334h-66v64h210
v-64h-62l124 -261l124 261h-62v64h201v-64h-65l-164 -333v-196h78v-64z" />
    <glyph glyph-name="Zacute" unicode="&#x179;" horiz-adv-x="495" 
d="M366 795l-130 -101l-34 33l114 119zM452 0h-412v51l307 538h-228v-85h-66v153h388v-50l-306 -539h249v86h68v-154z" />
    <glyph glyph-name="zacute" unicode="&#x17a;" horiz-adv-x="455" 
d="M357 649l-130 -102l-34 33l114 119zM410 0h-366v45l269 385h-199v-84h-63v143h353v-46l-270 -384h211v84h65v-143z" />
    <glyph glyph-name="Zdotaccent" unicode="&#x17b;" horiz-adv-x="495" 
d="M188 760q0 21 14.5 35t34.5 14t34 -14t14 -35q0 -19 -14 -33.5t-34 -14.5t-34.5 14.5t-14.5 33.5zM452 0h-412v51l307 538h-228v-85h-66v153h388v-50l-306 -539h249v86h68v-154z" />
    <glyph glyph-name="zdotaccent" unicode="&#x17c;" horiz-adv-x="455" 
d="M178 607q0 20 14.5 34.5t34.5 14.5t34 -14.5t14 -34.5t-14 -34t-34 -14t-34.5 14t-14.5 34zM410 0h-366v45l269 385h-199v-84h-63v143h353v-46l-270 -384h211v84h65v-143z" />
    <glyph glyph-name="Zcaron" unicode="&#x17d;" horiz-adv-x="495" 
d="M258 691h-42l-103 123l30 26l95 -85l93 84l29 -25zM452 0h-412v51l307 538h-228v-85h-66v153h388v-50l-306 -539h249v86h68v-154z" />
    <glyph glyph-name="zcaron" unicode="&#x17e;" horiz-adv-x="455" 
d="M248 548h-42l-103 123l30 26l95 -85l93 84l29 -25zM410 0h-366v45l269 385h-199v-84h-63v143h353v-46l-270 -384h211v84h65v-143z" />
    <glyph glyph-name="longs" unicode="&#x17f;" horiz-adv-x="265" 
d="M302 614h-39q-94 0 -94 -99v-515h-73v510q0 81 42 124t122 43h42v-63z" />
    <glyph glyph-name="florin" unicode="&#x192;" horiz-adv-x="342" 
d="M33 306v62h78v137q0 81 42 124t122 43h42v-63h-39q-94 0 -94 -99v-142h127v-62h-127v-326q0 -81 -42 -124t-121 -43h-43v63h39q94 0 94 99v331h-78z" />
    <glyph glyph-name="Scommaaccent" unicode="&#x218;" horiz-adv-x="527" 
d="M272 -10q-48 0 -88 16.5t-65 46.5v-53h-68v191h68v-20q0 -51 38.5 -83.5t104.5 -32.5q50 0 83.5 19.5t45.5 47t12 51.5q0 36 -18 60.5t-43.5 38t-50.5 23.5l-95 38q-135 54 -135 165q0 74 54.5 121.5t140.5 47.5q44 0 80.5 -16t60.5 -45v51h65v-187h-67v16q0 23 -11 50
t-42.5 47t-78.5 20q-60 0 -94.5 -27.5t-34.5 -71.5q0 -33 21 -58t56 -38l108 -44q83 -32 121 -74t38 -109q0 -86 -57 -138.5t-149 -52.5zM239 -228l-33 20q25 37 37 68q-19 5 -27.5 18.5t-8.5 25.5q0 19 14.5 32.5t33.5 13.5q20 0 34.5 -13.5t14.5 -32.5q0 -56 -65 -132z
" />
    <glyph glyph-name="scommaaccent" unicode="&#x219;" horiz-adv-x="449" 
d="M236 -10q-39 0 -72 13t-54 36v-39h-62v151h61v-16q0 -38 32 -62.5t85 -24.5q50 0 77.5 23t27.5 59q0 29 -15.5 47t-49.5 28l-96 29q-35 10 -62 29t-39 45t-12 54q0 41 23 72.5t57.5 48t76.5 16.5q76 0 117 -46v36h60v-141h-59v12q0 25 -16.5 45.5t-42.5 28.5t-50 8
q-27 0 -51.5 -10.5t-35 -28.5t-10.5 -35q0 -47 61 -66l84 -25q46 -14 74 -31.5t43 -43t15 -63.5q0 -66 -46 -107.5t-121 -41.5zM200 -228l-33 20q25 37 37 68q-19 5 -27.5 18.5t-8.5 25.5q0 19 14.5 32.5t33.5 13.5q20 0 34.5 -13.5t14.5 -32.5q0 -56 -65 -132z" />
    <glyph glyph-name="uni021A" unicode="&#x21a;" horiz-adv-x="529" 
d="M226 64v524h-130v-86h-67v155h472v-155h-68v86h-131v-524h79v-64h-233v64h78zM239 -228l-33 20q25 37 37 68q-19 5 -27.5 18.5t-8.5 25.5q0 19 14.5 32.5t33.5 13.5q20 0 34.5 -13.5t14.5 -32.5q0 -56 -65 -132z" />
    <glyph glyph-name="uni021B" unicode="&#x21b;" horiz-adv-x="325" 
d="M19 424v62h78v133h73v-133h127v-62h-127v-270q0 -41 23 -66t66 -25h38v-63h-41q-76 0 -117.5 40.5t-41.5 118.5v265h-78zM124 -228l-33 20q25 37 37 68q-19 5 -27.5 18.5t-8.5 25.5q0 19 14.5 32.5t33.5 13.5q20 0 34.5 -13.5t14.5 -32.5q0 -56 -65 -132z" />
    <glyph glyph-name="uni0237" unicode="&#x237;" horiz-adv-x="256" 
d="M175 489v-509q0 -85 -47 -131t-128 -46h-27v63h23q51 0 78 29t27 80v450h-72v64h146z" />
    <glyph glyph-name="circumflex" unicode="&#x2c6;" horiz-adv-x="283" 
d="M121 697h42l102 -123l-30 -26l-95 85l-93 -84l-29 25z" />
    <glyph glyph-name="caron" unicode="&#x2c7;" horiz-adv-x="283" 
d="M163 548h-42l-103 123l30 26l95 -85l93 84l29 -25z" />
    <glyph glyph-name="uni02C9" unicode="&#x2c9;" horiz-adv-x="271" 
d="M18 574v55h235v-55h-235z" />
    <glyph glyph-name="breve" unicode="&#x2d8;" horiz-adv-x="240" 
d="M173 666h49v-20q0 -19 -9.5 -42t-34.5 -39.5t-58 -16.5q-46 0 -74 28t-28 70v20h49v-20q0 -23 14.5 -39t38.5 -16t38.5 16t14.5 39v20z" />
    <glyph glyph-name="dotaccent" unicode="&#x2d9;" horiz-adv-x="134" 
d="M18 607q0 20 14.5 34.5t34.5 14.5t34 -14.5t14 -34.5t-14 -34t-34 -14t-34.5 14t-14.5 34z" />
    <glyph glyph-name="ring" unicode="&#x2da;" horiz-adv-x="233" 
d="M116 528q-30 0 -54.5 16.5t-34 39t-9.5 40.5t9.5 40.5t34 39t54.5 16.5t54.5 -16.5t34 -39t9.5 -40.5t-9.5 -40.5t-34 -39t-54.5 -16.5zM116 569q23 0 37 16t14 39t-14 38.5t-37 15.5q-22 0 -36.5 -15.5t-14.5 -38.5t14.5 -39t36.5 -16z" />
    <glyph glyph-name="ogonek" unicode="&#x2db;" horiz-adv-x="230" 
d="M195 -127v-47q-25 -15 -57 -15q-22 0 -45.5 7.5t-38.5 27.5t-15 46q0 71 107 120l36 -11q-19 -9 -39 -25t-29.5 -33t-9.5 -30q0 -18 13.5 -30.5t42.5 -12.5q14 0 35 3z" />
    <glyph glyph-name="tilde" unicode="&#x2dc;" horiz-adv-x="338" 
d="M278 662h40l2 -24q0 -36 -18.5 -59t-53.5 -23q-25 0 -63 21l-41 22q-24 14 -40 14q-20 0 -31.5 -17t-11.5 -39h-40l-3 22q0 17 7.5 37t28 34.5t48.5 14.5q26 0 57 -17l41 -23q30 -17 45 -17q33 0 33 54z" />
    <glyph glyph-name="hungarumlaut" unicode="&#x2dd;" horiz-adv-x="308" 
d="M289 656l-123 -109l-27 27l107 124zM173 655l-127 -104l-28 26l112 120z" />
    <glyph glyph-name="Delta" unicode="&#x394;" horiz-adv-x="518" 
d="M24 0l196 657h78l196 -657h-470zM394 68l-137 471l-137 -471h274z" />
    <glyph glyph-name="Omega" unicode="&#x3a9;" horiz-adv-x="589" 
d="M363 0v77q35 14 54.5 47t19.5 76v259q0 61 -38 100t-104 39t-104.5 -39t-38.5 -100v-259q0 -43 19.5 -76t54.5 -47v-77h-180v58h105q-75 47 -75 158v241q0 96 59.5 153t159.5 57t159 -57t59 -153v-241q0 -111 -76 -158h106v-58h-180z" />
    <glyph glyph-name="mu" unicode="&#x3bc;" horiz-adv-x="567" 
d="M465 62h71v-62h-128l-11 56q-21 -31 -56 -48.5t-77 -17.5q-30 0 -54.5 10t-40.5 26l5 -176v-37h-73v611h-72v65h145v-324q0 -48 27 -79t77 -31q37 0 64.5 19.5t38 47.5t10.5 52v250h-72v65h146v-427z" />
    <glyph glyph-name="pi" unicode="&#x3c0;" horiz-adv-x="618" 
d="M494 62h71v-62h-145v422h-231v-422h-74v422h-97v67h573v-67h-97v-360z" />
    <glyph glyph-name="Wgrave" unicode="&#x1e80;" horiz-adv-x="802" 
d="M400 694l-130 101l50 51l114 -119zM517 0l-116 521l-116 -521h-69l-138 593h-67v64h207v-64h-65l101 -455l114 519h69l114 -521l103 457h-67v64h204v-64h-67l-138 -593h-69z" />
    <glyph glyph-name="wgrave" unicode="&#x1e81;" horiz-adv-x="725" 
d="M365 547l-130 102l50 50l114 -119zM461 0l-98 366l-99 -366h-66l-119 424h-63v65h196v-65h-57l80 -313l97 378h65l97 -378l80 313h-58v65h192v-65h-63l-118 -424h-66z" />
    <glyph glyph-name="Wacute" unicode="&#x1e82;" horiz-adv-x="802" 
d="M530 795l-130 -101l-34 33l114 119zM517 0l-116 521l-116 -521h-69l-138 593h-67v64h207v-64h-65l101 -455l114 519h69l114 -521l103 457h-67v64h204v-64h-67l-138 -593h-69z" />
    <glyph glyph-name="wacute" unicode="&#x1e83;" horiz-adv-x="725" 
d="M496 649l-130 -102l-34 33l114 119zM461 0l-98 366l-99 -366h-66l-119 424h-63v65h196v-65h-57l80 -313l97 378h65l97 -378l80 313h-58v65h192v-65h-63l-118 -424h-66z" />
    <glyph glyph-name="Wdieresis" unicode="&#x1e84;" horiz-adv-x="802" 
d="M413 762q0 18 13.5 30.5t31.5 12.5q17 0 30 -12.5t13 -30.5t-13 -31.5t-30 -13.5q-18 0 -31.5 13.5t-13.5 31.5zM299 762q0 18 13.5 30.5t31.5 12.5t30.5 -12.5t12.5 -30.5t-12.5 -31.5t-30.5 -13.5t-31.5 13.5t-13.5 31.5zM517 0l-116 521l-116 -521h-69l-138 593h-67
v64h207v-64h-65l101 -455l114 519h69l114 -521l103 457h-67v64h204v-64h-67l-138 -593h-69z" />
    <glyph glyph-name="wdieresis" unicode="&#x1e85;" horiz-adv-x="725" 
d="M379 607q0 18 13.5 30.5t31.5 12.5q17 0 30 -12.5t13 -30.5t-13 -31.5t-30 -13.5q-18 0 -31.5 13.5t-13.5 31.5zM265 607q0 18 13.5 30.5t31.5 12.5t30.5 -12.5t12.5 -30.5t-12.5 -31.5t-30.5 -13.5t-31.5 13.5t-13.5 31.5zM461 0l-98 366l-99 -366h-66l-119 424h-63v65
h196v-65h-57l80 -313l97 378h65l97 -378l80 313h-58v65h192v-65h-63l-118 -424h-66z" />
    <glyph glyph-name="Ygrave" unicode="&#x1ef2;" horiz-adv-x="565" 
d="M286 694l-130 101l50 51l114 -119zM399 0h-232v64h78v195l-164 334h-66v64h210v-64h-62l124 -261l124 261h-62v64h201v-64h-65l-164 -333v-196h78v-64z" />
    <glyph glyph-name="ygrave" unicode="&#x1ef3;" horiz-adv-x="526" 
d="M268 547l-130 102l50 50l114 -119zM313 -187h-191v62h61l47 123l-152 426h-63v65h198v-65h-57l111 -325l110 325h-57v65h192v-65h-63l-196 -549h60v-62z" />
    <glyph glyph-name="endash" unicode="&#x2013;" horiz-adv-x="504" 
d="M65 234v58h374v-58h-374z" />
    <glyph glyph-name="emdash" unicode="&#x2014;" horiz-adv-x="788" 
d="M65 234v58h658v-58h-658z" />
    <glyph glyph-name="quoteleft" unicode="&#x2018;" horiz-adv-x="195" 
d="M111 660l33 -21q-22 -33 -37 -69q14 -4 25.5 -16t11.5 -31t-14.5 -33.5t-34.5 -14.5q-21 0 -36 14.5t-15 33.5q0 57 67 137z" />
    <glyph glyph-name="quoteright" unicode="&#x2019;" horiz-adv-x="194" 
d="M86 481l-33 21q22 33 37 69q-14 4 -25.5 16t-11.5 31t14.5 33.5t34.5 14.5q21 0 36 -14.5t15 -33.5q0 -57 -67 -137z" />
    <glyph glyph-name="quotesinglbase" unicode="&#x201a;" horiz-adv-x="207" 
d="M86 -96l-34 21q27 42 38 70q-15 4 -26.5 16t-11.5 31q0 20 14.5 34.5t35.5 14.5t36 -14.5t15 -34.5q0 -58 -67 -138z" />
    <glyph glyph-name="quotedblleft" unicode="&#x201c;" horiz-adv-x="328" 
d="M245 660l33 -21q-22 -33 -37 -69q14 -4 25.5 -16t11.5 -31t-14.5 -33.5t-34.5 -14.5q-21 0 -36 14.5t-15 33.5q0 57 67 137zM111 660l33 -21q-22 -33 -37 -69q14 -4 25.5 -16t11.5 -31t-14.5 -33.5t-34.5 -14.5q-21 0 -36 14.5t-15 33.5q0 57 67 137z" />
    <glyph glyph-name="quotedblright" unicode="&#x201d;" horiz-adv-x="327" 
d="M86 481l-33 21q22 33 37 69q-14 4 -25.5 16t-11.5 31t14.5 33.5t34.5 14.5q21 0 36 -14.5t15 -33.5q0 -57 -67 -137zM219 481l-33 21q22 33 37 69q-14 4 -25.5 16t-11.5 31t14.5 33.5t34.5 14.5q21 0 36 -14.5t15 -33.5q0 -57 -67 -137z" />
    <glyph glyph-name="quotedblbase" unicode="&#x201e;" horiz-adv-x="339" 
d="M85 -94l-33 21q22 33 37 69q-14 4 -25.5 16t-11.5 31t14.5 33.5t34.5 14.5q21 0 36 -14.5t15 -33.5q0 -57 -67 -137zM219 -94l-33 21q22 33 37 69q-14 4 -25.5 16t-11.5 31t14.5 33.5t34.5 14.5q21 0 36 -14.5t15 -33.5q0 -57 -67 -137z" />
    <glyph glyph-name="dagger" unicode="&#x2020;" horiz-adv-x="421" 
d="M247 551l-7 -62h128v-51h-133l12 -443v-106h-72v106l11 443h-132v51h127l-6 62v106h72v-106z" />
    <glyph glyph-name="daggerdbl" unicode="&#x2021;" horiz-adv-x="421" 
d="M247 551l-5 -62h126v-51h-128l-6 -165l6 -165h128v-51h-127l6 -62v-106h-72v106l4 62h-125v51h127l6 165l-6 165h-127v51h124l-3 62v106h72v-106z" />
    <glyph glyph-name="bullet" unicode="&#x2022;" horiz-adv-x="340" 
d="M78 274q0 18 9 39.5t32 37.5t50 16q18 0 39.5 -9.5t37 -32.5t15.5 -51q0 -36 -27.5 -63.5t-64.5 -27.5q-27 0 -50 16t-32 37t-9 38z" />
    <glyph glyph-name="ellipsis" unicode="&#x2026;" horiz-adv-x="574" 
d="M427 38q0 21 14 35t34 14t34.5 -14t14.5 -35q0 -20 -14.5 -34t-34.5 -14t-34 14t-14 34zM239 38q0 21 14 35t34 14t34.5 -14t14.5 -35q0 -20 -14.5 -34t-34.5 -14t-34 14t-14 34zM50 38q0 21 14.5 35t34.5 14t34 -14t14 -35q0 -20 -14 -34t-34 -14t-34.5 14t-14.5 34z
" />
    <glyph glyph-name="perthousand" unicode="&#x2030;" horiz-adv-x="871" 
d="M260 562v-128q0 -35 -17 -60.5t-42.5 -35t-47.5 -9.5t-47.5 9.5t-42.5 35t-17 60.5v128q0 48 28.5 76.5t78.5 28.5q22 0 47.5 -9.5t42.5 -35t17 -60.5zM272 329l192 328h66l-198 -329l-192 -328h-66zM103 563v-130q0 -23 13.5 -38t36.5 -15t36.5 15t13.5 38v130
q0 24 -13.5 38.5t-36.5 14.5t-36.5 -14.5t-13.5 -38.5zM834 224v-128q0 -35 -17 -60.5t-42.5 -35t-47.5 -9.5t-47.5 9.5t-42.5 35t-17 60.5v128q0 48 28.5 76.5t78.5 28.5q22 0 47.5 -9.5t42.5 -35t17 -60.5zM556 224v-128q0 -35 -17 -60.5t-42.5 -35t-47.5 -9.5t-47.5 9.5
t-42.5 35t-17 60.5v128q0 48 28.5 76.5t78.5 28.5q22 0 47.5 -9.5t42.5 -35t17 -60.5zM677 225v-130q0 -23 13.5 -38t36.5 -15t36.5 15t13.5 38v130q0 24 -13.5 38.5t-36.5 14.5t-36.5 -14.5t-13.5 -38.5zM399 225v-130q0 -23 13.5 -38t36.5 -15t36.5 15t13.5 38v130
q0 24 -13.5 38.5t-36.5 14.5t-36.5 -14.5t-13.5 -38.5z" />
    <glyph glyph-name="guilsinglleft" unicode="&#x2039;" horiz-adv-x="237" 
d="M42 233l76 165h62l-65 -165l65 -165h-62z" />
    <glyph glyph-name="guilsinglright" unicode="&#x203a;" horiz-adv-x="237" 
d="M119 398l76 -165l-76 -165h-62l65 165l-65 165h62z" />
    <glyph glyph-name="fraction" unicode="&#x2044;" horiz-adv-x="158" 
d="M49 329l192 328h66l-198 -329l-192 -328h-66z" />
    <glyph glyph-name="uni2070" unicode="&#x2070;" horiz-adv-x="291" 
d="M253 708v-128q0 -35 -17 -60.5t-42.5 -35t-47.5 -9.5t-47.5 9.5t-42.5 35t-17 60.5v128q0 48 28.5 76.5t78.5 28.5q22 0 47.5 -9.5t42.5 -35t17 -60.5zM96 709v-130q0 -23 13.5 -38t36.5 -15t36.5 15t13.5 38v130q0 24 -13.5 38.5t-36.5 14.5t-36.5 -14.5t-13.5 -38.5z
" />
    <glyph glyph-name="uni2074" unicode="&#x2074;" horiz-adv-x="295" 
d="M261 480h-121v46h33v32h-151v53l138 197h69v-203h35v-47h-35v-32h32v-46zM74 605h99v139z" />
    <glyph glyph-name="uni2075" unicode="&#x2075;" horiz-adv-x="279" 
d="M140 475q-47 0 -77 24t-30 63v8h55v-7q0 -18 13 -29t37 -11t37.5 15.5t13.5 42.5q0 26 -12.5 42t-37.5 16q-28 0 -47 -19h-49v188h189v-82h-47v34h-90v-91q21 16 56 16q43 0 69.5 -27.5t26.5 -74.5q0 -36 -17 -62.5t-42.5 -36t-47.5 -9.5z" />
    <glyph glyph-name="uni2076" unicode="&#x2076;" horiz-adv-x="285" 
d="M253 577q0 -35 -17.5 -60t-43 -33.5t-47.5 -8.5q-35 0 -61 16t-35.5 41t-9.5 49v126q0 48 29 77t78 29q21 0 45.5 -8t41 -30.5t16.5 -53.5v-5h-56v5q0 19 -12.5 31t-34.5 12q-23 0 -36.5 -14t-13.5 -38v-54q25 20 60 20q43 0 70 -28t27 -73zM145 631q-31 0 -49 -22v-28
q0 -27 13 -42.5t36 -15.5t36 14t13 38q0 25 -12 40.5t-37 15.5z" />
    <glyph glyph-name="uni2077" unicode="&#x2077;" horiz-adv-x="249" 
d="M116 480h-61l111 280h-93v-42h-48v90h202v-42z" />
    <glyph glyph-name="uni2078" unicode="&#x2078;" horiz-adv-x="281" 
d="M242 723q0 -26 -10.5 -45t-28.5 -28q21 -9 33.5 -29.5t12.5 -49.5q0 -20 -10 -42.5t-36.5 -38t-61.5 -15.5q-48 0 -78 27t-30 69q0 29 12.5 49.5t32.5 29.5q-18 9 -29 28t-11 45q0 39 28.5 64.5t74.5 25.5q45 0 73 -25.5t28 -64.5zM95 718q0 -22 11.5 -35.5t34.5 -13.5
q22 0 33.5 13.5t11.5 35.5t-12 34.5t-33 12.5q-22 0 -34 -12.5t-12 -34.5zM91 574q0 -24 13.5 -38.5t36.5 -14.5t36.5 14.5t13.5 38.5t-13 38.5t-37 14.5q-25 0 -37.5 -14t-12.5 -39z" />
    <glyph glyph-name="uni2079" unicode="&#x2079;" horiz-adv-x="284" 
d="M139 657q32 0 51 23v20q0 30 -13 47.5t-37 17.5q-23 0 -36 -14t-13 -38q0 -25 12 -40.5t36 -15.5zM32 711q0 23 10 47t36.5 39.5t61.5 15.5t61 -16.5t36 -43.5t10 -53v-119q0 -48 -29 -77t-79 -29q-46 0 -74.5 25t-28.5 67v5h55v-5q0 -19 13 -31t34 -12q25 0 38.5 14
t13.5 38v55q-26 -21 -61 -21q-44 0 -70.5 28t-26.5 73z" />
    <glyph glyph-name="uni207D" unicode="&#x207d;" horiz-adv-x="183" 
d="M147 475h5v-51h-5q-48 0 -74.5 27.5t-26.5 73.5v236q0 47 26.5 74t74.5 27h5v-50h-5q-22 0 -33.5 -13t-11.5 -35v-242q0 -22 11.5 -34.5t33.5 -12.5z" />
    <glyph glyph-name="uni207E" unicode="&#x207e;" horiz-adv-x="183" 
d="M31 475h5q22 0 33 12.5t11 34.5v242q0 22 -11 35t-33 13h-5v50h5q48 0 74.5 -27t26.5 -74v-236q0 -46 -26.5 -73.5t-74.5 -27.5h-5v51z" />
    <glyph glyph-name="uni2080" unicode="&#x2080;" horiz-adv-x="291" 
d="M253 81v-128q0 -35 -17 -60.5t-42.5 -35t-47.5 -9.5t-47.5 9.5t-42.5 35t-17 60.5v128q0 48 28.5 76.5t78.5 28.5q22 0 47.5 -9.5t42.5 -35t17 -60.5zM96 82v-130q0 -23 13.5 -38t36.5 -15t36.5 15t13.5 38v130q0 24 -13.5 38.5t-36.5 14.5t-36.5 -14.5t-13.5 -38.5z" />
    <glyph glyph-name="uni2081" unicode="&#x2081;" horiz-adv-x="226" 
d="M32 131v50h114v-280h58v-48h-172v48h57v230h-57z" />
    <glyph glyph-name="uni2082" unicode="&#x2082;" horiz-adv-x="283" 
d="M246 -147h-213v27q0 75 58 114l57 37q38 26 38 62q0 19 -12 30.5t-34 11.5q-23 0 -36 -12.5t-13 -32.5v-9h-56v9q0 20 10 42.5t36 38t60 15.5q22 0 46.5 -8t41 -30t16.5 -53q0 -60 -59 -100l-58 -39q-29 -20 -32 -53h104v41h46v-91z" />
    <glyph glyph-name="uni2083" unicode="&#x2083;" horiz-adv-x="278" 
d="M109 0v44h24q50 0 50 46q0 21 -12.5 33t-34.5 12t-35 -12.5t-13 -32.5v-7h-55v8q0 41 29.5 68t75.5 27t74 -25t28 -64q0 -53 -39 -73q44 -22 44 -80q0 -32 -17 -55.5t-42.5 -32t-48.5 -8.5q-22 0 -47.5 8.5t-42 32t-16.5 54.5v8h55v-8q0 -20 13.5 -33t36.5 -13
q24 0 37.5 14t13.5 39q0 22 -14 36t-40 14h-24z" />
    <glyph glyph-name="uni2084" unicode="&#x2084;" horiz-adv-x="295" 
d="M261 -147h-121v46h33v32h-151v53l138 197h69v-203h35v-47h-35v-32h32v-46zM74 -22h99v139z" />
    <glyph glyph-name="uni2085" unicode="&#x2085;" horiz-adv-x="279" 
d="M140 -152q-47 0 -77 24t-30 63v8h55v-7q0 -18 13 -29t37 -11t37.5 15.5t13.5 42.5q0 26 -12.5 42t-37.5 16q-28 0 -47 -19h-49v188h189v-82h-47v34h-90v-91q21 16 56 16q43 0 69.5 -27.5t26.5 -74.5q0 -36 -17 -62.5t-42.5 -36t-47.5 -9.5z" />
    <glyph glyph-name="uni2086" unicode="&#x2086;" horiz-adv-x="285" 
d="M253 -50q0 -35 -17.5 -60t-43 -33.5t-47.5 -8.5q-35 0 -61 16t-35.5 41t-9.5 49v126q0 48 29 77t78 29q21 0 45.5 -8t41 -30.5t16.5 -53.5v-5h-56v5q0 19 -12.5 31t-34.5 12q-23 0 -36.5 -14t-13.5 -38v-54q25 20 60 20q43 0 70 -28t27 -73zM145 4q-31 0 -49 -22v-28
q0 -27 13 -42.5t36 -15.5t36 14t13 38q0 25 -12 40.5t-37 15.5z" />
    <glyph glyph-name="uni2087" unicode="&#x2087;" horiz-adv-x="249" 
d="M116 -147h-61l111 280h-93v-42h-48v90h202v-42z" />
    <glyph glyph-name="uni2088" unicode="&#x2088;" horiz-adv-x="281" 
d="M242 96q0 -26 -10.5 -45t-28.5 -28q21 -9 33.5 -29.5t12.5 -49.5q0 -20 -10 -42.5t-36.5 -38t-61.5 -15.5q-48 0 -78 27t-30 69q0 29 12.5 49.5t32.5 29.5q-18 9 -29 28t-11 45q0 39 28.5 64.5t74.5 25.5q45 0 73 -25.5t28 -64.5zM95 91q0 -22 11.5 -35.5t34.5 -13.5
q22 0 33.5 13.5t11.5 35.5t-12 34.5t-33 12.5q-22 0 -34 -12.5t-12 -34.5zM91 -53q0 -24 13.5 -38.5t36.5 -14.5t36.5 14.5t13.5 38.5t-13 38.5t-37 14.5q-25 0 -37.5 -14t-12.5 -39z" />
    <glyph glyph-name="uni2089" unicode="&#x2089;" horiz-adv-x="284" 
d="M139 30q32 0 51 23v20q0 30 -13 47.5t-37 17.5q-23 0 -36 -14t-13 -38q0 -25 12 -40.5t36 -15.5zM32 84q0 23 10 47t36.5 39.5t61.5 15.5t61 -16.5t36 -43.5t10 -53v-119q0 -48 -29 -77t-79 -29q-46 0 -74.5 25t-28.5 67v5h55v-5q0 -19 13 -31t34 -12q25 0 38.5 14
t13.5 38v55q-26 -21 -61 -21q-44 0 -70.5 28t-26.5 73z" />
    <glyph glyph-name="uni208D" unicode="&#x208d;" horiz-adv-x="183" 
d="M147 -152h5v-51h-5q-48 0 -74.5 27.5t-26.5 73.5v236q0 47 26.5 74t74.5 27h5v-50h-5q-22 0 -33.5 -13t-11.5 -35v-242q0 -22 11.5 -34.5t33.5 -12.5z" />
    <glyph glyph-name="uni208E" unicode="&#x208e;" horiz-adv-x="183" 
d="M31 -152h5q22 0 33 12.5t11 34.5v242q0 22 -11 35t-33 13h-5v50h5q48 0 74.5 -27t26.5 -74v-236q0 -46 -26.5 -73.5t-74.5 -27.5h-5v51z" />
    <glyph glyph-name="franc" unicode="&#x20a3;" horiz-adv-x="537" 
d="M132 64v166h-63v59h63v77h-63v59h63v168h-76v64h450v-150h-67v81h-231v-163h181v-59h-181v-77h181v-59h-181v-166h94v-64h-246v64h76z" />
    <glyph glyph-name="lira" unicode="&#x20a4;" horiz-adv-x="560" 
d="M502 0h-451v65h64v133h-64v53h64v78h-64v53h64v79q0 93 53.5 149.5t137.5 56.5q40 0 73.5 -15.5t55.5 -44.5v50h64v-202h-61v20q0 54 -33.5 89.5t-90.5 35.5q-60 0 -92 -39.5t-32 -97.5v-81h172v-53h-172v-78h172v-53h-172v-133h244v88h68v-153z" />
    <glyph glyph-name="peseta" unicode="&#x20a7;" horiz-adv-x="1307" 
d="M120 64v529h-76v64h277q35 0 67.5 -8.5t59 -24.5t46.5 -38.5t34.5 -57t14.5 -80.5q0 -95 -62.5 -154t-159.5 -59h-125v-171h94v-64h-246v64h76zM583 424v62h78v133h73v-133h127v-62h-127v-270q0 -41 23 -66t66 -25h38v-63h-41q-76 0 -117.5 40.5t-41.5 118.5v265h-78z
M316 590h-120v-288h120q68 0 108.5 40t40.5 105t-40.5 104t-108.5 39zM1091 -10q-39 0 -72 13t-54 36v-39h-62v151h61v-16q0 -38 32 -62.5t85 -24.5q50 0 77.5 23t27.5 59q0 29 -15.5 47t-49.5 28l-96 29q-35 10 -62 29t-39 45t-12 54q0 41 23 72.5t57.5 48t76.5 16.5
q76 0 117 -46v36h60v-141h-59v12q0 25 -16.5 45.5t-42.5 28.5t-50 8q-27 0 -51.5 -10.5t-35 -28.5t-10.5 -35q0 -47 61 -66l84 -25q46 -14 74 -31.5t43 -43t15 -63.5q0 -66 -46 -107.5t-121 -41.5z" />
    <glyph glyph-name="Euro" unicode="&#x20ac;" horiz-adv-x="574" 
d="M518 189q0 -91 -56.5 -145t-149.5 -54q-45 0 -83.5 14.5t-66.5 42t-43 67t-15 86.5v41h-64v53h64v78h-64v53h64v32q0 96 54.5 153t145.5 57q95 0 145 -62v52h67v-203h-66v16q0 26 -12 56.5t-44.5 51t-80.5 20.5q-47 0 -79 -22t-43.5 -55.5t-11.5 -61.5v-34h144v-53h-144
v-78h144v-53h-144v-43q0 -28 11.5 -61.5t43 -55.5t77.5 -22q23 0 47 6.5t45 23.5t31.5 44.5t10.5 53.5v21h73v-19z" />
    <glyph glyph-name="afii61289" unicode="&#x2113;" horiz-adv-x="458" 
d="M416 0h-118q-81 0 -128 46t-47 131v42l-60 -42l-38 59l98 67v204q0 75 42 118.5t111 43.5t109.5 -41t40.5 -101q0 -39 -16.5 -73t-40.5 -56.5t-44 -36.5l-129 -91v-98q0 -51 27.5 -80t78.5 -29h114v-63zM196 510v-157l90 62q71 47 71 110q0 35 -21.5 58t-58.5 23t-59 -27
t-22 -69z" />
    <glyph glyph-name="trademark" unicode="&#x2122;" horiz-adv-x="871" 
d="M167 332v273h-78v-47h-46v99h310v-99h-47v47h-78v-273h54v-43h-169v43h54zM698 332v219l-87 -164h-36l-86 162v-217h52v-43h-162v43h53v281h-53v44h108l107 -192l106 192h109v-44h-53v-281h53v-43h-163v43h52z" />
    <glyph glyph-name="uni2126" unicode="&#x2126;" horiz-adv-x="589" 
d="M363 0v77q35 14 54.5 47t19.5 76v259q0 61 -38 100t-104 39t-104.5 -39t-38.5 -100v-259q0 -43 19.5 -76t54.5 -47v-77h-180v58h105q-75 47 -75 158v241q0 96 59.5 153t159.5 57t159 -57t59 -153v-241q0 -111 -76 -158h106v-58h-180z" />
    <glyph glyph-name="estimated" unicode="&#x212e;" horiz-adv-x="758" 
d="M602 140h67q-45 -69 -121 -110t-163 -41q-68 0 -130.5 26t-109 72.5t-73 109t-26.5 130.5q0 86 42.5 164.5t122 127t174.5 48.5q68 0 130.5 -26.5t109.5 -73.5t73.5 -109.5t26.5 -130.5v-8h-554v-181q38 -45 94.5 -71.5t119.5 -26.5t120.5 27t96.5 73zM385 616
q-62 0 -119 -27t-95 -73v-147h429v146q-28 34 -67.5 58.5t-78.5 33.5t-69 9z" />
    <glyph glyph-name="onethird" unicode="&#x2153;" horiz-adv-x="620" 
d="M286 329l192 328h66l-198 -329l-192 -328h-66zM47 607v50h114v-280h58v-48h-172v48h57v230h-57zM443 147v44h24q50 0 50 46q0 21 -12.5 33t-34.5 12t-35 -12.5t-13 -32.5v-7h-55v8q0 41 29.5 68t75.5 27t74 -25t28 -64q0 -53 -39 -73q44 -22 44 -80q0 -32 -17 -55.5
t-42.5 -32t-48.5 -8.5q-22 0 -47.5 8.5t-42 32t-16.5 54.5v8h55v-8q0 -20 13.5 -33t36.5 -13q24 0 37.5 14t13.5 39q0 22 -14 36t-40 14h-24z" />
    <glyph glyph-name="twothirds" unicode="&#x2154;" horiz-adv-x="649" 
d="M256 329h-213v27q0 75 58 114l57 37q38 26 38 62q0 19 -12 30.5t-34 11.5q-23 0 -36 -12.5t-13 -32.5v-9h-56v9q0 20 10 42.5t36 38t60 15.5q22 0 46.5 -8t41 -30t16.5 -53q0 -60 -59 -100l-58 -39q-29 -20 -32 -53h104v41h46v-91zM315 329l192 328h66l-198 -329
l-192 -328h-66zM472 147v44h24q50 0 50 46q0 21 -12.5 33t-34.5 12t-35 -12.5t-13 -32.5v-7h-55v8q0 41 29.5 68t75.5 27t74 -25t28 -64q0 -53 -39 -73q44 -22 44 -80q0 -32 -17 -55.5t-42.5 -32t-48.5 -8.5q-22 0 -47.5 8.5t-42 32t-16.5 54.5v8h55v-8q0 -20 13.5 -33
t36.5 -13q24 0 37.5 14t13.5 39q0 22 -14 36t-40 14h-24z" />
    <glyph glyph-name="uni2155" unicode="&#x2155;" horiz-adv-x="633" 
d="M47 607v50h114v-280h58v-48h-172v48h57v230h-57zM286 329l192 328h66l-198 -329l-192 -328h-66zM485 -5q-47 0 -77 24t-30 63v8h55v-7q0 -18 13 -29t37 -11t37.5 15.5t13.5 42.5q0 26 -12.5 42t-37.5 16q-28 0 -47 -19h-49v188h189v-82h-47v34h-90v-91q21 16 56 16
q43 0 69.5 -27.5t26.5 -74.5q0 -36 -17 -62.5t-42.5 -36t-47.5 -9.5z" />
    <glyph glyph-name="uni2156" unicode="&#x2156;" horiz-adv-x="660" 
d="M256 329h-213v27q0 75 58 114l57 37q38 26 38 62q0 19 -12 30.5t-34 11.5q-23 0 -36 -12.5t-13 -32.5v-9h-56v9q0 20 10 42.5t36 38t60 15.5q22 0 46.5 -8t41 -30t16.5 -53q0 -60 -59 -100l-58 -39q-29 -20 -32 -53h104v41h46v-91zM312 329l192 328h66l-198 -329
l-192 -328h-66zM512 -5q-47 0 -77 24t-30 63v8h55v-7q0 -18 13 -29t37 -11t37.5 15.5t13.5 42.5q0 26 -12.5 42t-37.5 16q-28 0 -47 -19h-49v188h189v-82h-47v34h-90v-91q21 16 56 16q43 0 69.5 -27.5t26.5 -74.5q0 -36 -17 -62.5t-42.5 -36t-47.5 -9.5z" />
    <glyph glyph-name="uni2157" unicode="&#x2157;" horiz-adv-x="631" 
d="M283 329l192 328h66l-198 -329l-192 -328h-66zM120 479v44h24q50 0 50 46q0 21 -12.5 33t-34.5 12t-35 -12.5t-13 -32.5v-7h-55v8q0 41 29.5 68t75.5 27t74 -25t28 -64q0 -53 -39 -73q44 -22 44 -80q0 -32 -17 -55.5t-42.5 -32t-48.5 -8.5q-22 0 -47.5 8.5t-42 32
t-16.5 54.5v8h55v-8q0 -20 13.5 -33t36.5 -13q24 0 37.5 14t13.5 39q0 22 -14 36t-40 14h-24zM483 -5q-47 0 -77 24t-30 63v8h55v-7q0 -18 13 -29t37 -11t37.5 15.5t13.5 42.5q0 26 -12.5 42t-37.5 16q-28 0 -47 -19h-49v188h189v-82h-47v34h-90v-91q21 16 56 16
q43 0 69.5 -27.5t26.5 -74.5q0 -36 -17 -62.5t-42.5 -36t-47.5 -9.5z" />
    <glyph glyph-name="uni2158" unicode="&#x2158;" horiz-adv-x="653" 
d="M304 329l192 328h66l-198 -329l-192 -328h-66zM270 329h-121v46h33v32h-151v53l138 197h69v-203h35v-47h-35v-32h32v-46zM83 454h99v139zM504 -5q-47 0 -77 24t-30 63v8h55v-7q0 -18 13 -29t37 -11t37.5 15.5t13.5 42.5q0 26 -12.5 42t-37.5 16q-28 0 -47 -19h-49v188
h189v-82h-47v34h-90v-91q21 16 56 16q43 0 69.5 -27.5t26.5 -74.5q0 -36 -17 -62.5t-42.5 -36t-47.5 -9.5z" />
    <glyph glyph-name="uni2159" unicode="&#x2159;" horiz-adv-x="628" 
d="M286 329l192 328h66l-198 -329l-192 -328h-66zM47 607v50h114v-280h58v-48h-172v48h57v230h-57zM586 97q0 -35 -17.5 -60t-43 -33.5t-47.5 -8.5q-35 0 -61 16t-35.5 41t-9.5 49v126q0 48 29 77t78 29q21 0 45.5 -8t41 -30.5t16.5 -53.5v-5h-56v5q0 19 -12.5 31t-34.5 12
q-23 0 -36.5 -14t-13.5 -38v-54q25 20 60 20q43 0 70 -28t27 -73zM478 151q-31 0 -49 -22v-28q0 -27 13 -42.5t36 -15.5t36 14t13 38q0 25 -12 40.5t-37 15.5z" />
    <glyph glyph-name="uni215A" unicode="&#x215a;" horiz-adv-x="628" 
d="M286 329l192 328h66l-198 -329l-192 -328h-66zM149 324q-47 0 -77 24t-30 63v8h55v-7q0 -18 13 -29t37 -11t37.5 15.5t13.5 42.5q0 26 -12.5 42t-37.5 16q-28 0 -47 -19h-49v188h189v-82h-47v34h-90v-91q21 16 56 16q43 0 69.5 -27.5t26.5 -74.5q0 -36 -17 -62.5
t-42.5 -36t-47.5 -9.5zM587 97q0 -35 -17.5 -60t-43 -33.5t-47.5 -8.5q-35 0 -61 16t-35.5 41t-9.5 49v126q0 48 29 77t78 29q21 0 45.5 -8t41 -30.5t16.5 -53.5v-5h-56v5q0 19 -12.5 31t-34.5 12q-23 0 -36.5 -14t-13.5 -38v-54q25 20 60 20q43 0 70 -28t27 -73zM479 151
q-31 0 -49 -22v-28q0 -27 13 -42.5t36 -15.5t36 14t13 38q0 25 -12 40.5t-37 15.5z" />
    <glyph glyph-name="oneeighth" unicode="&#x215b;" horiz-adv-x="623" 
d="M47 607v50h114v-280h58v-48h-172v48h57v230h-57zM286 329l192 328h66l-198 -329l-192 -328h-66zM575 243q0 -26 -10.5 -45t-28.5 -28q21 -9 33.5 -29.5t12.5 -49.5q0 -20 -10 -42.5t-36.5 -38t-61.5 -15.5q-48 0 -78 27t-30 69q0 29 12.5 49.5t32.5 29.5q-18 9 -29 28
t-11 45q0 39 28.5 64.5t74.5 25.5q45 0 73 -25.5t28 -64.5zM428 238q0 -22 11.5 -35.5t34.5 -13.5q22 0 33.5 13.5t11.5 35.5t-12 34.5t-33 12.5q-22 0 -34 -12.5t-12 -34.5zM424 94q0 -24 13.5 -38.5t36.5 -14.5t36.5 14.5t13.5 38.5t-13 38.5t-37 14.5q-25 0 -37.5 -14
t-12.5 -39z" />
    <glyph glyph-name="threeeighths" unicode="&#x215c;" horiz-adv-x="621" 
d="M285 329l192 328h66l-198 -329l-192 -328h-66zM120 479v44h24q50 0 50 46q0 21 -12.5 33t-34.5 12t-35 -12.5t-13 -32.5v-7h-55v8q0 41 29.5 68t75.5 27t74 -25t28 -64q0 -53 -39 -73q44 -22 44 -80q0 -32 -17 -55.5t-42.5 -32t-48.5 -8.5q-22 0 -47.5 8.5t-42 32
t-16.5 54.5v8h55v-8q0 -20 13.5 -33t36.5 -13q24 0 37.5 14t13.5 39q0 22 -14 36t-40 14h-24zM574 243q0 -26 -10.5 -45t-28.5 -28q21 -9 33.5 -29.5t12.5 -49.5q0 -20 -10 -42.5t-36.5 -38t-61.5 -15.5q-48 0 -78 27t-30 69q0 29 12.5 49.5t32.5 29.5q-18 9 -29 28t-11 45
q0 39 28.5 64.5t74.5 25.5q45 0 73 -25.5t28 -64.5zM427 238q0 -22 11.5 -35.5t34.5 -13.5q22 0 33.5 13.5t11.5 35.5t-12 34.5t-33 12.5q-22 0 -34 -12.5t-12 -34.5zM423 94q0 -24 13.5 -38.5t36.5 -14.5t36.5 14.5t13.5 38.5t-13 38.5t-37 14.5q-25 0 -37.5 -14t-12.5 -39
z" />
    <glyph glyph-name="fiveeighths" unicode="&#x215d;" horiz-adv-x="623" 
d="M286 329l192 328h66l-198 -329l-192 -328h-66zM149 324q-47 0 -77 24t-30 63v8h55v-7q0 -18 13 -29t37 -11t37.5 15.5t13.5 42.5q0 26 -12.5 42t-37.5 16q-28 0 -47 -19h-49v188h189v-82h-47v34h-90v-91q21 16 56 16q43 0 69.5 -27.5t26.5 -74.5q0 -36 -17 -62.5
t-42.5 -36t-47.5 -9.5zM575 243q0 -26 -10.5 -45t-28.5 -28q21 -9 33.5 -29.5t12.5 -49.5q0 -20 -10 -42.5t-36.5 -38t-61.5 -15.5q-48 0 -78 27t-30 69q0 29 12.5 49.5t32.5 29.5q-18 9 -29 28t-11 45q0 39 28.5 64.5t74.5 25.5q45 0 73 -25.5t28 -64.5zM428 238
q0 -22 11.5 -35.5t34.5 -13.5q22 0 33.5 13.5t11.5 35.5t-12 34.5t-33 12.5q-22 0 -34 -12.5t-12 -34.5zM424 94q0 -24 13.5 -38.5t36.5 -14.5t36.5 14.5t13.5 38.5t-13 38.5t-37 14.5q-25 0 -37.5 -14t-12.5 -39z" />
    <glyph glyph-name="seveneighths" unicode="&#x215e;" horiz-adv-x="600" 
d="M256 329l192 328h66l-198 -329l-192 -328h-66zM133 329h-61l111 280h-93v-42h-48v90h202v-42zM553 243q0 -26 -10.5 -45t-28.5 -28q21 -9 33.5 -29.5t12.5 -49.5q0 -20 -10 -42.5t-36.5 -38t-61.5 -15.5q-48 0 -78 27t-30 69q0 29 12.5 49.5t32.5 29.5q-18 9 -29 28
t-11 45q0 39 28.5 64.5t74.5 25.5q45 0 73 -25.5t28 -64.5zM406 238q0 -22 11.5 -35.5t34.5 -13.5q22 0 33.5 13.5t11.5 35.5t-12 34.5t-33 12.5q-22 0 -34 -12.5t-12 -34.5zM402 94q0 -24 13.5 -38.5t36.5 -14.5t36.5 14.5t13.5 38.5t-13 38.5t-37 14.5q-25 0 -37.5 -14
t-12.5 -39z" />
    <glyph glyph-name="uni215F" unicode="&#x215f;" horiz-adv-x="335" 
d="M282 329l192 328h66l-198 -329l-192 -328h-66zM43 607v50h114v-280h58v-48h-172v48h57v230h-57z" />
    <glyph glyph-name="partialdiff" unicode="&#x2202;" horiz-adv-x="494" 
d="M423 332v-152q0 -32 -9 -65t-31 -60.5t-58.5 -46t-87.5 -18.5q-41 0 -75.5 13t-59.5 38t-38.5 60.5t-13.5 78.5v90q0 87 48.5 138.5t128.5 51.5q41 0 73.5 -17.5t51.5 -48.5q-6 79 -27.5 130t-56 77t-82.5 26q-47 0 -85 -17l-17 55q21 9 51.5 15.5t57.5 6.5
q73 0 125.5 -37.5t78.5 -116t26 -201.5zM123 276v-102q0 -52 30.5 -86.5t83.5 -34.5q52 0 82.5 34.5t30.5 86.5v102q0 52 -30.5 86.5t-82.5 34.5q-53 0 -83.5 -34.5t-30.5 -86.5z" />
    <glyph glyph-name="uni2206" unicode="&#x2206;" horiz-adv-x="518" 
d="M24 0l196 657h78l196 -657h-470zM394 68l-137 471l-137 -471h274z" />
    <glyph glyph-name="product" unicode="&#x220f;" horiz-adv-x="636" 
d="M605 657v-64h-76v-593h-76v588h-270v-588h-76v593h-76v64h574z" />
    <glyph glyph-name="summation" unicode="&#x2211;" horiz-adv-x="540" 
d="M494 0h-458v64l233 271l-223 258v64h423v-152h-68v83h-252l212 -253l-229 -264h294v81h68v-152z" />
    <glyph glyph-name="minus" unicode="&#x2212;" horiz-adv-x="508" 
d="M64 296v66h381v-66h-381z" />
    <glyph glyph-name="uni2215" unicode="&#x2215;" horiz-adv-x="158" 
d="M49 329l192 328h66l-198 -329l-192 -328h-66z" />
    <glyph glyph-name="uni2219" unicode="&#x2219;" horiz-adv-x="300" 
d="M58 274q0 18 9 39.5t32 37.5t50 16q18 0 39.5 -9.5t37 -32.5t15.5 -51q0 -36 -27.5 -63.5t-64.5 -27.5q-27 0 -50 16t-32 37t-9 38z" />
    <glyph glyph-name="radical" unicode="&#x221a;" horiz-adv-x="561" 
d="M322 -92h-72l-148 484h-82v62h143l126 -428l193 661h70z" />
    <glyph glyph-name="infinity" unicode="&#x221e;" horiz-adv-x="745" 
d="M549 120q-32 0 -69.5 17.5t-106.5 82.5q-101 -99 -180 -99h-1q-61 0 -102 41t-41 105q0 28 11 54t31 47t47.5 33t57.5 12q32 0 70 -17.5t107 -82.5q60 58 103 78.5t76 20.5h1q61 0 102 -41t41 -105q0 -28 -11 -54t-31 -47t-47.5 -33t-57.5 -12zM192 187h1q57 0 133 78
q-40 41 -69.5 61.5t-60.5 20.5q-34 0 -57.5 -23.5t-23.5 -56.5q0 -35 22 -57.5t55 -22.5zM553 346h-1q-25 0 -56 -16t-77 -62q40 -41 69.5 -61.5t60.5 -20.5q34 0 57.5 23.5t23.5 56.5q0 34 -22 57t-55 23z" />
    <glyph glyph-name="integral" unicode="&#x222b;" horiz-adv-x="356" 
d="M142 30v545q0 81 42 124t121 43h42v-63h-38q-94 0 -94 -99v-545q0 -80 -42 -123.5t-122 -43.5h-42v63h39q94 0 94 99z" />
    <glyph glyph-name="approxequal" unicode="&#x2248;" horiz-adv-x="531" 
d="M424 459l47 -29q-47 -94 -113 -94q-19 0 -39 7t-52 30q-24 15 -38.5 22.5t-31.5 7.5q-27 0 -48 -21t-43 -60l-46 29q51 113 138 113q14 0 33.5 -5t64.5 -33q24 -16 36.5 -22.5t25.5 -6.5q14 0 30 12.5t36 49.5zM424 269l47 -28q-47 -94 -113 -94q-18 0 -38 7t-53 29
q-22 15 -37.5 23t-32.5 8q-20 0 -41.5 -16t-49.5 -66l-46 30q51 112 138 112q14 0 33.5 -5t64.5 -33q24 -16 36.5 -22.5t25.5 -6.5q14 0 30 12.5t36 49.5z" />
    <glyph glyph-name="notequal" unicode="&#x2260;" horiz-adv-x="506" 
d="M64 387v63h219l57 112h59l-57 -112h100v-63h-131l-58 -115h189v-63h-219l-57 -112h-58l56 112h-100v63h131l58 115h-189z" />
    <glyph glyph-name="lessequal" unicode="&#x2264;" horiz-adv-x="513" 
d="M66 338v58l379 124v-66l-288 -85l288 -88v-67zM66 110v54h379v-54h-379z" />
    <glyph glyph-name="greaterequal" unicode="&#x2265;" horiz-adv-x="513" 
d="M447 396v-58l-379 -124v67l288 88l-288 85v66zM447 164v-54h-379v54h379z" />
    <glyph glyph-name="lozenge" unicode="&#x25ca;" horiz-adv-x="497" 
d="M280 670l189 -342l-189 -341h-63l-189 341l189 342h63zM248 74l137 254l-137 255l-138 -255z" />
    <glyph glyph-name="uniF629" unicode="&#xf629;" horiz-adv-x="259" 
d="M225 129q0 -36 -19.5 -60.5t-55.5 -29.5v-44h-40v43q-37 6 -57.5 32.5t-20.5 63.5v61q0 38 20.5 64t57.5 30v44h40v-46q21 -6 33 -21v21h42v-88h-51v6q0 17 -12 28.5t-32 11.5q-19 0 -30 -13.5t-11 -33.5v-67q0 -21 11 -34.5t30 -13.5q21 0 32 11.5t11 31.5v7h52v-4z" />
    <glyph glyph-name="uniF62A" unicode="&#xf62a;" horiz-adv-x="279" 
d="M159 -54h-41v51q-23 5 -41 22v-21h-44v102h51v-12q0 -21 14.5 -34t40.5 -13q25 0 39.5 13t14.5 34q0 14 -7.5 26t-32.5 22l-44 18q-70 29 -70 89q0 32 21.5 57.5t57.5 31.5v50h41v-52q21 -4 37 -22v23h45v-100h-51v9q0 20 -14 33.5t-37 13.5q-21 0 -33.5 -11t-12.5 -28
q0 -12 8 -23.5t22 -17.5l45 -18q46 -18 63 -42t17 -54q0 -38 -24 -65t-65 -32v-50z" />
    <glyph glyph-name="uniF62B" unicode="&#xf62b;" horiz-adv-x="204" 
d="M42 105v49h119v-49h-119z" />
    <glyph glyph-name="uniF62C" unicode="&#xf62c;" horiz-adv-x="183" 
d="M147 -5h5v-51h-5q-48 0 -74.5 27.5t-26.5 73.5v236q0 47 26.5 74t74.5 27h5v-50h-5q-22 0 -33.5 -13t-11.5 -35v-242q0 -22 11.5 -34.5t33.5 -12.5z" />
    <glyph glyph-name="uniF62D" unicode="&#xf62d;" horiz-adv-x="183" 
d="M31 -5h5q22 0 33 12.5t11 34.5v242q0 22 -11 35t-33 13h-5v50h5q48 0 74.5 -27t26.5 -74v-236q0 -46 -26.5 -73.5t-74.5 -27.5h-5v51z" />
    <glyph glyph-name="uniF62E" unicode="&#xf62e;" horiz-adv-x="262" 
d="M226 459q0 -36 -19.5 -60.5t-55.5 -29.5v-44h-40v43q-37 6 -57.5 32.5t-20.5 63.5v61q0 38 20.5 64t57.5 30v44h40v-46q21 -6 33 -21v21h42v-88h-51v6q0 17 -12 28.5t-32 11.5q-19 0 -30 -13.5t-11 -33.5v-67q0 -21 11 -34.5t30 -13.5q21 0 32 11.5t11 31.5v7h52v-4z" />
    <glyph glyph-name="uniF62F" unicode="&#xf62f;" horiz-adv-x="279" 
d="M158 276h-41v51q-23 5 -41 22v-21h-44v102h51v-12q0 -21 14.5 -34t40.5 -13q25 0 39.5 13t14.5 34q0 14 -7.5 26t-32.5 22l-44 18q-70 29 -70 89q0 32 21.5 57.5t57.5 31.5v50h41v-52q21 -4 37 -22v23h45v-100h-51v9q0 20 -14 33.5t-37 13.5q-21 0 -33.5 -11t-12.5 -28
q0 -12 8 -23.5t22 -17.5l45 -18q46 -18 63 -42t17 -54q0 -38 -24 -65t-65 -32v-50z" />
    <glyph glyph-name="uniF630" unicode="&#xf630;" horiz-adv-x="202" 
d="M41 435v49h119v-49h-119z" />
    <glyph glyph-name="uniF631" unicode="&#xf631;" horiz-adv-x="183" 
d="M147 325h5v-51h-5q-48 0 -74.5 27.5t-26.5 73.5v236q0 47 26.5 74t74.5 27h5v-50h-5q-22 0 -33.5 -13t-11.5 -35v-242q0 -22 11.5 -34.5t33.5 -12.5z" />
    <glyph glyph-name="uniF632" unicode="&#xf632;" horiz-adv-x="183" 
d="M31 325h5q22 0 33 12.5t11 34.5v242q0 22 -11 35t-33 13h-5v50h5q48 0 74.5 -27t26.5 -74v-236q0 -46 -26.5 -73.5t-74.5 -27.5h-5v51z" />
    <glyph glyph-name="uniF655" unicode="&#xf655;" horiz-adv-x="291" 
d="M253 228v-128q0 -35 -17 -60.5t-42.5 -35t-47.5 -9.5t-47.5 9.5t-42.5 35t-17 60.5v128q0 48 28.5 76.5t78.5 28.5q22 0 47.5 -9.5t42.5 -35t17 -60.5zM96 229v-130q0 -23 13.5 -38t36.5 -15t36.5 15t13.5 38v130q0 24 -13.5 38.5t-36.5 14.5t-36.5 -14.5t-13.5 -38.5z
" />
    <glyph glyph-name="uniF656" unicode="&#xf656;" horiz-adv-x="226" 
d="M32 278v50h114v-280h58v-48h-172v48h57v230h-57z" />
    <glyph glyph-name="uniF657" unicode="&#xf657;" horiz-adv-x="283" 
d="M246 0h-213v27q0 75 58 114l57 37q38 26 38 62q0 19 -12 30.5t-34 11.5q-23 0 -36 -12.5t-13 -32.5v-9h-56v9q0 20 10 42.5t36 38t60 15.5q22 0 46.5 -8t41 -30t16.5 -53q0 -60 -59 -100l-58 -39q-29 -20 -32 -53h104v41h46v-91z" />
    <glyph glyph-name="uniF658" unicode="&#xf658;" horiz-adv-x="278" 
d="M109 147v44h24q50 0 50 46q0 21 -12.5 33t-34.5 12t-35 -12.5t-13 -32.5v-7h-55v8q0 41 29.5 68t75.5 27t74 -25t28 -64q0 -53 -39 -73q44 -22 44 -80q0 -32 -17 -55.5t-42.5 -32t-48.5 -8.5q-22 0 -47.5 8.5t-42 32t-16.5 54.5v8h55v-8q0 -20 13.5 -33t36.5 -13
q24 0 37.5 14t13.5 39q0 22 -14 36t-40 14h-24z" />
    <glyph glyph-name="uniF659" unicode="&#xf659;" horiz-adv-x="295" 
d="M261 0h-121v46h33v32h-151v53l138 197h69v-203h35v-47h-35v-32h32v-46zM74 125h99v139z" />
    <glyph glyph-name="uniF65A" unicode="&#xf65a;" horiz-adv-x="279" 
d="M140 -5q-47 0 -77 24t-30 63v8h55v-7q0 -18 13 -29t37 -11t37.5 15.5t13.5 42.5q0 26 -12.5 42t-37.5 16q-28 0 -47 -19h-49v188h189v-82h-47v34h-90v-91q21 16 56 16q43 0 69.5 -27.5t26.5 -74.5q0 -36 -17 -62.5t-42.5 -36t-47.5 -9.5z" />
    <glyph glyph-name="uniF65B" unicode="&#xf65b;" horiz-adv-x="285" 
d="M253 97q0 -35 -17.5 -60t-43 -33.5t-47.5 -8.5q-35 0 -61 16t-35.5 41t-9.5 49v126q0 48 29 77t78 29q21 0 45.5 -8t41 -30.5t16.5 -53.5v-5h-56v5q0 19 -12.5 31t-34.5 12q-23 0 -36.5 -14t-13.5 -38v-54q25 20 60 20q43 0 70 -28t27 -73zM145 151q-31 0 -49 -22v-28
q0 -27 13 -42.5t36 -15.5t36 14t13 38q0 25 -12 40.5t-37 15.5z" />
    <glyph glyph-name="uniF65C" unicode="&#xf65c;" horiz-adv-x="249" 
d="M116 0h-61l111 280h-93v-42h-48v90h202v-42z" />
    <glyph glyph-name="uniF65D" unicode="&#xf65d;" horiz-adv-x="281" 
d="M242 243q0 -26 -10.5 -45t-28.5 -28q21 -9 33.5 -29.5t12.5 -49.5q0 -20 -10 -42.5t-36.5 -38t-61.5 -15.5q-48 0 -78 27t-30 69q0 29 12.5 49.5t32.5 29.5q-18 9 -29 28t-11 45q0 39 28.5 64.5t74.5 25.5q45 0 73 -25.5t28 -64.5zM95 238q0 -22 11.5 -35.5t34.5 -13.5
q22 0 33.5 13.5t11.5 35.5t-12 34.5t-33 12.5q-22 0 -34 -12.5t-12 -34.5zM91 94q0 -24 13.5 -38.5t36.5 -14.5t36.5 14.5t13.5 38.5t-13 38.5t-37 14.5q-25 0 -37.5 -14t-12.5 -39z" />
    <glyph glyph-name="uniF65E" unicode="&#xf65e;" horiz-adv-x="284" 
d="M139 177q32 0 51 23v20q0 30 -13 47.5t-37 17.5q-23 0 -36 -14t-13 -38q0 -25 12 -40.5t36 -15.5zM32 231q0 23 10 47t36.5 39.5t61.5 15.5t61 -16.5t36 -43.5t10 -53v-119q0 -48 -29 -77t-79 -29q-46 0 -74.5 25t-28.5 67v5h55v-5q0 -19 13 -31t34 -12q25 0 38.5 14
t13.5 38v55q-26 -21 -61 -21q-44 0 -70.5 28t-26.5 73z" />
    <glyph glyph-name="uniF65F" unicode="&#xf65f;" horiz-adv-x="127" 
d="M55 -50l-20 12q12 19 22 41q-11 3 -17 11.5t-6 16.5q0 11 9 19.5t21 8.5q11 0 20.5 -8.5t9.5 -19.5t-6 -28t-33 -53z" />
    <glyph glyph-name="uniF660" unicode="&#xf660;" horiz-adv-x="136" 
d="M35 27q0 13 10 23t23 10t23 -10t10 -23t-10 -23t-23 -10t-23 10t-10 23z" />
    <glyph glyph-name="uniF661" unicode="&#xf661;" horiz-adv-x="291" 
d="M253 558v-128q0 -35 -17 -60.5t-42.5 -35t-47.5 -9.5t-47.5 9.5t-42.5 35t-17 60.5v128q0 48 28.5 76.5t78.5 28.5q22 0 47.5 -9.5t42.5 -35t17 -60.5zM96 559v-130q0 -23 13.5 -38t36.5 -15t36.5 15t13.5 38v130q0 24 -13.5 38.5t-36.5 14.5t-36.5 -14.5t-13.5 -38.5z
" />
    <glyph glyph-name="uniF662" unicode="&#xf662;" horiz-adv-x="226" 
d="M32 607v50h114v-280h58v-48h-172v48h57v230h-57z" />
    <glyph glyph-name="uniF663" unicode="&#xf663;" horiz-adv-x="283" 
d="M246 330h-213v27q0 75 58 114l57 37q38 26 38 62q0 19 -12 30.5t-34 11.5q-23 0 -36 -12.5t-13 -32.5v-9h-56v9q0 20 10 42.5t36 38t60 15.5q22 0 46.5 -8t41 -30t16.5 -53q0 -60 -59 -100l-58 -39q-29 -20 -32 -53h104v41h46v-91z" />
    <glyph glyph-name="uniF664" unicode="&#xf664;" horiz-adv-x="278" 
d="M109 477v44h24q50 0 50 46q0 21 -12.5 33t-34.5 12t-35 -12.5t-13 -32.5v-7h-55v8q0 41 29.5 68t75.5 27t74 -25t28 -64q0 -53 -39 -73q44 -22 44 -80q0 -32 -17 -55.5t-42.5 -32t-48.5 -8.5q-22 0 -47.5 8.5t-42 32t-16.5 54.5v8h55v-8q0 -20 13.5 -33t36.5 -13
q24 0 37.5 14t13.5 39q0 22 -14 36t-40 14h-24z" />
    <glyph glyph-name="uniF665" unicode="&#xf665;" horiz-adv-x="295" 
d="M261 330h-121v46h33v32h-151v53l138 197h69v-203h35v-47h-35v-32h32v-46zM74 455h99v139z" />
    <glyph glyph-name="uniF666" unicode="&#xf666;" horiz-adv-x="279" 
d="M140 325q-47 0 -77 24t-30 63v8h55v-7q0 -18 13 -29t37 -11t37.5 15.5t13.5 42.5q0 26 -12.5 42t-37.5 16q-28 0 -47 -19h-49v188h189v-82h-47v34h-90v-91q21 16 56 16q43 0 69.5 -27.5t26.5 -74.5q0 -36 -17 -62.5t-42.5 -36t-47.5 -9.5z" />
    <glyph glyph-name="uniF667" unicode="&#xf667;" horiz-adv-x="285" 
d="M254 427q0 -35 -17.5 -60t-43 -33.5t-47.5 -8.5q-35 0 -61 16t-35.5 41t-9.5 49v126q0 48 29 77t78 29q21 0 45.5 -8t41 -30.5t16.5 -53.5v-5h-56v5q0 19 -12.5 31t-34.5 12q-23 0 -36.5 -14t-13.5 -38v-54q25 20 60 20q43 0 70 -28t27 -73zM146 481q-31 0 -49 -22v-28
q0 -27 13 -42.5t36 -15.5t36 14t13 38q0 25 -12 40.5t-37 15.5z" />
    <glyph glyph-name="uniF668" unicode="&#xf668;" horiz-adv-x="249" 
d="M116 330h-61l111 280h-93v-42h-48v90h202v-42z" />
    <glyph glyph-name="uniF669" unicode="&#xf669;" horiz-adv-x="281" 
d="M242 573q0 -26 -10.5 -45t-28.5 -28q21 -9 33.5 -29.5t12.5 -49.5q0 -20 -10 -42.5t-36.5 -38t-61.5 -15.5q-48 0 -78 27t-30 69q0 29 12.5 49.5t32.5 29.5q-18 9 -29 28t-11 45q0 39 28.5 64.5t74.5 25.5q45 0 73 -25.5t28 -64.5zM95 568q0 -22 11.5 -35.5t34.5 -13.5
q22 0 33.5 13.5t11.5 35.5t-12 34.5t-33 12.5q-22 0 -34 -12.5t-12 -34.5zM91 424q0 -24 13.5 -38.5t36.5 -14.5t36.5 14.5t13.5 38.5t-13 38.5t-37 14.5q-25 0 -37.5 -14t-12.5 -39z" />
    <glyph glyph-name="uniF66A" unicode="&#xf66a;" horiz-adv-x="284" 
d="M138 507q32 0 51 23v20q0 30 -13 47.5t-37 17.5q-23 0 -36 -14t-13 -38q0 -25 12 -40.5t36 -15.5zM31 561q0 23 10 47t36.5 39.5t61.5 15.5t61 -16.5t36 -43.5t10 -53v-119q0 -48 -29 -77t-79 -29q-46 0 -74.5 25t-28.5 67v5h55v-5q0 -19 13 -31t34 -12q25 0 38.5 14
t13.5 38v55q-26 -21 -61 -21q-44 0 -70.5 28t-26.5 73z" />
    <glyph glyph-name="uniF66B" unicode="&#xf66b;" horiz-adv-x="128" 
d="M56 280l-20 12q12 19 22 41q-11 3 -17 11.5t-6 16.5q0 11 9 19.5t21 8.5q11 0 20.5 -8.5t9.5 -19.5t-6 -28t-33 -53z" />
    <glyph glyph-name="uniF66C" unicode="&#xf66c;" horiz-adv-x="134" 
d="M34 357q0 13 10 23t23 10t23 -10t10 -23t-10 -23t-23 -10t-23 10t-10 23z" />
    <glyph glyph-name="uniF6C3" unicode="&#xf6c3;" horiz-adv-x="179" 
d="M63 -212l-33 20q25 37 37 68q-19 5 -27.5 18.5t-8.5 25.5q0 19 14.5 32.5t33.5 13.5q20 0 34.5 -13.5t14.5 -32.5q0 -56 -65 -132z" />
    <glyph glyph-name="uniF8FF" unicode="&#xf8ff;" horiz-adv-x="1413" 
d="M727 487h31q11 0 11 -10v-27q0 -11 -11 -11h-31v-77q0 -18 24 -18h10q12 0 12 -11v-27q0 -11 -12 -11h-19q-43 0 -60.5 14.5t-17.5 45.5v84h-17q-11 0 -11 11v25q0 8 11 11l16 1h1v36q0 12 12 12h39q12 0 12 -12v-36zM1366 431v-43q0 -11 -11 -11h-94v-23q0 -18 23 -18
q24 0 24 18v1q0 11 12 11h32q11 0 11 -11v-3q0 -62 -79 -62q-42 0 -63 16.5t-21 45.5v79q0 29 21 45t63 16q82 0 82 -61zM292 431v-43q0 -11 -12 -11h-93v-23q0 -18 23 -18q11 0 18 5t7 13v1q0 11 11 11h32q12 0 12 -11v-3q0 -62 -80 -62q-42 0 -63.5 17t-21.5 45v79
q0 29 21.5 45t63.5 16q82 0 82 -61zM846 477l22 -70q5 -19 7 -37l10 35l24 72q3 11 12 11h37q14 0 11 -11l-84 -249q-4 -11 -14 -11h-28q-14 0 -11 11l16 59l-65 190q-4 11 11 11h40q9 0 12 -11zM1261 428v-11h47v11q0 18 -24 18q-23 0 -23 -18zM187 428v-11h48v11
q0 8 -7 13t-18 5q-23 0 -23 -18zM1108 361v62q0 15 -17 15q-13 0 -37 -15v-63q26 -16 37 -16q17 0 17 17zM336 488h38q11 0 11 -11v-6q28 21 58 21q16 0 30 -7.5t21 -18.5q29 26 64 26q25 0 41 -15.5t16 -38.5v-132q0 -11 -12 -11h-38q-13 0 -13 11v116q0 9 -3 12.5t-11 3.5
q-18 0 -38 -15v-117q0 -11 -11 -11h-38q-12 0 -12 11v116q0 9 -3 12.5t-12 3.5q-19 0 -37 -15v-117q0 -11 -10 -11h-41q-11 0 -11 11v171q0 11 11 11zM1003 488h36q12 0 12 -11l1 -7q27 22 60 22q28 0 42.5 -16t14.5 -44v-80q0 -29 -14.5 -45.5t-42.5 -16.5q-32 0 -58 21
v-83q0 -11 -11 -11h-40q-11 0 -11 11v249q0 11 11 11zM599 0q-36 0 -51 12t-15 36v126h-25q-4 0 -4 5v7q0 4 4 5h25v41q0 5 4 5h11h2.5t1.5 -5v-41h47q4 0 4 -4v-8q0 -5 -4 -5h-47v-124q0 -33 50 -33h6q5 -1 5 -5v-7q0 -4 -5 -5h-9zM468 147v-49l-4 -4h-114v-48
q0 -33 50 -33q48 0 48 33v8q0 4 6 4h9q5 0 5 -4v-9q0 -48 -69 -48t-69 48v102q0 48 70 48q68 0 68 -48zM350 146v-36h98v36q0 32 -48 32q-50 0 -50 -32zM145 192q5 0 5 -4v-17q33 24 67 24q26 0 40 -13t14 -33v-144q0 -4 -4 -5h-11q-4 0 -4 5v140q0 14 -10 22.5t-29 8.5
t-37 -8t-25 -15v-148q0 -4 -4 -5h-11q-5 0 -5 5v183q0 4 5 4h9zM66 35v-30q0 -5 -5 -5h-11q-4 0 -4 5v30q0 5 4 5h11q5 0 5 -5z" />
    <glyph glyph-name="uniFB00" unicode="&#xfb00;" horiz-adv-x="645" 
d="M419 62v362h-232v-362h72v-62h-217v62h72v362h-79v62h79v24q0 81 42 124t121 43h42v-63h-38q-94 0 -94 -99v-29h232v24q0 81 42 124t121 43h43v-63h-39q-94 0 -94 -99v-29h126v-62h-126v-362h88v-62h-233v62h72z" />
    <glyph glyph-name="uniFB03" unicode="&#xfb03;" horiz-adv-x="899" 
d="M724 62v362h-232v-362h72v-62h-217v62h72v362h-232v-362h72v-62h-217v62h72v362h-79v62h79v24q0 81 42 124t121 43h42v-63h-38q-94 0 -94 -99v-29h232v24q0 81 42 124t121 43h216v-63h-212q-94 0 -94 -99v-29h306v-424h71v-62h-217v62h72z" />
    <glyph glyph-name="uniFB04" unicode="&#xfb04;" horiz-adv-x="899" 
d="M724 62v552h-138q-94 0 -94 -99v-29h119v-62h-119v-362h72v-62h-217v62h72v362h-232v-362h72v-62h-217v62h72v362h-79v62h79v24q0 81 42 124t121 43h42v-63h-38q-94 0 -94 -99v-29h232v24q0 81 42 124t121 43h216v-615h71v-62h-217v62h72z" />
    <glyph glyph-name="uniFB05" unicode="&#xfb05;" horiz-adv-x="591" 
d="M302 614h-39q-94 0 -94 -99v-515h-73v510q0 81 42 124t122 43h42v-63zM284 424v62h78v133h73v-133h127v-62h-127v-270q0 -41 23 -66t66 -25h38v-63h-41q-76 0 -117.5 40.5t-41.5 118.5v265h-78z" />
    <glyph glyph-name="uniFF10" unicode="&#xff10;" horiz-adv-x="533" 
d="M471 463v-269q0 -93 -56.5 -148.5t-147.5 -55.5t-148 55.5t-57 148.5v269q0 94 55.5 149t149.5 55q91 0 147.5 -55.5t56.5 -148.5zM138 465v-273q0 -57 33.5 -95t95.5 -38q22 0 44.5 6.5t43 24.5t30.5 46.5t10 55.5v273q0 27 -10 55.5t-28 44.5t-39 24.5t-51 8.5
q-62 0 -95.5 -38t-33.5 -95z" />
    <glyph glyph-name="uniFF11" unicode="&#xff11;" horiz-adv-x="533" 
d="M97 591v66h222v-593h143v-64h-365v64h145v527h-145z" />
    <glyph glyph-name="uniFF12" unicode="&#xff12;" horiz-adv-x="533" 
d="M465 0h-404v36q0 79 32.5 139.5t105.5 109.5l103 71q83 55 83 138q0 47 -32 75.5t-90 28.5q-57 0 -90.5 -31.5t-33.5 -79.5v-21h-74v19q0 40 14.5 74t41.5 58t64 37t80 13q90 0 144.5 -46t54.5 -126q0 -57 -29 -104.5t-82 -83.5l-123 -85q-82 -57 -87 -152h254v87h68
v-157z" />
    <glyph glyph-name="uniFF13" unicode="&#xff13;" horiz-adv-x="533" 
d="M208 311v62h51q33 0 61.5 10.5t44.5 38.5t16 66q0 49 -32 79.5t-89 30.5t-89.5 -30t-32.5 -78v-18h-73v16q0 80 54.5 129.5t142.5 49.5t142 -47.5t54 -125.5q0 -53 -22 -92t-64 -59q47 -21 72 -64t25 -102q0 -85 -56.5 -136t-149.5 -51q-90 0 -146 48.5t-56 129.5v15h73
v-17q0 -34 19.5 -61t50 -37.5t58.5 -10.5q23 0 46 6t43.5 22.5t30 44t9.5 55.5q0 23 -10 52.5t-40.5 51.5t-81.5 22h-51z" />
    <glyph glyph-name="uniFF14" unicode="&#xff14;" horiz-adv-x="533" 
d="M337 64v100h-310v73l289 420h97v-426h73v-67h-73v-100h76v-64h-228v64h76zM101 231h236v340z" />
    <glyph glyph-name="uniFF15" unicode="&#xff15;" horiz-adv-x="533" 
d="M268 -10q-44 0 -77 10t-59 27.5t-46.5 50.5t-20.5 81v15h73v-18q0 -31 19 -55.5t49.5 -34t59.5 -9.5q62 0 95 38t33 105q0 40 -14.5 71.5t-42 48.5t-67.5 17q-72 0 -119 -43h-63v363h356v-134h-68v66h-216v-221q48 34 119 34q89 0 141.5 -55.5t52.5 -146.5
q0 -97 -56.5 -153.5t-148.5 -56.5z" />
    <glyph glyph-name="uniFF16" unicode="&#xff16;" horiz-adv-x="533" 
d="M477 191q0 -93 -57 -147t-149 -54q-91 0 -146.5 58.5t-55.5 159.5v260q0 92 55.5 145.5t148.5 53.5q88 0 142 -48.5t54 -130.5v-12h-73v15q0 34 -18.5 61t-48 37.5t-56.5 10.5q-62 0 -95 -35.5t-33 -89.5v-138q24 24 60 39t80 15q33 0 66.5 -10t61.5 -33.5t46 -63
t18 -93.5zM275 325q-83 0 -130 -62v-57q0 -41 14.5 -77t45 -54.5t67.5 -18.5q62 0 94.5 37t32.5 94q0 26 -9.5 58.5t-38.5 56t-76 23.5z" />
    <glyph glyph-name="uniFF17" unicode="&#xff17;" horiz-adv-x="533" 
d="M229 0h-82l252 589h-272v-87h-67v155h425v-55z" />
    <glyph glyph-name="uniFF18" unicode="&#xff18;" horiz-adv-x="533" 
d="M462 489q0 -51 -23.5 -90t-63.5 -58q45 -20 72 -62.5t27 -99.5q0 -85 -58 -137t-150 -52q-33 0 -68.5 9t-66 31t-51.5 59.5t-21 89.5q0 57 27 99.5t72 62.5q-40 19 -64 58t-24 90q0 29 9.5 59.5t33 57t62 44t91.5 17.5q32 0 65.5 -8.5t62.5 -29.5t48.5 -56t19.5 -84z
M147 486q0 -50 29 -83.5t90 -33.5q62 0 91 33.5t29 83.5q0 51 -32 83t-88 32t-87.5 -32t-31.5 -83zM137 182q0 -26 11 -55.5t41.5 -51t76.5 -21.5q62 0 96 37t34 91q0 56 -32.5 91.5t-97.5 35.5q-64 0 -96.5 -35.5t-32.5 -91.5z" />
    <glyph glyph-name="uniFF19" unicode="&#xff19;" horiz-adv-x="533" 
d="M257 332q82 0 131 62v52q0 31 -11 68t-41.5 62t-75.5 25q-61 0 -93.5 -37t-32.5 -94q0 -41 15 -73t42 -48.5t66 -16.5zM55 466q0 46 15 83.5t43 64t66 40t83 13.5q91 0 146.5 -60t55.5 -163v-255q0 -92 -55.5 -145.5t-148.5 -53.5q-88 0 -142.5 48.5t-54.5 130.5v12h73
v-15q0 -34 18.5 -61t48 -37.5t56.5 -10.5q62 0 95.5 36t33.5 90v136q-57 -53 -140 -53q-55 0 -97 22.5t-69 67.5t-27 110z" />
    <glyph glyph-name="L_periodcentered_L.locl" horiz-adv-x="1034" 
d="M642 64v529h-76v64h230v-64h-78v-524h225v87h68v-156h-445v64h76zM124 64v529h-76v64h230v-64h-78v-524h225v87h68v-156h-445v64h76zM370 331q0 21 15 36t36 15t35.5 -15t14.5 -36t-14.5 -35.5t-35.5 -14.5t-36 14.5t-15 35.5z" />
    <glyph glyph-name="l_periodcentered_l.locl" horiz-adv-x="592" 
d="M417 62v551h-72v64h146v-615h71v-62h-217v62h72zM101 62v551h-72v64h146v-615h71v-62h-217v62h72zM245 331q0 21 15 36t36 15t35.5 -15t14.5 -36t-14.5 -35.5t-35.5 -14.5t-36 14.5t-15 35.5z" />
    <glyph glyph-name="glyph441" horiz-adv-x="145" 
d="M45 677h77l-53 -132h-47z" />
    <glyph glyph-name="glyph442" horiz-adv-x="187" 
d="M85 553q-20 0 -34 13.5t-14 32.5q0 53 63 130l31 -19q-19 -29 -35 -68q14 -4 24.5 -14t10.5 -29t-13.5 -32.5t-32.5 -13.5z" />
    <glyph glyph-name="glyph443" horiz-adv-x="201" 
d="M182 795l-130 -101l-34 33l114 119z" />
    <glyph glyph-name="glyph444" horiz-adv-x="201" 
d="M148 694l-130 101l50 51l114 -119z" />
    <glyph glyph-name="glyph445" horiz-adv-x="308" 
d="M289 800l-123 -110l-27 27l107 124zM173 799l-127 -105l-28 27l112 120z" />
    <glyph glyph-name="glyph446" horiz-adv-x="283" 
d="M121 844h42l102 -123l-30 -26l-95 85l-93 -84l-29 25z" />
    <glyph glyph-name="glyph447" horiz-adv-x="283" 
d="M163 691h-42l-103 123l30 26l95 -85l93 84l29 -25z" />
    <glyph glyph-name="glyph448" horiz-adv-x="240" 
d="M173 812h49v-19q0 -19 -9.5 -42t-34.5 -39.5t-58 -16.5q-46 0 -74 28t-28 70v19h49v-19q0 -23 14.5 -39t38.5 -16t38.5 16t14.5 39v19z" />
    <glyph glyph-name="glyph449" horiz-adv-x="338" 
d="M278 802h40l2 -24q0 -36 -18.5 -59t-53.5 -23q-28 0 -63 21l-41 22q-28 14 -40 14q-20 0 -31.5 -17t-11.5 -40h-40q-3 12 -3 23q0 36 23.5 60.5t60.5 24.5q26 0 57 -17l41 -22q32 -18 45 -18q33 0 33 55z" />
    <glyph glyph-name="glyph450" horiz-adv-x="271" 
d="M18 732v55h235v-55h-235z" />
    <glyph glyph-name="glyph451" horiz-adv-x="238" 
d="M132 762q0 18 13.5 30.5t31.5 12.5q17 0 30 -12.5t13 -30.5t-13 -31.5t-30 -13.5q-18 0 -31.5 13.5t-13.5 31.5zM18 762q0 18 13.5 30.5t31.5 12.5t30.5 -12.5t12.5 -30.5t-12.5 -31.5t-30.5 -13.5t-31.5 13.5t-13.5 31.5z" />
    <glyph glyph-name="glyph452" horiz-adv-x="134" 
d="M18 760q0 21 14.5 35t34.5 14t34 -14t14 -35q0 -19 -14 -33.5t-34 -14.5t-34.5 14.5t-14.5 33.5z" />
    <glyph glyph-name="glyph453" horiz-adv-x="233" 
d="M116 684q-20 0 -43 9.5t-39 33.5t-16 52q0 18 9.5 40.5t33.5 39t55 16.5q20 0 43 -9.5t39 -33.5t16 -53q0 -18 -9.5 -40.5t-33.5 -38.5t-55 -16zM116 724q23 0 37 16t14 39t-14 39t-37 16q-22 0 -36.5 -16t-14.5 -39t14.5 -39t36.5 -16z" />
    <glyph glyph-name="a.aalt" horiz-adv-x="531" 
d="M235 55q24 0 50.5 11.5t44 41.5t17.5 67v138q0 52 -30.5 86.5t-81.5 34.5q-27 0 -51.5 -11.5t-40 -39t-15.5 -62.5v-153q0 -50 28 -81.5t79 -31.5zM420 62h72v-62h-128l-11 57q-22 -32 -56 -49.5t-75 -17.5q-78 0 -122.5 49t-44.5 132v147q0 83 44.5 132t122.5 49
q41 0 75 -17t56 -48l11 55h128v-63h-72v-364z" />
    <glyph glyph-name="agrave.aalt" horiz-adv-x="531" 
d="M240 547l-130 102l50 50l114 -119zM235 55q24 0 50.5 11.5t44 41.5t17.5 67v138q0 52 -30.5 86.5t-81.5 34.5q-27 0 -51.5 -11.5t-40 -39t-15.5 -62.5v-153q0 -50 28 -81.5t79 -31.5zM420 62h72v-62h-128l-11 57q-22 -32 -56 -49.5t-75 -17.5q-78 0 -122.5 49t-44.5 132
v147q0 83 44.5 132t122.5 49q41 0 75 -17t56 -48l11 55h128v-63h-72v-364z" />
    <glyph glyph-name="aacute.aalt" horiz-adv-x="531" 
d="M370 649l-130 -102l-34 33l114 119zM235 55q24 0 50.5 11.5t44 41.5t17.5 67v138q0 52 -30.5 86.5t-81.5 34.5q-27 0 -51.5 -11.5t-40 -39t-15.5 -62.5v-153q0 -50 28 -81.5t79 -31.5zM420 62h72v-62h-128l-11 57q-22 -32 -56 -49.5t-75 -17.5q-78 0 -122.5 49t-44.5 132
v147q0 83 44.5 132t122.5 49q41 0 75 -17t56 -48l11 55h128v-63h-72v-364z" />
    <glyph glyph-name="acircumflex.aalt" horiz-adv-x="531" 
d="M219 697h42l102 -123l-30 -26l-95 85l-93 -84l-29 25zM235 55q24 0 50.5 11.5t44 41.5t17.5 67v138q0 52 -30.5 86.5t-81.5 34.5q-27 0 -51.5 -11.5t-40 -39t-15.5 -62.5v-153q0 -50 28 -81.5t79 -31.5zM420 62h72v-62h-128l-11 57q-22 -32 -56 -49.5t-75 -17.5
q-78 0 -122.5 49t-44.5 132v147q0 83 44.5 132t122.5 49q41 0 75 -17t56 -48l11 55h128v-63h-72v-364z" />
    <glyph glyph-name="atilde.aalt" horiz-adv-x="531" 
d="M349 662h40l2 -24q0 -36 -18.5 -59t-53.5 -23q-25 0 -63 21l-41 22q-24 14 -40 14q-20 0 -31.5 -17t-11.5 -39h-40l-3 22q0 17 7.5 37t28 34.5t48.5 14.5q26 0 57 -17l41 -23q30 -17 45 -17q33 0 33 54zM235 55q24 0 50.5 11.5t44 41.5t17.5 67v138q0 52 -30.5 86.5
t-81.5 34.5q-27 0 -51.5 -11.5t-40 -39t-15.5 -62.5v-153q0 -50 28 -81.5t79 -31.5zM420 62h72v-62h-128l-11 57q-22 -32 -56 -49.5t-75 -17.5q-78 0 -122.5 49t-44.5 132v147q0 83 44.5 132t122.5 49q41 0 75 -17t56 -48l11 55h128v-63h-72v-364z" />
    <glyph glyph-name="adieresis.aalt" horiz-adv-x="531" 
d="M253 607q0 18 13.5 30.5t31.5 12.5q17 0 30 -12.5t13 -30.5t-13 -31.5t-30 -13.5q-18 0 -31.5 13.5t-13.5 31.5zM139 607q0 18 13.5 30.5t31.5 12.5t30.5 -12.5t12.5 -30.5t-12.5 -31.5t-30.5 -13.5t-31.5 13.5t-13.5 31.5zM235 55q24 0 50.5 11.5t44 41.5t17.5 67v138
q0 52 -30.5 86.5t-81.5 34.5q-27 0 -51.5 -11.5t-40 -39t-15.5 -62.5v-153q0 -50 28 -81.5t79 -31.5zM420 62h72v-62h-128l-11 57q-22 -32 -56 -49.5t-75 -17.5q-78 0 -122.5 49t-44.5 132v147q0 83 44.5 132t122.5 49q41 0 75 -17t56 -48l11 55h128v-63h-72v-364z" />
    <glyph glyph-name="aring.aalt" horiz-adv-x="531" 
d="M240 528q-30 0 -54.5 16.5t-34 39t-9.5 40.5t9.5 40.5t34 39t54.5 16.5t54.5 -16.5t34 -39t9.5 -40.5t-9.5 -40.5t-34 -39t-54.5 -16.5zM240 569q23 0 37 16t14 39t-14 38.5t-37 15.5q-22 0 -36.5 -15.5t-14.5 -38.5t14.5 -39t36.5 -16zM235 55q24 0 50.5 11.5t44 41.5
t17.5 67v138q0 52 -30.5 86.5t-81.5 34.5q-27 0 -51.5 -11.5t-40 -39t-15.5 -62.5v-153q0 -50 28 -81.5t79 -31.5zM420 62h72v-62h-128l-11 57q-22 -32 -56 -49.5t-75 -17.5q-78 0 -122.5 49t-44.5 132v147q0 83 44.5 132t122.5 49q41 0 75 -17t56 -48l11 55h128v-63h-72
v-364z" />
    <glyph glyph-name="amacron.aalt" horiz-adv-x="531" 
d="M122 572v55h235v-55h-235zM235 55q24 0 50.5 11.5t44 41.5t17.5 67v138q0 52 -30.5 86.5t-81.5 34.5q-27 0 -51.5 -11.5t-40 -39t-15.5 -62.5v-153q0 -50 28 -81.5t79 -31.5zM420 62h72v-62h-128l-11 57q-22 -32 -56 -49.5t-75 -17.5q-78 0 -122.5 49t-44.5 132v147
q0 83 44.5 132t122.5 49q41 0 75 -17t56 -48l11 55h128v-63h-72v-364z" />
    <glyph glyph-name="abreve.aalt" horiz-adv-x="531" 
d="M293 666h49v-20q0 -19 -9.5 -42t-34.5 -39.5t-58 -16.5q-46 0 -74 28t-28 70v20h49v-20q0 -23 14.5 -39t38.5 -16t38.5 16t14.5 39v20zM235 55q24 0 50.5 11.5t44 41.5t17.5 67v138q0 52 -30.5 86.5t-81.5 34.5q-27 0 -51.5 -11.5t-40 -39t-15.5 -62.5v-153
q0 -50 28 -81.5t79 -31.5zM420 62h72v-62h-128l-11 57q-22 -32 -56 -49.5t-75 -17.5q-78 0 -122.5 49t-44.5 132v147q0 83 44.5 132t122.5 49q41 0 75 -17t56 -48l11 55h128v-63h-72v-364z" />
    <glyph glyph-name="aogonek.aalt" horiz-adv-x="531" 
d="M437 -174q-25 -15 -57 -15q-22 0 -45.5 7.5t-38.5 27.5t-15 46q0 64 83 108l-11 57q-22 -32 -56 -49.5t-75 -17.5q-78 0 -122.5 49t-44.5 132v147q0 83 44.5 132t122.5 49q41 0 75 -17t56 -48l11 55h128v-63h-72v-364h72v-62h-70q-38 -20 -57 -43.5t-19 -43.5
q0 -18 13.5 -30.5t42.5 -12.5q14 0 35 3v-47zM235 55q24 0 50.5 11.5t44 41.5t17.5 67v138q0 52 -30.5 86.5t-81.5 34.5q-27 0 -51.5 -11.5t-40 -39t-15.5 -62.5v-153q0 -50 28 -81.5t79 -31.5z" />
    <glyph glyph-name="t.aalt" horiz-adv-x="317" 
d="M177 62h115v-62h-189v424h-77v62h77v133h74v-133h114v-62h-114v-362z" />
    <glyph glyph-name="tcommaaccent.aalt" horiz-adv-x="317" 
d="M176 -211q-37 0 -60 19.5t-23 53.5h48q0 -31 35 -31q17 0 27 9.5t10 24.5v11q0 15 -10 25t-27 10q-20 0 -33 -18l-32 18l44 89h-52v424h-77v62h77v133h74v-133h114v-62h-114v-362h115v-62h-87l-26 -48h5q34 0 56 -21t22 -56v-7q0 -36 -24 -57.5t-62 -21.5z" />
    <glyph glyph-name="tcaron.aalt" horiz-adv-x="317" 
d="M253 682h77l-53 -132h-47zM177 62h115v-62h-189v424h-77v62h77v133h74v-133h114v-62h-114v-362z" />
    <glyph glyph-name="uni021B.aalt" horiz-adv-x="317" 
d="M177 62h115v-62h-189v424h-77v62h77v133h74v-133h114v-62h-114v-362zM123 -228l-33 20q25 37 37 68q-19 5 -27.5 18.5t-8.5 25.5q0 19 14.5 32.5t33.5 13.5q20 0 34.5 -13.5t14.5 -32.5q0 -56 -65 -132z" />
    <glyph glyph-name="tbar.aalt" horiz-adv-x="318" 
d="M292 62v-62h-189v267h-63v52h63v105h-77v62h77v133h74v-133h114v-62h-114v-105h95v-52h-95v-205h115z" />
    <glyph glyph-name="ampersand.aalt" horiz-adv-x="568" 
d="M544 373v-60h-67v-123q0 -90 -58 -145t-153 -55q-98 0 -158.5 51.5t-60.5 136.5q0 59 29.5 102.5t83.5 63.5q-43 21 -66 59.5t-23 89.5q0 28 9.5 58t32 55.5t60.5 43t91 17.5q85 0 137 -49t52 -130v-13h-73v16q0 35 -17 62t-44.5 37.5t-53.5 10.5t-54 -10.5t-45.5 -37.5
t-17.5 -64q0 -53 32 -84.5t101 -31.5h263zM268 55q24 0 48 6.5t45.5 24t32 46.5t10.5 56v125h-126q-29 0 -57.5 -7.5t-51.5 -25.5t-33.5 -45t-10.5 -50q0 -60 37.5 -95t105.5 -35z" />
    <glyph glyph-name="uniFB05.aalt" horiz-adv-x="555" 
d="M302 614h-39q-94 0 -94 -99v-515h-73v510q0 81 42 124t122 43h42v-63zM414 62h115v-62h-189v424h-77v62h77v133h74v-133h114v-62h-114v-362z" />
    </font>
</defs>
</svg>
