<?xml version="1.0" standalone="no"?>
<!DOCTYPE svg PUBLIC "-//W3C//DTD SVG 1.1//EN" "http://www.w3.org/Graphics/SVG/1.1/DTD/svg11.dtd" >
<svg>
<metadata>
Created by FontForge 20120731 at Sat Jun 29 14:34:48 2019
 By www
Copyright (c) 2012 by Eduardo Manso. All rights reserved.
</metadata>
<defs>
<font id="CiutadellaW04-Medium" horiz-adv-x="502" >
  <font-face 
    font-family="CiutadellaW04-Medium"
    font-weight="500"
    font-stretch="normal"
    units-per-em="1000"
    panose-1="1 0 0 0 0 0 0 0 0 0"
    ascent="750"
    descent="-250"
    x-height="489"
    cap-height="657"
    bbox="-166 -224 1370 887"
    underline-thickness="50"
    underline-position="-100"
    unicode-range="U+000D-FB05"
  />
<missing-glyph horiz-adv-x="841" 
d="M421 236l-92 -92q-12 -12 -21 -12q-11 0 -21 12l-51 52q-11 11 -11 19q0 10 12 21l92 92l-92 92q-13 12 -13 22q0 8 11 19l51 52q13 11 21 11q10 0 22 -12l92 -92l92 92q13 13 22 13q8 0 19 -11l52 -51q11 -13 11 -22q0 -11 -12 -21l-92 -92l92 -92q12 -14 12 -21
q0 -11 -12 -21l-52 -51q-11 -11 -19 -11q-11 0 -21 12zM80 328q0 70 26.5 132t73 108t108 72.5t132.5 26.5q70 0 132 -26.5t108.5 -72.5t73 -108t26.5 -132q0 -71 -27 -132.5t-73 -107t-108.5 -72t-132.5 -26.5q-71 0 -132.5 26.5t-107.5 72t-72.5 107t-26.5 132.5zM128 328
q0 -61 22.5 -114.5t62 -93t92.5 -62.5t114 -23t114 23t92.5 62.5t62.5 93t23 114.5t-22.5 114.5t-62 93.5t-92.5 63t-114 23t-114 -23t-92.5 -63t-62.5 -93.5t-23 -114.5z" />
    <glyph glyph-name=".notdef" horiz-adv-x="841" 
d="M421 236l-92 -92q-12 -12 -21 -12q-11 0 -21 12l-51 52q-11 11 -11 19q0 10 12 21l92 92l-92 92q-13 12 -13 22q0 8 11 19l51 52q13 11 21 11q10 0 22 -12l92 -92l92 92q13 13 22 13q8 0 19 -11l52 -51q11 -13 11 -22q0 -11 -12 -21l-92 -92l92 -92q12 -14 12 -21
q0 -11 -12 -21l-52 -51q-11 -11 -19 -11q-11 0 -21 12zM80 328q0 70 26.5 132t73 108t108 72.5t132.5 26.5q70 0 132 -26.5t108.5 -72.5t73 -108t26.5 -132q0 -71 -27 -132.5t-73 -107t-108.5 -72t-132.5 -26.5q-71 0 -132.5 26.5t-107.5 72t-72.5 107t-26.5 132.5zM128 328
q0 -61 22.5 -114.5t62 -93t92.5 -62.5t114 -23t114 23t92.5 62.5t62.5 93t23 114.5t-22.5 114.5t-62 93.5t-92.5 63t-114 23t-114 -23t-92.5 -63t-62.5 -93.5t-23 -114.5z" />
    <glyph glyph-name="glyph1" horiz-adv-x="0" 
 />
    <glyph glyph-name="glyph1" horiz-adv-x="0" 
 />
    <glyph glyph-name="uni000D" unicode="&#xd;" horiz-adv-x="0" 
 />
    <glyph glyph-name="space" unicode=" " horiz-adv-x="204" 
 />
    <glyph glyph-name="exclam" unicode="!" horiz-adv-x="247" 
d="M154 178h-61l-21 311v168h103v-168zM62 51q0 26 17.5 44t43.5 18t44 -18t18 -44t-18 -43.5t-44 -17.5t-43.5 17.5t-17.5 43.5z" />
    <glyph glyph-name="quotedbl" unicode="&#x22;" horiz-adv-x="355" 
d="M153 657v-71q0 -11 -1.5 -27l-3 -32t-4 -30.5t-3.5 -23.5l-6 -46h-60l-7 46q-1 9 -3 23.5t-3.5 30.5l-3 32t-1.5 27v71h96zM298 657v-71q0 -11 -1.5 -27l-3 -32t-3.5 -30.5t-3 -23.5l-7 -46h-60l-6 46q-2 9 -3.5 23.5t-3.5 30.5t-3 32t-1 27v71h95z" />
    <glyph glyph-name="numbersign" unicode="#" horiz-adv-x="657" 
d="M505 489h109v-67h-122l-34 -187h126v-67h-139l-31 -168h-76l31 168h-141l-31 -168h-76l31 168h-109v67h121l35 187h-126v67h139l31 168h76l-31 -168h141l31 168h76zM241 235h140l35 187h-141z" />
    <glyph glyph-name="dollar" unicode="$" horiz-adv-x="507" 
d="M351 466v17q0 43 -26 70.5t-73 27.5q-48 0 -73 -24t-25 -61q0 -25 14.5 -47.5t44.5 -34.5l95 -39q28 -11 56 -25.5t50.5 -36.5t36.5 -52.5t14 -74.5q0 -81 -47.5 -132.5t-127.5 -61.5v-100h-78v102q-78 11 -124 59t-46 125v19h101v-23q0 -45 29 -71.5t81 -26.5
q54 0 82.5 28t28.5 71q0 41 -22.5 63.5t-57.5 37.5l-93 38q-30 12 -55 28t-43 37.5t-28.5 48.5t-10.5 61q0 67 42.5 115t115.5 60v101h78v-101q73 -11 117.5 -59.5t44.5 -125.5v-13h-101z" />
    <glyph glyph-name="percent" unicode="%" horiz-adv-x="635" 
d="M116 442q0 -23 13 -37.5t36 -14.5t36 14.5t13 37.5v111q0 23 -13 37.5t-36 14.5t-36 -14.5t-13 -37.5v-111zM284 442q0 -50 -31.5 -82t-87.5 -32q-57 0 -88 32t-31 82v111q0 50 31 82t88 32q56 0 87.5 -32t31.5 -82v-111zM468 657h81l-195 -329l-187 -328h-81l195 329z
M421 104q0 -23 13 -37.5t36 -14.5t36 14.5t13 37.5v111q0 23 -13 37.5t-36 14.5t-36 -14.5t-13 -37.5v-111zM589 104q0 -50 -31.5 -82t-87.5 -32q-57 0 -88 32t-31 82v111q0 50 31 82t88 32q56 0 87.5 -32t31.5 -82v-111z" />
    <glyph glyph-name="ampersand" unicode="&#x26;" horiz-adv-x="584" 
d="M552 300h-68v-109q0 -45 -15.5 -82t-43.5 -63.5t-67.5 -41t-88.5 -14.5q-50 0 -90.5 13.5t-70 38t-45.5 59.5t-16 79q0 60 29 102t81 62q-42 20 -64.5 56.5t-22.5 88.5q0 39 14 72t39.5 56.5t62 36.5t81.5 13t81 -14t61.5 -38.5t39 -59t13.5 -75.5v-14h-98v15
q0 43 -24 70t-71 27q-46 0 -71 -26t-25 -71t26 -73t87 -28h266v-80zM272 76q55 0 85 31.5t30 81.5v111h-103q-34 0 -59 -8.5t-41 -23.5t-23.5 -35.5t-7.5 -43.5q0 -54 30 -83.5t89 -29.5z" />
    <glyph glyph-name="quotesingle" unicode="'" horiz-adv-x="213" 
d="M156 657v-71q0 -11 -1.5 -27l-3 -32t-4 -30.5t-3.5 -23.5l-6 -46h-63l-7 46q-1 9 -3 23.5t-3.5 30.5l-3 32t-1.5 27v71h99z" />
    <glyph glyph-name="parenleft" unicode="(" horiz-adv-x="309" 
d="M269 -19v-92h-9q-97 0 -146.5 51.5t-49.5 143.5v486q0 92 49.5 143.5t146.5 51.5h9v-92h-10q-48 0 -70 -26.5t-22 -70.5v-498q0 -44 22 -70.5t70 -26.5h10z" />
    <glyph glyph-name="parenright" unicode=")" horiz-adv-x="309" 
d="M50 -19q48 0 70 26.5t22 70.5v498q0 44 -22 70.5t-70 26.5h-10v92h9q97 0 146.5 -51.5t49.5 -143.5v-486q0 -92 -49.5 -143.5t-146.5 -51.5h-9v92h10z" />
    <glyph glyph-name="asterisk" unicode="*" horiz-adv-x="394" 
d="M185 483l-71 -71l-30 -18l-37 62l31 18l96 30l-96 30l-31 18l36 61l31 -18l71 -72l-23 98v36h71v-36l-24 -97l70 71l32 18l36 -61l-31 -18l-97 -30l97 -30l31 -18l-37 -62l-31 18l-70 70l24 -96v-36h-71v36z" />
    <glyph glyph-name="plus" unicode="+" horiz-adv-x="483" 
d="M290 372h149v-89h-149v-144h-97v144h-149v89h149v143h97v-143z" />
    <glyph glyph-name="comma" unicode="," horiz-adv-x="233" 
d="M181 102l-86 -196h-64l43 196h107z" />
    <glyph glyph-name="hyphen" unicode="-" horiz-adv-x="363" 
d="M63 305h237v-89h-237v89z" />
    <glyph glyph-name="period" unicode="." horiz-adv-x="228" 
d="M52 51q0 26 18 44t44 18t44 -18t18 -44t-18 -43.5t-44 -17.5t-44 17.5t-18 43.5z" />
    <glyph glyph-name="slash" unicode="/" horiz-adv-x="443" 
d="M418 765l-295 -876h-97l294 876h98z" />
    <glyph glyph-name="zero" unicode="0" horiz-adv-x="548" 
d="M166 197q0 -51 28 -82.5t80 -31.5t80.5 31.5t28.5 82.5v263q0 51 -28.5 82.5t-80.5 31.5t-80 -31.5t-28 -82.5v-263zM486 198q0 -48 -15.5 -86.5t-43.5 -65.5t-67 -41.5t-86 -14.5t-86 14.5t-67 41.5t-43.5 65.5t-15.5 86.5v261q0 97 56 152.5t156 55.5q47 0 86 -14.5
t67 -41.5t43.5 -65.5t15.5 -86.5v-261z" />
    <glyph glyph-name="one" unicode="1" horiz-adv-x="414" 
d="M49 657h218v-566h118v-91h-336v91h115v474h-115v92z" />
    <glyph glyph-name="two" unicode="2" horiz-adv-x="522" 
d="M50 43q0 36 5.5 69t19.5 62.5t38 56.5t60 52l111 73q35 23 57 54t22 75q0 40 -25.5 64.5t-76.5 24.5t-78.5 -27t-27.5 -70v-19h-100v19q0 42 15 77t42.5 60t66 39t85.5 14q46 0 84 -12t65 -35.5t42 -56.5t15 -75q0 -65 -30.5 -112.5t-87.5 -85.5l-120 -81
q-21 -15 -34 -30t-20.5 -30t-10 -28.5t-3.5 -25.5h306v-95h-420v43z" />
    <glyph glyph-name="three" unicode="3" horiz-adv-x="523" 
d="M202 380h48q59 0 82.5 27t23.5 72q0 44 -26 69.5t-75 25.5t-76 -26t-27 -68v-16h-99v16q0 41 14.5 75.5t41.5 59t64.5 38.5t83.5 14t84 -13t64 -36.5t40.5 -56t14.5 -72.5q0 -53 -21 -89.5t-59 -56.5q44 -20 67.5 -61t23.5 -101q0 -44 -15.5 -79.5t-43 -60t-67 -38
t-87.5 -13.5q-47 0 -85.5 13.5t-66 38t-42.5 59t-15 76.5v15h99v-15q0 -43 28 -70t80 -27q54 0 81.5 29.5t27.5 81.5q0 46 -27 77t-88 31h-48v81z" />
    <glyph glyph-name="four" unicode="4" horiz-adv-x="547" 
d="M439 657v-422h72v-88h-72v-147h-102v147h-304v98l281 412h125zM337 235v304l-208 -304h208z" />
    <glyph glyph-name="five" unicode="5" horiz-adv-x="517" 
d="M444 566h-278v-191q20 15 48 24.5t66 9.5q89 0 141.5 -54.5t52.5 -150.5q0 -50 -15.5 -90t-43.5 -67.5t-67 -42t-86 -14.5t-85.5 12t-66.5 34.5t-43.5 54.5t-15.5 72v15h100v-15q0 -37 27.5 -61t79.5 -24q54 0 82 33.5t28 91.5q0 25 -6 47t-18.5 38.5t-33 26t-48.5 9.5
q-41 0 -64 -12.5t-39 -26.5h-88v372h373v-91z" />
    <glyph glyph-name="six" unicode="6" horiz-adv-x="534" 
d="M485 194q0 -49 -15.5 -87t-43.5 -64t-67.5 -39.5t-86.5 -13.5t-85.5 14.5t-66.5 41.5t-43 67t-15 91v254q0 97 56 153t156 56q45 0 82.5 -12.5t64.5 -36.5t41.5 -58t14.5 -76v-10h-100v11q0 40 -26.5 66.5t-75.5 26.5q-54 0 -82 -30t-28 -81v-117q21 19 53 32t74 13
q45 0 81 -14.5t60.5 -40.5t38 -63.5t13.5 -82.5zM275 309q-44 0 -69.5 -16.5t-40.5 -33.5v-55q0 -60 28.5 -93t79.5 -33q52 0 79 30.5t27 81.5q0 24 -6 45.5t-18.5 38t-32 26t-47.5 9.5z" />
    <glyph glyph-name="seven" unicode="7" horiz-adv-x="457" 
d="M33 657h396v-77l-226 -580h-110l222 566h-282v91z" />
    <glyph glyph-name="eight" unicode="8" horiz-adv-x="529" 
d="M466 487q0 -55 -22.5 -91.5t-59.5 -54.5q42 -18 68 -58t26 -101q0 -44 -15.5 -79t-43.5 -60.5t-67 -39t-87 -13.5t-87.5 13.5t-67 39t-43 60.5t-15.5 79q0 61 25.5 100.5t67.5 57.5q-38 19 -60 56t-22 91q0 40 14.5 73t40.5 57t63.5 37t83.5 13t83 -13t63 -37t40.5 -57
t14.5 -73zM157 187q0 -51 28 -81t80 -30t80 30t28 81q0 50 -26.5 81t-82.5 31t-81.5 -31t-25.5 -81zM165 479q0 -45 23.5 -73.5t76.5 -28.5q52 0 75 28.5t23 73.5q0 46 -25.5 73t-73.5 27t-73.5 -27t-25.5 -73z" />
    <glyph glyph-name="nine" unicode="9" horiz-adv-x="534" 
d="M49 463q0 48 15.5 86t44 64.5t68 40t86.5 13.5q46 0 84.5 -15t66.5 -43.5t43 -70.5t15 -96v-243q0 -97 -56 -153t-156 -56q-45 0 -82.5 12.5t-64.5 36.5t-41.5 58t-14.5 76v10h100v-11q0 -40 26.5 -66.5t75.5 -26.5q54 0 82 30t28 81v116q-22 -18 -53.5 -31t-73.5 -13
q-45 0 -81 14.5t-60.5 40.5t-38 63.5t-13.5 82.5zM260 348q43 0 68 16.5t41 33.5v44q0 63 -27.5 100t-78.5 37q-53 0 -80.5 -30.5t-27.5 -81.5q0 -24 6 -45.5t18.5 -38t32.5 -26t48 -9.5z" />
    <glyph glyph-name="colon" unicode=":" horiz-adv-x="247" 
d="M62 51q0 26 17.5 44t43.5 18t44 -18t18 -44t-18 -43.5t-44 -17.5t-43.5 17.5t-17.5 43.5zM62 437q0 26 17.5 44t43.5 18t44 -18t18 -44t-18 -43.5t-44 -17.5t-43.5 17.5t-17.5 43.5z" />
    <glyph glyph-name="semicolon" unicode=";" horiz-adv-x="261" 
d="M191 102l-85 -196h-65l43 196h107zM75 437q0 26 17.5 44t43.5 18t44 -18t18 -44t-18 -43.5t-44 -17.5t-43.5 17.5t-17.5 43.5z" />
    <glyph glyph-name="less" unicode="&#x3c;" horiz-adv-x="483" 
d="M43 371l377 140v-91l-260 -91l260 -93v-95l-377 139v91z" />
    <glyph glyph-name="equal" unicode="=" horiz-adv-x="520" 
d="M66 481h389v-89h-389v89zM66 267h389v-89h-389v89z" />
    <glyph glyph-name="greater" unicode="&#x3e;" horiz-adv-x="483" 
d="M440 279l-377 -140v91l260 91l-260 93v95l377 -139v-91z" />
    <glyph glyph-name="question" unicode="?" horiz-adv-x="486" 
d="M193 178l-5 36q-4 29 3 52.5t20.5 43.5t32.5 38.5t39 38.5q22 22 40.5 45t18.5 57q0 38 -25.5 61.5t-73.5 23.5q-52 0 -79 -27t-27 -70v-25h-100v25q0 42 15 77t42 60t65.5 39t85.5 14q46 0 83.5 -12.5t64 -35t41 -55t14.5 -72.5q0 -25 -7 -46.5t-18.5 -41t-27 -37
t-32.5 -33.5q-16 -15 -30.5 -28.5t-26 -27.5t-19 -30.5t-9.5 -37.5l-4 -32h-81zM173 50q0 26 17.5 43.5t43.5 17.5t43 -17.5t17 -43.5q0 -25 -17 -42.5t-43 -17.5t-43.5 17.5t-17.5 42.5z" />
    <glyph glyph-name="at" unicode="@" horiz-adv-x="798" 
d="M250 279q12 69 45.5 106.5t91.5 37.5q36 0 61.5 -14t37.5 -38l17 45h69l-46 -263q-9 -51 9 -71t56 -20q42 0 60 30t18 85v143q0 51 -18.5 92.5t-53 70.5t-84 45t-110.5 16q-62 0 -111 -16t-83 -45t-52.5 -70.5t-18.5 -92.5v-177q0 -51 18.5 -92.5t52.5 -70.5t83 -45
t111 -16h90v-78h-90q-81 0 -146 22t-110 63t-69 99t-24 130v153q0 72 22 130t66 99t109.5 63t151.5 22q82 0 146.5 -22t109.5 -63t69 -99t24 -130v-119q0 -55 -13.5 -93t-36 -61.5t-52.5 -34t-62 -10.5q-59 0 -98.5 25.5t-44.5 78.5q-19 -24 -45 -39.5t-57 -15.5
q-65 0 -93 42.5t-16 108.5zM372 107q29 0 49.5 21t26.5 53l18 98q6 32 -11 53t-53 21q-29 0 -46 -21.5t-23 -53.5l-17 -96q-6 -32 7.5 -53.5t48.5 -21.5z" />
    <glyph glyph-name="A" unicode="A" horiz-adv-x="553" 
d="M20 0l202 657h108l203 -657h-107l-39 132h-227l-39 -132h-101zM184 221h179l-90 305z" />
    <glyph glyph-name="B" unicode="B" horiz-adv-x="566" 
d="M78 657h226q45 0 82 -12t64 -34.5t42 -54t15 -70.5q0 -55 -25 -91.5t-71 -55.5v-1q54 -17 83 -56.5t29 -100.5q0 -42 -15 -75.5t-42 -57t-64 -36t-81 -12.5h-243v657zM180 292v-207h126q53 0 82 27.5t29 75.5t-29 76t-80 28h-128zM180 572v-194h115q49 0 78 26t29 73
q0 45 -29.5 70t-80.5 25h-112z" />
    <glyph glyph-name="C" unicode="C" horiz-adv-x="550" 
d="M502 218v-19q0 -48 -16 -87t-45 -66t-69 -41.5t-89 -14.5q-50 0 -91 15t-70 43t-45.5 67.5t-16.5 89.5v247q0 100 58.5 157.5t164.5 57.5q49 0 89 -14.5t69 -41.5t45 -66t16 -87v-15h-100v16q0 51 -31.5 83t-89.5 32q-56 0 -87 -34t-31 -88v-247q0 -54 31 -88t87 -34
q58 0 89.5 32t31.5 83v20h100z" />
    <glyph glyph-name="D" unicode="D" horiz-adv-x="584" 
d="M296 657q53 0 95.5 -15.5t72.5 -44t46 -69t16 -91.5v-217q0 -51 -16 -91.5t-46 -69t-72.5 -44t-95.5 -15.5h-218v657h218zM181 564v-471h115q61 0 94 35t33 92v217q0 57 -33 92t-94 35h-115z" />
    <glyph glyph-name="E" unicode="E" horiz-adv-x="520" 
d="M181 289v-196h294v-93h-397v657h388v-93h-285v-184h259v-91h-259z" />
    <glyph glyph-name="F" unicode="F" horiz-adv-x="503" 
d="M181 271v-271h-103v657h388v-93h-285v-201h259v-92h-259z" />
    <glyph glyph-name="G" unicode="G" horiz-adv-x="555" 
d="M297 328h205v-129q0 -48 -16 -87t-44.5 -66t-69 -41.5t-89.5 -14.5q-50 0 -91 15t-70 43t-45.5 67.5t-16.5 89.5v247q0 100 60 157.5t165 57.5q49 0 89 -14t68.5 -39.5t44 -62.5t15.5 -83v-15h-100v16q0 47 -30.5 76t-87.5 29q-58 0 -89.5 -34t-31.5 -88v-247
q0 -54 31.5 -88t88.5 -34q60 0 91 32t31 83v48h-108v82z" />
    <glyph glyph-name="H" unicode="H" horiz-adv-x="594" 
d="M517 0h-104v288h-232v-288h-103v657h103v-276h232v276h104v-657z" />
    <glyph glyph-name="I" unicode="I" horiz-adv-x="258" 
d="M181 0h-103v657h103v-657z" />
    <glyph glyph-name="J" unicode="J" horiz-adv-x="494" 
d="M122 210v-25q0 -45 25.5 -73.5t72.5 -28.5q48 0 72.5 28.5t24.5 73.5v472h103v-472q0 -45 -14.5 -81t-41 -61.5t-63 -39t-81.5 -13.5q-44 0 -81 13.5t-63.5 39t-41 61.5t-14.5 81v25h102z" />
    <glyph glyph-name="K" unicode="K" horiz-adv-x="549" 
d="M181 319l232 338h115l-181 -270l187 -387h-116l-143 301l-94 -137v-164h-103v657h103v-338z" />
    <glyph glyph-name="L" unicode="L" horiz-adv-x="466" 
d="M181 93h270v-93h-373v657h103v-564z" />
    <glyph glyph-name="M" unicode="M" horiz-adv-x="659" 
d="M173 451v-451h-95v657h89l163 -311l162 311h89v-657h-100v449l-122 -233h-61z" />
    <glyph glyph-name="N" unicode="N" horiz-adv-x="590" 
d="M513 0h-85l-256 456v-456h-94v657h89l251 -447v447h95v-657z" />
    <glyph glyph-name="O" unicode="O" horiz-adv-x="568" 
d="M163 205q0 -54 31.5 -88t89.5 -34t89.5 34t31.5 88v247q0 54 -31.5 88t-89.5 34t-89.5 -34t-31.5 -88v-247zM509 205q0 -50 -16.5 -89.5t-46 -67.5t-71 -43t-91.5 -15t-91 15t-70.5 43t-46 67.5t-16.5 89.5v247q0 99 59 157t165 58q50 0 91.5 -15t71 -43t46 -68t16.5 -89
v-247z" />
    <glyph glyph-name="P" unicode="P" horiz-adv-x="552" 
d="M78 657h216q49 0 90 -15t71 -43t47 -66.5t17 -86.5q0 -50 -17 -90t-47 -68t-71 -43.5t-90 -15.5h-113v-229h-103v657zM181 566v-247h105q59 0 93.5 34t34.5 91q0 56 -34.5 89t-93.5 33h-105z" />
    <glyph glyph-name="Q" unicode="Q" horiz-adv-x="569" 
d="M509 205q0 -64 -27 -112t-75 -74l99 -152h-121l-80 125q-5 -1 -10.5 -1.5t-10.5 -0.5q-50 0 -91 15t-70.5 43t-46 67.5t-16.5 89.5v247q0 99 59 157t165 58q50 0 91.5 -15t71 -43t46 -68t16.5 -89v-247zM163 205q0 -54 31.5 -88t89.5 -34t89.5 34t31.5 88v247
q0 54 -31.5 88t-89.5 34t-89.5 -34t-31.5 -88v-247z" />
    <glyph glyph-name="R" unicode="R" horiz-adv-x="566" 
d="M408 0l-103 250q-4 -1 -8 -1h-9h-107v-249h-103v657h217q49 0 90 -14.5t71 -40.5t46.5 -63t16.5 -83q0 -64 -30.5 -111t-82.5 -71l115 -274h-113zM181 566v-227h105q59 0 93.5 31t34.5 85q0 51 -34.5 81t-93.5 30h-105z" />
    <glyph glyph-name="S" unicode="S" horiz-adv-x="529" 
d="M371 463v18q0 44 -29 72t-80 28t-79 -23.5t-28 -61.5q0 -26 17 -48t52 -35l99 -38q30 -11 59 -25.5t52 -36t37 -52.5t14 -75t-16 -80t-44.5 -62t-69 -40t-89.5 -14q-50 0 -91 13t-70.5 38t-46 60t-16.5 79v19h101v-23q0 -45 31.5 -72.5t88.5 -27.5q59 0 90 28t31 71
q0 41 -24.5 64t-65.5 38l-97 38q-31 12 -57 28t-44.5 37t-29 48t-10.5 61q0 37 14.5 69.5t41.5 56.5t65 38t85 14t86 -13t66.5 -38t43 -60t15.5 -79v-14h-102z" />
    <glyph glyph-name="T" unicode="T" horiz-adv-x="469" 
d="M19 657h431v-93h-164v-564h-103v564h-164v93z" />
    <glyph glyph-name="U" unicode="U" horiz-adv-x="584" 
d="M511 657v-452q0 -50 -16 -89.5t-45 -67.5t-69 -43t-89 -15t-89 15t-69 43t-45 67.5t-16 89.5v452h103v-452q0 -54 30 -88t86 -34q55 0 85.5 34t30.5 88v452h103z" />
    <glyph glyph-name="V" unicode="V" horiz-adv-x="519" 
d="M498 657l-184 -657h-109l-184 657h110l131 -500l132 500h104z" />
    <glyph glyph-name="W" unicode="W" horiz-adv-x="732" 
d="M703 657l-144 -657h-94l-99 478l-99 -478h-94l-144 657h103l92 -474l97 474h94l97 -475l93 475h98z" />
    <glyph glyph-name="X" unicode="X" horiz-adv-x="506" 
d="M136 657l121 -227l119 227h106l-173 -314l184 -343h-112l-133 251l-127 -251h-107l181 340l-170 317h111z" />
    <glyph glyph-name="Y" unicode="Y" horiz-adv-x="499" 
d="M121 657l132 -292l131 292h104l-187 -393v-264h-103v263l-187 394h110z" />
    <glyph glyph-name="Z" unicode="Z" horiz-adv-x="472" 
d="M46 657h382v-65l-266 -500h273v-92h-399v65l266 500h-256v92z" />
    <glyph glyph-name="bracketleft" unicode="[" horiz-adv-x="319" 
d="M178 -18h102v-93h-206v876h206v-93h-102v-690z" />
    <glyph glyph-name="backslash" unicode="\" horiz-adv-x="446" 
d="M126 765l295 -876h-100l-295 876h100z" />
    <glyph glyph-name="bracketright" unicode="]" horiz-adv-x="319" 
d="M141 672h-102v93h206v-876h-206v93h102v690z" />
    <glyph glyph-name="asciicircum" unicode="^" horiz-adv-x="430" 
d="M255 657l130 -302h-95l-78 193l-77 -193h-90l130 302h80z" />
    <glyph glyph-name="underscore" unicode="_" horiz-adv-x="691" 
d="M63 -30h565v-74h-565v74z" />
    <glyph glyph-name="grave" unicode="`" horiz-adv-x="217" 
d="M20 651l65 61l112 -126l-46 -41z" />
    <glyph glyph-name="a" unicode="a" 
d="M51 313q0 84 43 135t125 51q42 0 73.5 -16t51.5 -44l10 50h82v-489h-82l-10 51q-20 -29 -51.5 -45t-73.5 -16q-82 0 -125 51t-43 135v137zM241 77q45 0 70.5 29t25.5 73v132q0 43 -25.5 72t-70.5 29t-67.5 -27.5t-22.5 -69.5v-141q0 -42 22.5 -69.5t67.5 -27.5z" />
    <glyph glyph-name="b" unicode="b" 
d="M149 0h-83v677h100v-230q20 24 50 38t68 14q40 0 71.5 -13.5t52.5 -38t32 -58.5t11 -76v-137q0 -42 -11 -76t-32 -58.5t-52.5 -38t-71.5 -13.5q-42 0 -74 16t-52 45zM261 77q45 0 68 27.5t23 69.5v141q0 42 -23 69.5t-68 27.5t-70 -29t-25 -72v-132q0 -44 25 -73t70 -29z
" />
    <glyph glyph-name="c" unicode="c" horiz-adv-x="474" 
d="M431 178v-8q0 -42 -14 -75.5t-38.5 -56.5t-59.5 -35.5t-77 -12.5q-43 0 -78.5 13.5t-61 39t-39.5 61t-14 80.5v121q0 45 14 80.5t39.5 61t61 39t78.5 13.5q42 0 77 -12.5t59.5 -35t38.5 -55.5t14 -73v-5h-96v11q0 37 -24.5 61t-68.5 24q-45 0 -69 -28.5t-24 -72.5v-137
q0 -44 24 -72.5t69 -28.5t69 24t24 63v16h96z" />
    <glyph glyph-name="d" unicode="d" 
d="M344 51q-20 -29 -51.5 -45t-73.5 -16q-82 0 -125 51t-43 135v137q0 84 43 135t125 51q38 0 68 -14t50 -38v230h99v-677h-82zM241 77q45 0 70.5 29t25.5 73v132q0 43 -25.5 72t-70.5 29t-67.5 -27.5t-22.5 -69.5v-141q0 -42 22.5 -69.5t67.5 -27.5z" />
    <glyph glyph-name="e" unicode="e" horiz-adv-x="475" 
d="M429 167v-6q0 -39 -14 -71t-38.5 -54t-59 -34t-76.5 -12q-43 0 -78 13t-60.5 38t-39.5 59.5t-14 78.5v126q0 45 14 80.5t39.5 61t60.5 39t78 13.5q42 0 76.5 -13.5t59 -39t38.5 -61t14 -80.5v-77h-282v-59q0 -42 25 -70.5t70 -28.5t68.5 25.5t23.5 63.5v8h95zM147 299
h187v18q0 44 -24 73t-69 29t-69.5 -29t-24.5 -73v-18z" />
    <glyph glyph-name="f" unicode="f" horiz-adv-x="336" 
d="M28 485h73v20q0 85 44 128.5t129 43.5h46v-85h-37q-45 0 -64 -22t-19 -59v-26h114v-83h-114v-402h-99v402h-73v83z" />
    <glyph glyph-name="g" unicode="g" 
d="M51 313q0 84 43 135t125 51q42 0 73.5 -16t51.5 -44l10 50h82v-510q0 -83 -52.5 -129.5t-137.5 -46.5q-42 0 -76.5 11t-59.5 31t-38.5 48t-13.5 63v3h96v-8q0 -29 22.5 -48.5t68.5 -19.5t69 25t23 67v85q-20 -24 -50 -37.5t-68 -13.5q-82 0 -125 51t-43 135v118zM241 96
q45 0 70.5 29t25.5 72v114q0 43 -25.5 72t-70.5 29t-67.5 -27.5t-22.5 -69.5v-122q0 -42 22.5 -69.5t67.5 -27.5z" />
    <glyph glyph-name="h" unicode="h" horiz-adv-x="513" 
d="M66 0v677h100v-231q20 25 50.5 39t69.5 14q82 0 123.5 -49.5t41.5 -130.5v-319h-99v315q0 42 -23 69.5t-68 27.5t-70 -29t-25 -72v-311h-100z" />
    <glyph glyph-name="i" unicode="i" horiz-adv-x="232" 
d="M57 625q0 25 17 42t42 17t42 -17t17 -42q0 -26 -17 -42.5t-42 -16.5t-42 16.5t-17 42.5zM166 489v-489h-100v489h100z" />
    <glyph glyph-name="j" unicode="j" horiz-adv-x="232" 
d="M-24 -112q46 0 68 23t22 64v514h100v-508q0 -88 -47.5 -133t-132.5 -45h-32v85h22zM56 625q0 25 17 42t42 17t42 -17t17 -42q0 -26 -17 -42.5t-42 -16.5t-42 16.5t-17 42.5z" />
    <glyph glyph-name="k" unicode="k" horiz-adv-x="478" 
d="M166 677v-399l179 211h110l-157 -187l165 -302h-111l-122 225l-64 -76v-149h-100v677h100z" />
    <glyph glyph-name="l" unicode="l" horiz-adv-x="237" 
d="M168 677v-677h-99v677h99z" />
    <glyph glyph-name="m" unicode="m" horiz-adv-x="788" 
d="M66 0v489h83l9 -52q20 29 52 45.5t74 16.5q52 0 87.5 -22t54.5 -61q18 38 53.5 60.5t84.5 22.5q79 0 120.5 -50t41.5 -130v-319h-99v315q0 42 -22 69.5t-66 27.5q-42 0 -67 -27.5t-26 -68.5v-316h-100v315q0 42 -22 69.5t-65 27.5t-68 -28.5t-25 -70.5v-313h-100z" />
    <glyph glyph-name="n" unicode="n" horiz-adv-x="513" 
d="M66 0v489h83l9 -52q21 29 53.5 45.5t74.5 16.5q82 0 123.5 -49.5t41.5 -130.5v-319h-99v315q0 42 -23 69.5t-68 27.5t-70 -29t-25 -72v-311h-100z" />
    <glyph glyph-name="o" unicode="o" horiz-adv-x="486" 
d="M149 176q0 -44 24.5 -72.5t69.5 -28.5t69.5 28.5t24.5 72.5v137q0 44 -24.5 72.5t-69.5 28.5t-69.5 -28.5t-24.5 -72.5v-137zM437 184q0 -45 -14 -80.5t-39.5 -61t-61.5 -39t-79 -13.5t-79 13.5t-61.5 39t-39.5 61t-14 80.5v121q0 45 14 80.5t39.5 61t61.5 39t79 13.5
t79 -13.5t61.5 -39t39.5 -61t14 -80.5v-121z" />
    <glyph glyph-name="p" unicode="p" 
d="M158 439q20 28 52 44t74 16q40 0 71.5 -13.5t52.5 -38t32 -58.5t11 -76v-137q0 -42 -11 -76t-32 -58.5t-52.5 -38t-71.5 -13.5q-38 0 -68 14t-50 38v-229h-100v676h83zM261 412q-45 0 -70 -29t-25 -72v-132q0 -44 25 -73t70 -29t68 27.5t23 69.5v141q0 42 -23 69.5
t-68 27.5z" />
    <glyph glyph-name="q" unicode="q" 
d="M354 489h82v-676h-99v229q-20 -24 -50 -38t-68 -14q-82 0 -125 51t-43 135v137q0 84 43 135t125 51q42 0 73.5 -16t51.5 -44zM241 412q-45 0 -67.5 -27.5t-22.5 -69.5v-141q0 -42 22.5 -69.5t67.5 -27.5t70.5 29t25.5 73v132q0 43 -25.5 72t-70.5 29z" />
    <glyph glyph-name="r" unicode="r" horiz-adv-x="327" 
d="M66 0v489h83l10 -58q19 30 49.5 49t71.5 19q6 0 13 -0.5t14 -2.5v-94q-8 2 -17.5 3t-18.5 1q-45 0 -75 -26t-30 -77v-303h-100z" />
    <glyph glyph-name="s" unicode="s" horiz-adv-x="450" 
d="M131 154v-18q0 -32 24.5 -51t68.5 -19q45 0 67 18t22 49q0 24 -13.5 38t-43.5 23l-90 28q-23 7 -44 18t-36.5 27.5t-25 38.5t-9.5 51q0 28 12 54t34.5 46t53.5 31.5t70 11.5q82 0 131.5 -38.5t49.5 -106.5v-10h-93v13q0 29 -22 47.5t-64 18.5q-31 0 -55.5 -15t-24.5 -44
q0 -19 11.5 -32.5t41.5 -22.5l76 -23q27 -9 51.5 -20t43 -27.5t29.5 -40t11 -56.5q0 -69 -48 -111.5t-133 -42.5q-41 0 -75.5 10.5t-59.5 30t-39 47t-14 62.5v15h93z" />
    <glyph glyph-name="t" unicode="t" horiz-adv-x="324" 
d="M25 485h87v134h99v-134h88v-83h-88v-402h-99v402h-87v83z" />
    <glyph glyph-name="u" unicode="u" horiz-adv-x="508" 
d="M62 489h100v-320q0 -40 21.5 -66t63.5 -26q45 0 70 29t25 73v310h100v-489h-83l-10 51q-20 -28 -52.5 -44.5t-74.5 -16.5q-79 0 -119.5 48.5t-40.5 126.5v324z" />
    <glyph glyph-name="v" unicode="v" horiz-adv-x="462" 
d="M180 0l-160 489h107l107 -359l106 359h102l-161 -489h-101z" />
    <glyph glyph-name="w" unicode="w" horiz-adv-x="671" 
d="M210 143l85 346h85l85 -346l80 346h102l-135 -489h-90l-86 327l-86 -327h-90l-136 489h106z" />
    <glyph glyph-name="x" unicode="x" horiz-adv-x="451" 
d="M132 489l96 -163l97 163h106l-153 -236l157 -253h-110l-103 172l-100 -172h-105l155 243l-150 246h110z" />
    <glyph glyph-name="y" unicode="y" horiz-adv-x="461" 
d="M123 -187l63 178l-166 498h106l107 -354l107 354h102l-226 -676h-93z" />
    <glyph glyph-name="z" unicode="z" horiz-adv-x="434" 
d="M44 489h347v-59l-232 -348h237v-82h-360v59l232 348h-224v82z" />
    <glyph glyph-name="braceleft" unicode="{" horiz-adv-x="347" 
d="M103 212q0 35 -16 56t-51 21h-11v80h11q35 0 51 21t16 56v135q0 87 48.5 135.5t141.5 48.5h15v-92h-15q-46 0 -66.5 -24.5t-20.5 -66.5v-136q0 -82 -60 -117q60 -37 60 -117v-139q0 -42 20.5 -67t66.5 -25h15v-92h-15q-93 0 -141.5 48.5t-48.5 135.5v139z" />
    <glyph glyph-name="bar" unicode="|" horiz-adv-x="244" 
d="M170 -111h-96v876h96v-876z" />
    <glyph glyph-name="braceright" unicode="}" horiz-adv-x="347" 
d="M244 73q0 -87 -48.5 -135.5t-141.5 -48.5h-15v92h15q46 0 66.5 25t20.5 67v139q0 80 60 117q-60 35 -60 117v136q0 42 -20.5 66.5t-66.5 24.5h-15v92h15q93 0 141.5 -48.5t48.5 -135.5v-135q0 -35 16 -56t51 -21h11v-80h-11q-35 0 -51 -21t-16 -56v-139z" />
    <glyph glyph-name="asciitilde" unicode="~" horiz-adv-x="521" 
d="M479 353q-23 -45 -54.5 -74.5t-73.5 -29.5q-29 0 -50.5 11t-47.5 28q-16 11 -32 20t-36 9q-26 0 -46.5 -22t-40.5 -55l-55 42q23 49 59.5 81.5t84.5 32.5q32 0 56 -12.5t44 -25.5q19 -13 33 -21t31 -8q20 0 36.5 17t33.5 47z" />
    <glyph glyph-name="uni00A0" unicode="&#xa0;" horiz-adv-x="204" 
 />
    <glyph glyph-name="exclamdown" unicode="&#xa1;" horiz-adv-x="235" 
d="M169 0v-168h-103v168l21 311h61zM56 438q0 26 17.5 43.5t43.5 17.5t44 -17.5t18 -43.5t-18 -44t-44 -18t-43.5 18t-17.5 44z" />
    <glyph glyph-name="cent" unicode="&#xa2;" horiz-adv-x="478" 
d="M281 667v-87q69 -11 109 -57t40 -118v-5h-95v12q0 37 -24.5 62t-69.5 25t-69 -29t-24 -73v-136q0 -44 24 -73t69 -29q46 0 70 25t24 65v15h95v-8q0 -75 -40 -121t-109 -57v-88h-78v88q-71 11 -112.5 61t-41.5 129v122q0 79 41.5 129t112.5 61v87h78z" />
    <glyph glyph-name="sterling" unicode="&#xa3;" horiz-adv-x="560" 
d="M48 329h61v133q0 47 15 85t41.5 64.5t63.5 41t81 14.5q43 0 79.5 -14t62 -39.5t40 -62.5t14.5 -83v-25h-99v25q0 48 -24.5 77.5t-71.5 29.5q-48 0 -74 -31.5t-26 -81.5v-133h172v-81h-172v-158h298v-90h-461v90h61v158h-61v81z" />
    <glyph glyph-name="currency" unicode="&#xa4;" horiz-adv-x="599" 
d="M550 513l-83 -78q25 -42 25 -98v-11q0 -55 -25 -99l83 -77l-64 -63l-76 82q-47 -29 -111 -29q-63 0 -110 29l-76 -82l-64 63l82 77q-25 42 -25 99v11q0 29 6.5 54t17.5 45l-81 77l64 63l75 -81q47 28 111 28t110 -29l77 82zM203 326q0 -42 25.5 -69t70.5 -27t70.5 27
t25.5 69v11q0 43 -25.5 69.5t-70.5 26.5t-70.5 -26.5t-25.5 -69.5v-11z" />
    <glyph glyph-name="yen" unicode="&#xa5;" horiz-adv-x="546" 
d="M506 657l-138 -284h105v-65h-136l-15 -31v-35h151v-65h-151v-177h-98v177h-151v65h151v34l-16 32h-135v65h104l-138 284h107l130 -284l129 284h101z" />
    <glyph glyph-name="brokenbar" unicode="&#xa6;" horiz-adv-x="254" 
d="M75 765h103v-360h-103v360zM75 249h103v-360h-103v360z" />
    <glyph glyph-name="section" unicode="&#xa7;" horiz-adv-x="513" 
d="M192 313q-30 12 -55.5 28t-44 37t-28.5 48t-10 61q0 38 14 71t40 57t62.5 38t82.5 14q45 0 82.5 -13t64.5 -38t42 -60t15 -79v-13h-97v20q0 44 -27.5 72t-78.5 28t-77.5 -24.5t-26.5 -62.5q0 -27 16.5 -52t51.5 -39l132 -55q24 -10 44 -20.5t34.5 -25t22.5 -33.5t8 -46
v-19zM322 156q60 -23 98.5 -64.5t38.5 -108.5q0 -38 -14 -71t-40 -57.5t-62.5 -38.5t-82.5 -14q-45 0 -82.5 13t-64.5 38t-42 60t-15 79v14h97v-21q0 -44 27.5 -71.5t78.5 -27.5t77.5 24.5t26.5 62.5q0 27 -16.5 52t-51.5 39l-132 55q-24 9 -44 19.5t-34.5 25t-22.5 34
t-8 46.5v19z" />
    <glyph glyph-name="dieresis" unicode="&#xa8;" horiz-adv-x="273" 
d="M20 610q0 22 15.5 36.5t38.5 14.5q21 0 35.5 -14.5t14.5 -36.5q0 -23 -14.5 -38.5t-35.5 -15.5q-23 0 -38.5 15.5t-15.5 38.5zM149 610q0 22 15 36.5t37 14.5t37 -14.5t15 -36.5q0 -23 -15 -38.5t-37 -15.5t-37 15.5t-15 38.5z" />
    <glyph glyph-name="copyright" unicode="&#xa9;" horiz-adv-x="766" 
d="M536 282v-6q0 -66 -42.5 -104t-111.5 -38q-70 0 -113.5 41.5t-43.5 112.5v80q0 72 43.5 114t113.5 42q69 0 111.5 -37.5t42.5 -103.5v-3h-82v9q0 26 -18 44t-53 18t-54 -21.5t-19 -54.5v-92q0 -34 19 -56t54 -22t53 18t18 47v12h82zM43 327q0 70 26.5 132t73 108.5
t108 73t132.5 26.5q70 0 132 -26.5t108.5 -73t73 -108.5t26.5 -132q0 -71 -27 -132.5t-73 -107t-108.5 -72t-132.5 -26.5q-71 0 -132.5 26.5t-107.5 72t-72.5 107t-26.5 132.5zM105 327q0 -59 21.5 -110t59 -88.5t88 -59.5t108.5 -22t108.5 22t88 59.5t59.5 88.5t22 110
q0 58 -22 109.5t-59.5 89.5t-88 60.5t-107.5 22.5q-58 0 -108.5 -22.5t-88 -60.5t-59.5 -89.5t-22 -109.5z" />
    <glyph glyph-name="ordfeminine" unicode="&#xaa;" horiz-adv-x="319" 
d="M53 566q0 42 20 69t62 27q20 0 34.5 -7.5t23.5 -19.5l4 22h59v-245h-59l-4 22q-9 -12 -23.5 -19.5t-34.5 -7.5q-42 0 -62 27t-20 69v63zM154 466q16 0 25.5 10.5t9.5 27.5v62q0 16 -9.5 27t-25.5 11q-17 0 -25 -11t-8 -27v-62q0 -17 8 -27.5t25 -10.5z" />
    <glyph glyph-name="guillemotleft" unicode="&#xab;" horiz-adv-x="358" 
d="M229 398h73l-45 -165l45 -165h-73l-57 165zM109 398h74l-49 -165l49 -165h-74l-60 165z" />
    <glyph glyph-name="logicalnot" unicode="&#xac;" horiz-adv-x="523" 
d="M60 372h395v-233h-99v144h-296v89z" />
    <glyph glyph-name="uni00AD" unicode="&#xad;" horiz-adv-x="363" 
d="M63 305h237v-89h-237v89z" />
    <glyph glyph-name="registered" unicode="&#xae;" horiz-adv-x="525" 
d="M51 455q0 44 16.5 82.5t45 67.5t67 45.5t82.5 16.5t82.5 -16.5t67.5 -45.5t45.5 -67.5t16.5 -82.5t-16.5 -82.5t-45.5 -67t-67.5 -45t-82.5 -16.5t-82.5 16.5t-67 45t-45 67t-16.5 82.5zM101 455q0 -35 12.5 -65t34 -52t51 -35t63.5 -13q33 0 62.5 13t51.5 35t34.5 52
t12.5 65q0 34 -12.5 64t-34.5 52.5t-51.5 35.5t-62.5 13q-34 0 -63.5 -13t-51 -35.5t-34 -52.5t-12.5 -64zM299 344l-30 81h-38v-81h-50v221h93q35 0 58 -18.5t23 -50.5q0 -21 -10 -36.5t-26 -24.5l36 -91h-56zM231 524v-60h37q17 0 25 8.5t8 22.5q0 29 -33 29h-37z" />
    <glyph glyph-name="macron" unicode="&#xaf;" horiz-adv-x="278" 
d="M20 639h238v-72h-238v72z" />
    <glyph glyph-name="degree" unicode="&#xb0;" horiz-adv-x="429" 
d="M42 495q0 36 13.5 67t36.5 54.5t54.5 37t66.5 13.5q36 0 67.5 -13.5t55 -37t37 -54.5t13.5 -67t-13.5 -67t-37 -54.5t-55 -37t-67.5 -13.5q-35 0 -66.5 13.5t-54.5 37t-36.5 54.5t-13.5 67zM122 495q0 -20 7 -38t19.5 -31t29 -20.5t35.5 -7.5q40 0 66.5 28t26.5 69
q0 40 -26.5 68.5t-66.5 28.5q-19 0 -35.5 -7.5t-29 -21t-19.5 -31t-7 -37.5z" />
    <glyph glyph-name="plusminus" unicode="&#xb1;" horiz-adv-x="521" 
d="M309 406h150v-72h-150v-123h-94v123h-151v72h151v123h94v-123zM64 172h390v-67h-390v67z" />
    <glyph glyph-name="uni00B2" unicode="&#xb2;" horiz-adv-x="284" 
d="M30 514q0 12 2 25.5t7 27.5t15 27.5t27 24.5l61 40q15 9 25.5 22.5t10.5 34.5q0 34 -37 34q-40 0 -40 -38v-8h-68v9q0 44 30 72t81 28q49 0 78 -25t29 -69q0 -37 -16 -61.5t-46 -44.5l-54 -35q-14 -9 -18.5 -18.5t-5.5 -15.5h140v-64h-221v34z" />
    <glyph glyph-name="uni00B3" unicode="&#xb3;" horiz-adv-x="281" 
d="M110 676h21q23 0 33 9t10 29q0 38 -37 38q-18 0 -28.5 -10.5t-10.5 -27.5v-6h-67v7q0 43 29 71.5t79 28.5q49 0 77 -25.5t28 -66.5q0 -26 -10 -43.5t-26 -27.5q19 -10 30 -29.5t11 -48.5q0 -45 -30 -71t-81 -26t-80 27t-29 72v8h67v-7q0 -18 10.5 -29t29.5 -11
q41 0 41 44q0 42 -46 42h-21v53z" />
    <glyph glyph-name="acute" unicode="&#xb4;" horiz-adv-x="217" 
d="M66 545l-46 41l113 126l64 -61z" />
    <glyph glyph-name="mu" unicode="&#xb5;" horiz-adv-x="507" 
d="M70 489h100v-320q0 -40 21.5 -66t63.5 -26q44 0 69 28t26 70v314h100v-489h-83l-10 51q-20 -28 -52.5 -44.5t-74.5 -16.5q-39 0 -66 22l6 -158v-41h-100v676z" />
    <glyph glyph-name="paragraph" unicode="&#xb6;" horiz-adv-x="533" 
d="M286 206h-20q-50 0 -92.5 15t-73 44t-47.5 71t-17 96q0 51 18 93t50.5 71t77.5 45t99 16h173v-768h-103v679h-65v-362z" />
    <glyph glyph-name="periodcentered" unicode="&#xb7;" horiz-adv-x="235" 
d="M56 276q0 26 18 44t44 18t44 -18t18 -44t-18 -43.5t-44 -17.5t-44 17.5t-18 43.5z" />
    <glyph glyph-name="cedilla" unicode="&#xb8;" horiz-adv-x="239" 
d="M58 -79l27 92h59l-17 -56h12q39 0 60 -18.5t21 -52.5t-22 -53.5t-59 -19.5h-105v52h98q11 0 17.5 5t6.5 16t-6.5 16t-17.5 5h-55z" />
    <glyph glyph-name="uni00B9" unicode="&#xb9;" horiz-adv-x="232" 
d="M31 810h126v-268h57v-60h-183v60h56v206h-56v62z" />
    <glyph glyph-name="ordmasculine" unicode="&#xba;" horiz-adv-x="306" 
d="M119 501q0 -17 8.5 -27t25.5 -10q16 0 25 10t9 27v66q0 17 -9 27.5t-25 10.5q-17 0 -25.5 -10.5t-8.5 -27.5v-66zM255 506q0 -45 -28.5 -72t-73.5 -27q-46 0 -74 27t-28 72v56q0 46 28 72.5t74 26.5q45 0 73.5 -26.5t28.5 -72.5v-56z" />
    <glyph glyph-name="guillemotright" unicode="&#xbb;" horiz-adv-x="358" 
d="M186 233l-57 -165h-73l45 165l-45 165h73zM309 233l-60 -165h-74l49 165l-49 165h74z" />
    <glyph glyph-name="onequarter" unicode="&#xbc;" horiz-adv-x="645" 
d="M568 328v-202h35v-59h-35v-67h-70v67h-147v67l135 194h82zM498 126v120l-84 -120h84zM484 657h81l-195 -329l-187 -328h-81l195 329zM50 657h126v-268h57v-60h-183v60h56v206h-56v62z" />
    <glyph glyph-name="onehalf" unicode="&#xbd;" horiz-adv-x="651" 
d="M482 657h82l-195 -329l-187 -328h-81l195 329zM49 657h126v-268h57v-60h-183v60h56v206h-56v62zM382 34q0 12 2 25.5t7.5 27.5t15.5 27.5t27 24.5l60 40q15 9 25.5 22.5t10.5 34.5q0 34 -36 34q-40 0 -40 -38v-8h-69v9q0 44 30.5 72t80.5 28q49 0 78 -25t29 -69
q0 -37 -16 -61.5t-46 -44.5l-54 -35q-14 -9 -18.5 -18.5t-5.5 -15.5h140v-64h-221v34z" />
    <glyph glyph-name="threequarters" unicode="&#xbe;" horiz-adv-x="641" 
d="M564 328v-202h35v-59h-35v-67h-71v67h-146v67l134 194h83zM493 126v120l-83 -120h83zM479 657h81l-194 -329l-187 -328h-81l195 329zM127 529h22q23 0 32.5 9t9.5 29q0 37 -37 37q-38 0 -38 -38v-6h-68v8q0 42 29 70.5t79 28.5q49 0 77 -25.5t28 -65.5q0 -26 -9.5 -44
t-26.5 -28q19 -9 30 -28.5t11 -49.5q0 -45 -30 -71t-81 -26t-80 27t-29 72v8h68v-7q0 -18 10 -29t29 -11q42 0 42 45q0 41 -46 41h-22v54z" />
    <glyph glyph-name="questiondown" unicode="&#xbf;" horiz-adv-x="481" 
d="M290 311l5 -36q4 -29 -3 -52.5t-20.5 -43.5t-32.5 -38.5t-39 -38.5q-22 -22 -40.5 -45t-18.5 -57q0 -38 25.5 -61.5t73.5 -23.5q52 0 79 27t27 70v25h100v-25q0 -42 -15 -77t-42 -60t-65.5 -39t-85.5 -14q-46 0 -83.5 12.5t-64 35t-41 55t-14.5 72.5q0 50 25 87.5
t60 70.5q16 15 30.5 28.5t26 27.5t19 30.5t9.5 37.5l4 32h81zM310 439q0 -26 -17.5 -43.5t-43.5 -17.5t-43 17.5t-17 43.5q0 25 17 42.5t43 17.5t43.5 -17.5t17.5 -42.5z" />
    <glyph glyph-name="Agrave" unicode="&#xc0;" horiz-adv-x="553" 
d="M20 0l202 657h108l203 -657h-107l-39 132h-227l-39 -132h-101zM184 221h179l-90 305zM145 800l65 62l112 -126l-46 -42z" />
    <glyph glyph-name="Aacute" unicode="&#xc1;" horiz-adv-x="553" 
d="M20 0l202 657h108l203 -657h-107l-39 132h-227l-39 -132h-101zM184 221h179l-90 305zM274 694l-46 42l113 126l64 -62z" />
    <glyph glyph-name="Acircumflex" unicode="&#xc2;" horiz-adv-x="553" 
d="M20 0l202 657h108l203 -657h-107l-39 132h-227l-39 -132h-101zM184 221h179l-90 305zM301 857l105 -129l-39 -34l-92 81l-90 -80l-38 33l106 129h48z" />
    <glyph glyph-name="Atilde" unicode="&#xc3;" horiz-adv-x="553" 
d="M20 0l202 657h108l203 -657h-107l-39 132h-227l-39 -132h-101zM184 221h179l-90 305zM431 811q1 -6 1 -12v-12q0 -45 -21 -68t-57 -23q-16 0 -31.5 4.5t-29.5 12.5l-42 22q-8 4 -17 7.5t-18 3.5q-14 0 -22 -7t-12 -16t-5 -16.5t-1 -8.5h-53q-1 7 -2 13t-1 13
q0 39 24.5 65t64.5 26q26 0 55 -15l41 -21q11 -5 22 -10.5t20 -5.5q11 0 17.5 6t9.5 14t4 16t1 12h52z" />
    <glyph glyph-name="Adieresis" unicode="&#xc4;" horiz-adv-x="553" 
d="M20 0l202 657h108l203 -657h-107l-39 132h-227l-39 -132h-101zM184 221h179l-90 305zM160 764q0 22 15.5 37t38.5 15q21 0 35.5 -15t14.5 -37t-14.5 -38t-35.5 -16q-23 0 -38.5 16t-15.5 38zM289 764q0 22 15 37t37 15t37 -15t15 -37t-15 -38t-37 -16t-37 16t-15 38z" />
    <glyph glyph-name="Aring" unicode="&#xc5;" horiz-adv-x="553" 
d="M20 0l193 627q-41 28 -41 81q0 42 28.5 71t74.5 29t75 -29t29 -71q0 -25 -10.5 -45.5t-29.5 -34.5l194 -628h-107l-39 132h-227l-39 -132h-101zM184 221h179l-90 305zM275 658q22 0 34.5 14.5t12.5 35.5t-12.5 35.5t-34.5 14.5q-21 0 -33.5 -14.5t-12.5 -35.5t12.5 -35.5
t33.5 -14.5z" />
    <glyph glyph-name="AE" unicode="&#xc6;" horiz-adv-x="823" 
d="M3 0l321 657h445v-93h-291v-184h265v-91h-265v-196h300v-93h-403v130h-201l-61 -130h-110zM375 219v344l-162 -344h162z" />
    <glyph glyph-name="Ccedilla" unicode="&#xc7;" horiz-adv-x="552" 
d="M212 -79l21 74q-78 14 -125 68.5t-47 141.5v247q0 100 58.5 157.5t164.5 57.5q49 0 89 -14.5t69 -41.5t45 -66t16 -87v-15h-100v16q0 51 -31.5 83t-89.5 32q-56 0 -87 -34t-31 -88v-247q0 -54 31 -88t87 -34q58 0 89.5 32t31.5 83v20h100v-19q0 -48 -15.5 -86t-43.5 -65
t-67 -42t-86 -16l-10 -33h12q39 0 60 -18.5t21 -52.5t-22 -53.5t-59 -19.5h-105v52h98q11 0 17.5 5t6.5 16t-6.5 16t-17.5 5h-55z" />
    <glyph glyph-name="Egrave" unicode="&#xc8;" horiz-adv-x="520" 
d="M145 800l65 62l112 -126l-46 -42zM181 289v-196h294v-93h-397v657h388v-93h-285v-184h259v-91h-259z" />
    <glyph glyph-name="Eacute" unicode="&#xc9;" horiz-adv-x="520" 
d="M181 289v-196h294v-93h-397v657h388v-93h-285v-184h259v-91h-259zM275 694l-46 42l113 126l64 -62z" />
    <glyph glyph-name="Ecircumflex" unicode="&#xca;" horiz-adv-x="520" 
d="M301 857l105 -129l-39 -34l-92 81l-90 -80l-38 33l106 129h48zM181 289v-196h294v-93h-397v657h388v-93h-285v-184h259v-91h-259z" />
    <glyph glyph-name="Edieresis" unicode="&#xcb;" horiz-adv-x="520" 
d="M181 289v-196h294v-93h-397v657h388v-93h-285v-184h259v-91h-259zM160 764q0 22 15.5 37t38.5 15q21 0 35.5 -15t14.5 -37t-14.5 -38t-35.5 -16q-23 0 -38.5 16t-15.5 38zM289 764q0 22 15 37t37 15t37 -15t15 -37t-15 -38t-37 -16t-37 16t-15 38z" />
    <glyph glyph-name="Igrave" unicode="&#xcc;" horiz-adv-x="258" 
d="M181 0h-103v657h103v-657zM0 800l65 62l112 -126l-46 -42z" />
    <glyph glyph-name="Iacute" unicode="&#xcd;" horiz-adv-x="258" 
d="M181 0h-103v657h103v-657zM128 694l-46 42l113 126l64 -62z" />
    <glyph glyph-name="Icircumflex" unicode="&#xce;" horiz-adv-x="258" 
d="M181 0h-103v657h103v-657zM154 857l105 -129l-39 -34l-92 81l-90 -80l-38 33l106 129h48z" />
    <glyph glyph-name="Idieresis" unicode="&#xcf;" horiz-adv-x="258" 
d="M181 0h-103v657h103v-657zM13 764q0 22 15.5 37t38.5 15q21 0 35.5 -15t14.5 -37t-14.5 -38t-35.5 -16q-23 0 -38.5 16t-15.5 38zM142 764q0 22 15 37t37 15t37 -15t15 -37t-15 -38t-37 -16t-37 16t-15 38z" />
    <glyph glyph-name="Eth" unicode="&#xd0;" horiz-adv-x="589" 
d="M301 657q53 0 95.5 -15.5t72 -44t45.5 -69t16 -91.5v-217q0 -51 -16 -91.5t-45.5 -69t-72 -44t-95.5 -15.5h-219v291h-70v85h70v281h219zM185 564v-188h115v-85h-115v-198h116q61 0 93.5 35t32.5 92v217q0 57 -32.5 92t-93.5 35h-116z" />
    <glyph glyph-name="Ntilde" unicode="&#xd1;" horiz-adv-x="590" 
d="M450 811q1 -6 1 -12v-12q0 -45 -21 -68t-57 -23q-16 0 -31.5 4.5t-29.5 12.5l-42 22q-8 4 -17 7.5t-18 3.5q-14 0 -22 -7t-12 -16t-5 -16.5t-1 -8.5h-53q-1 7 -2 13t-1 13q0 39 24.5 65t64.5 26q26 0 55 -15l41 -21q11 -5 22 -10.5t20 -5.5q11 0 17.5 6t9.5 14t4 16t1 12
h52zM513 0h-85l-256 456v-456h-94v657h89l251 -447v447h95v-657z" />
    <glyph glyph-name="Ograve" unicode="&#xd2;" horiz-adv-x="568" 
d="M152 800l65 62l112 -126l-46 -42zM163 205q0 -54 31.5 -88t89.5 -34t89.5 34t31.5 88v247q0 54 -31.5 88t-89.5 34t-89.5 -34t-31.5 -88v-247zM509 205q0 -50 -16.5 -89.5t-46 -67.5t-71 -43t-91.5 -15t-91 15t-70.5 43t-46 67.5t-16.5 89.5v247q0 99 59 157t165 58
q50 0 91.5 -15t71 -43t46 -68t16.5 -89v-247z" />
    <glyph glyph-name="Oacute" unicode="&#xd3;" horiz-adv-x="568" 
d="M284 694l-46 42l113 126l64 -62zM163 205q0 -54 31.5 -88t89.5 -34t89.5 34t31.5 88v247q0 54 -31.5 88t-89.5 34t-89.5 -34t-31.5 -88v-247zM509 205q0 -50 -16.5 -89.5t-46 -67.5t-71 -43t-91.5 -15t-91 15t-70.5 43t-46 67.5t-16.5 89.5v247q0 99 59 157t165 58
q50 0 91.5 -15t71 -43t46 -68t16.5 -89v-247z" />
    <glyph glyph-name="Ocircumflex" unicode="&#xd4;" horiz-adv-x="568" 
d="M308 857l105 -129l-39 -34l-92 81l-90 -80l-38 33l106 129h48zM163 205q0 -54 31.5 -88t89.5 -34t89.5 34t31.5 88v247q0 54 -31.5 88t-89.5 34t-89.5 -34t-31.5 -88v-247zM509 205q0 -50 -16.5 -89.5t-46 -67.5t-71 -43t-91.5 -15t-91 15t-70.5 43t-46 67.5t-16.5 89.5
v247q0 99 59 157t165 58q50 0 91.5 -15t71 -43t46 -68t16.5 -89v-247z" />
    <glyph glyph-name="Otilde" unicode="&#xd5;" horiz-adv-x="568" 
d="M163 205q0 -54 31.5 -88t89.5 -34t89.5 34t31.5 88v247q0 54 -31.5 88t-89.5 34t-89.5 -34t-31.5 -88v-247zM509 205q0 -50 -16.5 -89.5t-46 -67.5t-71 -43t-91.5 -15t-91 15t-70.5 43t-46 67.5t-16.5 89.5v247q0 99 59 157t165 58q50 0 91.5 -15t71 -43t46 -68t16.5 -89
v-247zM439 811q1 -6 1 -12v-12q0 -45 -21 -68t-57 -23q-16 0 -31.5 4.5t-29.5 12.5l-42 22q-8 4 -17 7.5t-18 3.5q-14 0 -22 -7t-12 -16t-5 -16.5t-1 -8.5h-53q-1 7 -2 13t-1 13q0 39 24.5 65t64.5 26q26 0 55 -15l41 -21q11 -5 22 -10.5t20 -5.5q11 0 17.5 6t9.5 14t4 16
t1 12h52z" />
    <glyph glyph-name="Odieresis" unicode="&#xd6;" horiz-adv-x="568" 
d="M163 205q0 -54 31.5 -88t89.5 -34t89.5 34t31.5 88v247q0 54 -31.5 88t-89.5 34t-89.5 -34t-31.5 -88v-247zM509 205q0 -50 -16.5 -89.5t-46 -67.5t-71 -43t-91.5 -15t-91 15t-70.5 43t-46 67.5t-16.5 89.5v247q0 99 59 157t165 58q50 0 91.5 -15t71 -43t46 -68t16.5 -89
v-247zM168 764q0 22 15.5 37t38.5 15q21 0 35.5 -15t14.5 -37t-14.5 -38t-35.5 -16q-23 0 -38.5 16t-15.5 38zM297 764q0 22 15 37t37 15t37 -15t15 -37t-15 -38t-37 -16t-37 16t-15 38z" />
    <glyph glyph-name="multiply" unicode="&#xd7;" horiz-adv-x="442" 
d="M156 327l-105 106l65 65l105 -105l106 106l65 -65l-106 -106l107 -107l-65 -65l-107 106l-105 -105l-66 66z" />
    <glyph glyph-name="Oslash" unicode="&#xd8;" horiz-adv-x="568" 
d="M509 205q0 -50 -16.5 -89.5t-46 -67.5t-71 -43t-91.5 -15q-34 0 -64 7t-55 20l-32 -66h-67l50 102q-27 28 -41.5 66t-14.5 86v247q0 99 59 157t165 58q68 0 118 -27l33 66h67l-51 -102q28 -28 43 -66t15 -86v-247zM408 454q0 26 -9 49l-194 -399q31 -23 79 -23
q60 0 92 34t32 88v251zM161 203q0 -27 7 -48l195 398q-15 11 -35 17t-44 6q-59 0 -91 -34t-32 -88v-251z" />
    <glyph glyph-name="Ugrave" unicode="&#xd9;" horiz-adv-x="584" 
d="M161 800l65 62l112 -126l-46 -42zM511 657v-452q0 -50 -16 -89.5t-45 -67.5t-69 -43t-89 -15t-89 15t-69 43t-45 67.5t-16 89.5v452h103v-452q0 -54 30 -88t86 -34q55 0 85.5 34t30.5 88v452h103z" />
    <glyph glyph-name="Uacute" unicode="&#xda;" horiz-adv-x="584" 
d="M511 657v-452q0 -50 -16 -89.5t-45 -67.5t-69 -43t-89 -15t-89 15t-69 43t-45 67.5t-16 89.5v452h103v-452q0 -54 30 -88t86 -34q55 0 85.5 34t30.5 88v452h103zM290 694l-46 42l113 126l64 -62z" />
    <glyph glyph-name="Ucircumflex" unicode="&#xdb;" horiz-adv-x="584" 
d="M316 857l105 -129l-39 -34l-92 81l-90 -80l-38 33l106 129h48zM511 657v-452q0 -50 -16 -89.5t-45 -67.5t-69 -43t-89 -15t-89 15t-69 43t-45 67.5t-16 89.5v452h103v-452q0 -54 30 -88t86 -34q55 0 85.5 34t30.5 88v452h103z" />
    <glyph glyph-name="Udieresis" unicode="&#xdc;" horiz-adv-x="584" 
d="M511 657v-452q0 -50 -16 -89.5t-45 -67.5t-69 -43t-89 -15t-89 15t-69 43t-45 67.5t-16 89.5v452h103v-452q0 -54 30 -88t86 -34q55 0 85.5 34t30.5 88v452h103zM175 764q0 22 15.5 37t38.5 15q21 0 35.5 -15t14.5 -37t-14.5 -38t-35.5 -16q-23 0 -38.5 16t-15.5 38z
M304 764q0 22 15 37t37 15t37 -15t15 -37t-15 -38t-37 -16t-37 16t-15 38z" />
    <glyph glyph-name="Yacute" unicode="&#xdd;" horiz-adv-x="499" 
d="M121 657l132 -292l131 292h104l-187 -393v-264h-103v263l-187 394h110zM249 694l-46 42l113 126l64 -62z" />
    <glyph glyph-name="Thorn" unicode="&#xde;" horiz-adv-x="555" 
d="M181 542h113q49 0 90 -15t71 -43t47 -66.5t17 -86.5q0 -50 -17 -90t-47 -68t-71 -43.5t-90 -15.5h-113v-114h-103v657h103v-115zM181 452v-247h105q59 0 93.5 33.5t34.5 90.5q0 56 -34.5 89.5t-93.5 33.5h-105z" />
    <glyph glyph-name="germandbls" unicode="&#xdf;" horiz-adv-x="509" 
d="M228 83h21q54 0 84 31t30 83t-29.5 84t-80.5 32h-25v81h15q48 0 76.5 27t28.5 75q0 44 -23 70.5t-69 26.5q-26 0 -44 -7.5t-28.5 -21.5t-15 -33t-4.5 -42v-489h-98v483q0 93 49.5 143.5t141.5 50.5q44 0 79.5 -12t61 -34.5t39 -54t13.5 -70.5q0 -55 -26 -92t-72 -56v-1
q54 -19 84 -61t30 -107q0 -43 -15 -78t-42.5 -59.5t-65 -38t-82.5 -13.5h-33v83z" />
    <glyph glyph-name="agrave" unicode="&#xe0;" 
d="M51 313q0 84 43 135t125 51q42 0 73.5 -16t51.5 -44l10 50h82v-489h-82l-10 51q-20 -29 -51.5 -45t-73.5 -16q-82 0 -125 51t-43 135v137zM241 77q45 0 70.5 29t25.5 73v132q0 43 -25.5 72t-70.5 29t-67.5 -27.5t-22.5 -69.5v-141q0 -42 22.5 -69.5t67.5 -27.5zM114 651
l65 61l112 -126l-46 -41z" />
    <glyph glyph-name="aacute" unicode="&#xe1;" 
d="M51 313q0 84 43 135t125 51q42 0 73.5 -16t51.5 -44l10 50h82v-489h-82l-10 51q-20 -29 -51.5 -45t-73.5 -16q-82 0 -125 51t-43 135v137zM241 77q45 0 70.5 29t25.5 73v132q0 43 -25.5 72t-70.5 29t-67.5 -27.5t-22.5 -69.5v-141q0 -42 22.5 -69.5t67.5 -27.5zM242 545
l-46 41l113 126l64 -61z" />
    <glyph glyph-name="acircumflex" unicode="&#xe2;" 
d="M51 313q0 84 43 135t125 51q42 0 73.5 -16t51.5 -44l10 50h82v-489h-82l-10 51q-20 -29 -51.5 -45t-73.5 -16q-82 0 -125 51t-43 135v137zM241 77q45 0 70.5 29t25.5 73v132q0 43 -25.5 72t-70.5 29t-67.5 -27.5t-22.5 -69.5v-141q0 -42 22.5 -69.5t67.5 -27.5zM268 707
l105 -129l-39 -34l-92 81l-90 -80l-38 33l106 129h48z" />
    <glyph glyph-name="atilde" unicode="&#xe3;" 
d="M51 313q0 84 43 135t125 51q42 0 73.5 -16t51.5 -44l10 50h82v-489h-82l-10 51q-20 -29 -51.5 -45t-73.5 -16q-82 0 -125 51t-43 135v137zM241 77q45 0 70.5 29t25.5 73v132q0 43 -25.5 72t-70.5 29t-67.5 -27.5t-22.5 -69.5v-141q0 -42 22.5 -69.5t67.5 -27.5zM398 666
q1 -7 1 -12.5v-11.5q0 -45 -21 -68t-57 -23q-16 0 -31.5 5t-29.5 13l-42 21q-8 5 -16.5 8.5t-18.5 3.5q-14 0 -22 -7.5t-12 -16.5t-5 -16.5t-1 -8.5h-53q-1 5 -2 12t-1 14q0 39 24.5 65t64.5 26q26 0 55 -15l41 -21q11 -5 22 -10.5t20 -5.5q11 0 17.5 6t9.5 14t4 16t1 12h52
z" />
    <glyph glyph-name="adieresis" unicode="&#xe4;" 
d="M51 313q0 84 43 135t125 51q42 0 73.5 -16t51.5 -44l10 50h82v-489h-82l-10 51q-20 -29 -51.5 -45t-73.5 -16q-82 0 -125 51t-43 135v137zM241 77q45 0 70.5 29t25.5 73v132q0 43 -25.5 72t-70.5 29t-67.5 -27.5t-22.5 -69.5v-141q0 -42 22.5 -69.5t67.5 -27.5zM127 610
q0 22 15.5 36.5t38.5 14.5q21 0 35.5 -14.5t14.5 -36.5q0 -23 -14.5 -38.5t-35.5 -15.5q-23 0 -38.5 15.5t-15.5 38.5zM256 610q0 22 15 36.5t37 14.5t37 -14.5t15 -36.5q0 -23 -15 -38.5t-37 -15.5t-37 15.5t-15 38.5z" />
    <glyph glyph-name="aring" unicode="&#xe5;" 
d="M51 313q0 84 43 135t125 51q42 0 73.5 -16t51.5 -44l10 50h82v-489h-82l-10 51q-20 -29 -51.5 -45t-73.5 -16q-82 0 -125 51t-43 135v137zM241 77q45 0 70.5 29t25.5 73v132q0 43 -25.5 72t-70.5 29t-67.5 -27.5t-22.5 -69.5v-141q0 -42 22.5 -69.5t67.5 -27.5zM242 577
q22 0 34.5 14.5t12.5 36.5q0 21 -12.5 35t-34.5 14q-21 0 -33.5 -14t-12.5 -35q0 -22 12.5 -36.5t33.5 -14.5zM242 528q-46 0 -74.5 29t-28.5 71t28.5 70.5t74.5 28.5t75 -28.5t29 -70.5t-29 -71t-75 -29z" />
    <glyph glyph-name="ae" unicode="&#xe6;" horiz-adv-x="747" 
d="M42 134q0 72 47 105t125 33h107v56q0 38 -22 63.5t-65 25.5q-42 0 -65 -24.5t-23 -60.5v-11h-97v6q0 40 13.5 71.5t37.5 54t57.5 34.5t73.5 12q48 0 84 -18t58 -50q48 68 140 68q42 0 76.5 -13.5t59 -39t38.5 -61t14 -80.5v-77h-282v-59q0 -42 25 -70.5t70 -28.5
q46 0 69.5 25.5t23.5 63.5v8h94v-6q0 -39 -14 -71t-38.5 -54t-59 -34t-76.5 -12q-53 0 -92.5 22.5t-62.5 64.5q-19 -39 -58.5 -63t-97.5 -24q-72 0 -116 36t-44 108zM225 70q47 0 71.5 29.5t24.5 72.5v28h-92q-15 0 -30.5 -2.5t-27.5 -9t-20 -19.5t-8 -34q0 -30 19.5 -47.5
t62.5 -17.5zM419 299h188v18q0 44 -24.5 73t-69.5 29t-69.5 -29t-24.5 -73v-18z" />
    <glyph glyph-name="ccedilla" unicode="&#xe7;" horiz-adv-x="474" 
d="M170 -79l22 74q-66 14 -104.5 63.5t-38.5 125.5v121q0 45 14 80.5t39.5 61t61 39t78.5 13.5q42 0 77 -12.5t59.5 -35t38.5 -55.5t14 -73v-5h-96v11q0 37 -24.5 61t-68.5 24q-45 0 -69 -28.5t-24 -72.5v-137q0 -44 24 -72.5t69 -28.5t69 24t24 63v16h96v-8
q0 -41 -13.5 -74t-37.5 -56t-57.5 -36t-73.5 -14l-10 -33h12q39 0 60 -18.5t21 -52.5t-22 -53.5t-59 -19.5h-105v52h98q11 0 17.5 5t6.5 16t-6.5 16t-17.5 5h-55z" />
    <glyph glyph-name="egrave" unicode="&#xe8;" horiz-adv-x="475" 
d="M429 167v-6q0 -39 -14 -71t-38.5 -54t-59 -34t-76.5 -12q-43 0 -78 13t-60.5 38t-39.5 59.5t-14 78.5v126q0 45 14 80.5t39.5 61t60.5 39t78 13.5q42 0 76.5 -13.5t59 -39t38.5 -61t14 -80.5v-77h-282v-59q0 -42 25 -70.5t70 -28.5t68.5 25.5t23.5 63.5v8h95zM147 299
h187v18q0 44 -24 73t-69 29t-69.5 -29t-24.5 -73v-18zM109 651l65 61l112 -126l-46 -41z" />
    <glyph glyph-name="eacute" unicode="&#xe9;" horiz-adv-x="475" 
d="M238 545l-46 41l113 126l64 -61zM429 167v-6q0 -39 -14 -71t-38.5 -54t-59 -34t-76.5 -12q-43 0 -78 13t-60.5 38t-39.5 59.5t-14 78.5v126q0 45 14 80.5t39.5 61t60.5 39t78 13.5q42 0 76.5 -13.5t59 -39t38.5 -61t14 -80.5v-77h-282v-59q0 -42 25 -70.5t70 -28.5
t68.5 25.5t23.5 63.5v8h95zM147 299h187v18q0 44 -24 73t-69 29t-69.5 -29t-24.5 -73v-18z" />
    <glyph glyph-name="ecircumflex" unicode="&#xea;" horiz-adv-x="475" 
d="M263 707l105 -129l-39 -34l-92 81l-90 -80l-38 33l106 129h48zM429 167v-6q0 -39 -14 -71t-38.5 -54t-59 -34t-76.5 -12q-43 0 -78 13t-60.5 38t-39.5 59.5t-14 78.5v126q0 45 14 80.5t39.5 61t60.5 39t78 13.5q42 0 76.5 -13.5t59 -39t38.5 -61t14 -80.5v-77h-282v-59
q0 -42 25 -70.5t70 -28.5t68.5 25.5t23.5 63.5v8h95zM147 299h187v18q0 44 -24 73t-69 29t-69.5 -29t-24.5 -73v-18z" />
    <glyph glyph-name="edieresis" unicode="&#xeb;" horiz-adv-x="475" 
d="M123 610q0 22 15.5 36.5t38.5 14.5q21 0 35.5 -14.5t14.5 -36.5q0 -23 -14.5 -38.5t-35.5 -15.5q-23 0 -38.5 15.5t-15.5 38.5zM252 610q0 22 15 36.5t37 14.5t37 -14.5t15 -36.5q0 -23 -15 -38.5t-37 -15.5t-37 15.5t-15 38.5zM429 167v-6q0 -39 -14 -71t-38.5 -54
t-59 -34t-76.5 -12q-43 0 -78 13t-60.5 38t-39.5 59.5t-14 78.5v126q0 45 14 80.5t39.5 61t60.5 39t78 13.5q42 0 76.5 -13.5t59 -39t38.5 -61t14 -80.5v-77h-282v-59q0 -42 25 -70.5t70 -28.5t68.5 25.5t23.5 63.5v8h95zM147 299h187v18q0 44 -24 73t-69 29t-69.5 -29
t-24.5 -73v-18z" />
    <glyph glyph-name="igrave" unicode="&#xec;" horiz-adv-x="232" 
d="M166 489v-489h-100v489h100zM-15 651l65 61l112 -126l-46 -41z" />
    <glyph glyph-name="iacute" unicode="&#xed;" horiz-adv-x="232" 
d="M114 545l-46 41l113 126l64 -61zM166 489v-489h-100v489h100z" />
    <glyph glyph-name="icircumflex" unicode="&#xee;" horiz-adv-x="232" 
d="M141 707l105 -129l-39 -34l-92 81l-90 -80l-38 33l106 129h48zM166 489v-489h-100v489h100z" />
    <glyph glyph-name="idieresis" unicode="&#xef;" horiz-adv-x="232" 
d="M-1 610q0 22 15.5 36.5t38.5 14.5q21 0 35.5 -14.5t14.5 -36.5q0 -23 -14.5 -38.5t-35.5 -15.5q-23 0 -38.5 15.5t-15.5 38.5zM128 610q0 22 15 36.5t37 14.5t37 -14.5t15 -36.5q0 -23 -15 -38.5t-37 -15.5t-37 15.5t-15 38.5zM166 489v-489h-100v489h100z" />
    <glyph glyph-name="eth" unicode="&#xf0;" horiz-adv-x="497" 
d="M371 595q31 -39 48.5 -92.5t17.5 -129.5v-189q0 -45 -14 -80.5t-39.5 -61t-61.5 -39t-79 -13.5t-78.5 13.5t-61 39t-39.5 61t-14 80.5v121q0 90 46 142t128 52q39 0 67.5 -15t46.5 -41q-5 40 -17 70.5t-31 55.5l-99 -31v56l61 19l-58 64h102l35 -38l92 30v-57zM149 176
q0 -44 24.5 -72.5t69.5 -28.5t70 28.5t25 72.5v137q0 44 -25 72.5t-70 28.5t-69.5 -28.5t-24.5 -72.5v-137z" />
    <glyph glyph-name="ntilde" unicode="&#xf1;" horiz-adv-x="513" 
d="M66 0v489h83l9 -52q21 29 53.5 45.5t74.5 16.5q82 0 123.5 -49.5t41.5 -130.5v-319h-99v315q0 42 -23 69.5t-68 27.5t-70 -29t-25 -72v-311h-100zM414 666q1 -7 1 -12.5v-11.5q0 -45 -21 -68t-57 -23q-16 0 -31.5 5t-29.5 13l-42 21q-8 5 -16.5 8.5t-18.5 3.5
q-14 0 -22 -7.5t-12 -16.5t-5 -16.5t-1 -8.5h-53q-1 5 -2 12t-1 14q0 39 24.5 65t64.5 26q26 0 55 -15l41 -21q11 -5 22 -10.5t20 -5.5q11 0 17.5 6t9.5 14t4 16t1 12h52z" />
    <glyph glyph-name="ograve" unicode="&#xf2;" horiz-adv-x="486" 
d="M149 176q0 -44 24.5 -72.5t69.5 -28.5t69.5 28.5t24.5 72.5v137q0 44 -24.5 72.5t-69.5 28.5t-69.5 -28.5t-24.5 -72.5v-137zM437 184q0 -45 -14 -80.5t-39.5 -61t-61.5 -39t-79 -13.5t-79 13.5t-61.5 39t-39.5 61t-14 80.5v121q0 45 14 80.5t39.5 61t61.5 39t79 13.5
t79 -13.5t61.5 -39t39.5 -61t14 -80.5v-121zM111 651l65 61l112 -126l-46 -41z" />
    <glyph glyph-name="oacute" unicode="&#xf3;" horiz-adv-x="486" 
d="M241 545l-46 41l113 126l64 -61zM149 176q0 -44 24.5 -72.5t69.5 -28.5t69.5 28.5t24.5 72.5v137q0 44 -24.5 72.5t-69.5 28.5t-69.5 -28.5t-24.5 -72.5v-137zM437 184q0 -45 -14 -80.5t-39.5 -61t-61.5 -39t-79 -13.5t-79 13.5t-61.5 39t-39.5 61t-14 80.5v121
q0 45 14 80.5t39.5 61t61.5 39t79 13.5t79 -13.5t61.5 -39t39.5 -61t14 -80.5v-121z" />
    <glyph glyph-name="ocircumflex" unicode="&#xf4;" horiz-adv-x="486" 
d="M267 707l105 -129l-39 -34l-92 81l-90 -80l-38 33l106 129h48zM149 176q0 -44 24.5 -72.5t69.5 -28.5t69.5 28.5t24.5 72.5v137q0 44 -24.5 72.5t-69.5 28.5t-69.5 -28.5t-24.5 -72.5v-137zM437 184q0 -45 -14 -80.5t-39.5 -61t-61.5 -39t-79 -13.5t-79 13.5t-61.5 39
t-39.5 61t-14 80.5v121q0 45 14 80.5t39.5 61t61.5 39t79 13.5t79 -13.5t61.5 -39t39.5 -61t14 -80.5v-121z" />
    <glyph glyph-name="otilde" unicode="&#xf5;" horiz-adv-x="486" 
d="M149 176q0 -44 24.5 -72.5t69.5 -28.5t69.5 28.5t24.5 72.5v137q0 44 -24.5 72.5t-69.5 28.5t-69.5 -28.5t-24.5 -72.5v-137zM437 184q0 -45 -14 -80.5t-39.5 -61t-61.5 -39t-79 -13.5t-79 13.5t-61.5 39t-39.5 61t-14 80.5v121q0 45 14 80.5t39.5 61t61.5 39t79 13.5
t79 -13.5t61.5 -39t39.5 -61t14 -80.5v-121zM397 666q1 -7 1 -12.5v-11.5q0 -45 -21 -68t-57 -23q-16 0 -31.5 5t-29.5 13l-42 21q-8 5 -16.5 8.5t-18.5 3.5q-14 0 -22 -7.5t-12 -16.5t-5 -16.5t-1 -8.5h-53q-1 5 -2 12t-1 14q0 39 24.5 65t64.5 26q26 0 55 -15l41 -21
q11 -5 22 -10.5t20 -5.5q11 0 17.5 6t9.5 14t4 16t1 12h52z" />
    <glyph glyph-name="odieresis" unicode="&#xf6;" horiz-adv-x="486" 
d="M126 610q0 22 15.5 36.5t38.5 14.5q21 0 35.5 -14.5t14.5 -36.5q0 -23 -14.5 -38.5t-35.5 -15.5q-23 0 -38.5 15.5t-15.5 38.5zM255 610q0 22 15 36.5t37 14.5t37 -14.5t15 -36.5q0 -23 -15 -38.5t-37 -15.5t-37 15.5t-15 38.5zM149 176q0 -44 24.5 -72.5t69.5 -28.5
t69.5 28.5t24.5 72.5v137q0 44 -24.5 72.5t-69.5 28.5t-69.5 -28.5t-24.5 -72.5v-137zM437 184q0 -45 -14 -80.5t-39.5 -61t-61.5 -39t-79 -13.5t-79 13.5t-61.5 39t-39.5 61t-14 80.5v121q0 45 14 80.5t39.5 61t61.5 39t79 13.5t79 -13.5t61.5 -39t39.5 -61t14 -80.5v-121z
" />
    <glyph glyph-name="divide" unicode="&#xf7;" 
d="M54 371h394v-86h-394v86zM195 484q0 23 16.5 39t39.5 16q22 0 38.5 -16t16.5 -39q0 -22 -16.5 -38.5t-38.5 -16.5q-23 0 -39.5 16.5t-16.5 38.5zM195 172q0 23 16.5 39t39.5 16q22 0 38.5 -16t16.5 -39t-16.5 -39t-38.5 -16q-23 0 -39.5 16t-16.5 39z" />
    <glyph glyph-name="oslash" unicode="&#xf8;" horiz-adv-x="486" 
d="M437 184q0 -45 -14 -80.5t-39.5 -61t-61.5 -39t-79 -13.5q-50 0 -93 19l-31 -58h-62l48 89q-27 26 -41.5 62t-14.5 82v121q0 45 14 80.5t39.5 61t61.5 39t79 13.5q50 0 92 -20l32 60h62l-48 -91q26 -26 41 -62t15 -81v-121zM146 174q0 -26 7 -44l143 272q-23 15 -53 15
q-47 0 -72 -29t-25 -73v-141zM339 315q0 24 -7 42l-143 -270q22 -14 54 -14q46 0 71 28.5t25 72.5v141z" />
    <glyph glyph-name="ugrave" unicode="&#xf9;" horiz-adv-x="508" 
d="M62 489h100v-320q0 -40 21.5 -66t63.5 -26q45 0 70 29t25 73v310h100v-489h-83l-10 51q-20 -28 -52.5 -44.5t-74.5 -16.5q-79 0 -119.5 48.5t-40.5 126.5v324zM121 651l65 61l112 -126l-46 -41z" />
    <glyph glyph-name="uacute" unicode="&#xfa;" horiz-adv-x="508" 
d="M251 545l-46 41l113 126l64 -61zM62 489h100v-320q0 -40 21.5 -66t63.5 -26q45 0 70 29t25 73v310h100v-489h-83l-10 51q-20 -28 -52.5 -44.5t-74.5 -16.5q-79 0 -119.5 48.5t-40.5 126.5v324z" />
    <glyph glyph-name="ucircumflex" unicode="&#xfb;" horiz-adv-x="508" 
d="M276 707l105 -129l-39 -34l-92 81l-90 -80l-38 33l106 129h48zM62 489h100v-320q0 -40 21.5 -66t63.5 -26q45 0 70 29t25 73v310h100v-489h-83l-10 51q-20 -28 -52.5 -44.5t-74.5 -16.5q-79 0 -119.5 48.5t-40.5 126.5v324z" />
    <glyph glyph-name="udieresis" unicode="&#xfc;" horiz-adv-x="508" 
d="M136 610q0 22 15.5 36.5t38.5 14.5q21 0 35.5 -14.5t14.5 -36.5q0 -23 -14.5 -38.5t-35.5 -15.5q-23 0 -38.5 15.5t-15.5 38.5zM265 610q0 22 15 36.5t37 14.5t37 -14.5t15 -36.5q0 -23 -15 -38.5t-37 -15.5t-37 15.5t-15 38.5zM62 489h100v-320q0 -40 21.5 -66t63.5 -26
q45 0 70 29t25 73v310h100v-489h-83l-10 51q-20 -28 -52.5 -44.5t-74.5 -16.5q-79 0 -119.5 48.5t-40.5 126.5v324z" />
    <glyph glyph-name="yacute" unicode="&#xfd;" horiz-adv-x="461" 
d="M123 -187l63 178l-166 498h106l107 -354l107 354h102l-226 -676h-93zM231 545l-46 41l113 126l64 -61z" />
    <glyph glyph-name="thorn" unicode="&#xfe;" 
d="M166 447q20 24 50 38t68 14q40 0 71.5 -13.5t52.5 -38t32 -58.5t11 -76v-137q0 -42 -11 -76t-32 -58.5t-52.5 -38t-71.5 -13.5q-38 0 -68 13.5t-50 37.5v-228h-100v864h100v-230zM261 412q-45 0 -70 -29t-25 -72v-132q0 -44 25 -73t70 -29t68 27.5t23 69.5v141
q0 42 -23 69.5t-68 27.5z" />
    <glyph glyph-name="ydieresis" unicode="&#xff;" horiz-adv-x="461" 
d="M123 -187l63 178l-166 498h106l107 -354l107 354h102l-226 -676h-93zM115 610q0 22 15.5 36.5t38.5 14.5q21 0 35.5 -14.5t14.5 -36.5q0 -23 -14.5 -38.5t-35.5 -15.5q-23 0 -38.5 15.5t-15.5 38.5zM244 610q0 22 15 36.5t37 14.5t37 -14.5t15 -36.5q0 -23 -15 -38.5
t-37 -15.5t-37 15.5t-15 38.5z" />
    <glyph glyph-name="Amacron" unicode="&#x100;" horiz-adv-x="553" 
d="M20 0l202 657h108l203 -657h-107l-39 132h-227l-39 -132h-101zM184 221h179l-90 305zM157 798h238v-72h-238v72z" />
    <glyph glyph-name="amacron" unicode="&#x101;" 
d="M51 313q0 84 43 135t125 51q42 0 73.5 -16t51.5 -44l10 50h82v-489h-82l-10 51q-20 -29 -51.5 -45t-73.5 -16q-82 0 -125 51t-43 135v137zM241 77q45 0 70.5 29t25.5 73v132q0 43 -25.5 72t-70.5 29t-67.5 -27.5t-22.5 -69.5v-141q0 -42 22.5 -69.5t67.5 -27.5zM125 639
h238v-72h-238v72z" />
    <glyph glyph-name="Abreve" unicode="&#x102;" horiz-adv-x="553" 
d="M20 0l202 657h108l203 -657h-107l-39 132h-227l-39 -132h-101zM184 221h179l-90 305zM387 819v-20q0 -44 -30 -74.5t-81 -30.5t-81 30.5t-30 74.5v20h62v-20q0 -21 12.5 -36t36.5 -15q23 0 36.5 15t13.5 36v20h61z" />
    <glyph glyph-name="abreve" unicode="&#x103;" 
d="M51 313q0 84 43 135t125 51q42 0 73.5 -16t51.5 -44l10 50h82v-489h-82l-10 51q-20 -29 -51.5 -45t-73.5 -16q-82 0 -125 51t-43 135v137zM241 77q45 0 70.5 29t25.5 73v132q0 43 -25.5 72t-70.5 29t-67.5 -27.5t-22.5 -69.5v-141q0 -42 22.5 -69.5t67.5 -27.5zM354 670
v-20q0 -44 -30 -74.5t-81 -30.5t-81 30.5t-30 74.5v20h62v-20q0 -22 12.5 -36.5t36.5 -14.5q23 0 36.5 14.5t13.5 36.5v20h61z" />
    <glyph glyph-name="Aogonek" unicode="&#x104;" horiz-adv-x="553" 
d="M500 -132v-59h-60q-48 0 -71 22.5t-23 54.5q0 38 23.5 69t55.5 48l-38 129h-227l-39 -132h-101l202 657h108l203 -657h-50q-32 -20 -53.5 -44.5t-21.5 -52.5q0 -15 11 -25t34 -10h47zM184 221h179l-90 305z" />
    <glyph glyph-name="aogonek" unicode="&#x105;" 
d="M426 -132v-59h-60q-48 0 -71 22.5t-23 54.5q0 39 24.5 70t56.5 48l-9 47q-20 -29 -51.5 -45t-73.5 -16q-82 0 -125 51t-43 135v137q0 84 43 135t125 51q42 0 73.5 -16t51.5 -44l10 50h82v-489h-27q-32 -20 -53.5 -44.5t-21.5 -52.5q0 -15 11 -25t34 -10h47zM241 77
q45 0 70.5 29t25.5 73v132q0 43 -25.5 72t-70.5 29t-67.5 -27.5t-22.5 -69.5v-141q0 -42 22.5 -69.5t67.5 -27.5z" />
    <glyph glyph-name="Cacute" unicode="&#x106;" horiz-adv-x="550" 
d="M502 218v-19q0 -48 -16 -87t-45 -66t-69 -41.5t-89 -14.5q-50 0 -91 15t-70 43t-45.5 67.5t-16.5 89.5v247q0 100 58.5 157.5t164.5 57.5q49 0 89 -14.5t69 -41.5t45 -66t16 -87v-15h-100v16q0 51 -31.5 83t-89.5 32q-56 0 -87 -34t-31 -88v-247q0 -54 31 -88t87 -34
q58 0 89.5 32t31.5 83v20h100zM280 694l-46 42l113 126l64 -62z" />
    <glyph glyph-name="cacute" unicode="&#x107;" horiz-adv-x="474" 
d="M239 545l-46 41l113 126l64 -61zM431 178v-8q0 -42 -14 -75.5t-38.5 -56.5t-59.5 -35.5t-77 -12.5q-43 0 -78.5 13.5t-61 39t-39.5 61t-14 80.5v121q0 45 14 80.5t39.5 61t61 39t78.5 13.5q42 0 77 -12.5t59.5 -35t38.5 -55.5t14 -73v-5h-96v11q0 37 -24.5 61t-68.5 24
q-45 0 -69 -28.5t-24 -72.5v-137q0 -44 24 -72.5t69 -28.5t69 24t24 63v16h96z" />
    <glyph glyph-name="Ccircumflex" unicode="&#x108;" horiz-adv-x="550" 
d="M502 218v-19q0 -48 -16 -87t-45 -66t-69 -41.5t-89 -14.5q-50 0 -91 15t-70 43t-45.5 67.5t-16.5 89.5v247q0 100 58.5 157.5t164.5 57.5q49 0 89 -14.5t69 -41.5t45 -66t16 -87v-15h-100v16q0 51 -31.5 83t-89.5 32q-56 0 -87 -34t-31 -88v-247q0 -54 31 -88t87 -34
q58 0 89.5 32t31.5 83v20h100zM305 857l105 -129l-39 -34l-92 81l-90 -80l-38 33l106 129h48z" />
    <glyph glyph-name="ccircumflex" unicode="&#x109;" horiz-adv-x="474" 
d="M264 707l105 -129l-39 -34l-92 81l-90 -80l-38 33l106 129h48zM431 178v-8q0 -42 -14 -75.5t-38.5 -56.5t-59.5 -35.5t-77 -12.5q-43 0 -78.5 13.5t-61 39t-39.5 61t-14 80.5v121q0 45 14 80.5t39.5 61t61 39t78.5 13.5q42 0 77 -12.5t59.5 -35t38.5 -55.5t14 -73v-5h-96
v11q0 37 -24.5 61t-68.5 24q-45 0 -69 -28.5t-24 -72.5v-137q0 -44 24 -72.5t69 -28.5t69 24t24 63v16h96z" />
    <glyph glyph-name="Cdotaccent" unicode="&#x10a;" horiz-adv-x="550" 
d="M220 768q0 26 17 43t42 17q26 0 43 -17t17 -43q0 -25 -17 -42t-43 -17q-25 0 -42 17t-17 42zM502 218v-19q0 -48 -16 -87t-45 -66t-69 -41.5t-89 -14.5q-50 0 -91 15t-70 43t-45.5 67.5t-16.5 89.5v247q0 100 58.5 157.5t164.5 57.5q49 0 89 -14.5t69 -41.5t45 -66
t16 -87v-15h-100v16q0 51 -31.5 83t-89.5 32q-56 0 -87 -34t-31 -88v-247q0 -54 31 -88t87 -34q58 0 89.5 32t31.5 83v20h100z" />
    <glyph glyph-name="cdotaccent" unicode="&#x10b;" horiz-adv-x="474" 
d="M431 178v-8q0 -42 -14 -75.5t-38.5 -56.5t-59.5 -35.5t-77 -12.5q-43 0 -78.5 13.5t-61 39t-39.5 61t-14 80.5v121q0 45 14 80.5t39.5 61t61 39t78.5 13.5q42 0 77 -12.5t59.5 -35t38.5 -55.5t14 -73v-5h-96v11q0 37 -24.5 61t-68.5 24q-45 0 -69 -28.5t-24 -72.5v-137
q0 -44 24 -72.5t69 -28.5t69 24t24 63v16h96zM179 611q0 25 17 42.5t42 17.5q26 0 43 -17.5t17 -42.5t-17 -42.5t-43 -17.5q-25 0 -42 17.5t-17 42.5z" />
    <glyph glyph-name="Ccaron" unicode="&#x10c;" horiz-adv-x="550" 
d="M502 218v-19q0 -48 -16 -87t-45 -66t-69 -41.5t-89 -14.5q-50 0 -91 15t-70 43t-45.5 67.5t-16.5 89.5v247q0 100 58.5 157.5t164.5 57.5q49 0 89 -14.5t69 -41.5t45 -66t16 -87v-15h-100v16q0 51 -31.5 83t-89.5 32q-56 0 -87 -34t-31 -88v-247q0 -54 31 -88t87 -34
q58 0 89.5 32t31.5 83v20h100zM257 692l-106 129l40 34l91 -81l90 80l38 -33l-105 -129h-48z" />
    <glyph glyph-name="ccaron" unicode="&#x10d;" horiz-adv-x="474" 
d="M215 545l-106 129l40 34l91 -81l90 80l38 -33l-105 -129h-48zM431 178v-8q0 -42 -14 -75.5t-38.5 -56.5t-59.5 -35.5t-77 -12.5q-43 0 -78.5 13.5t-61 39t-39.5 61t-14 80.5v121q0 45 14 80.5t39.5 61t61 39t78.5 13.5q42 0 77 -12.5t59.5 -35t38.5 -55.5t14 -73v-5h-96
v11q0 37 -24.5 61t-68.5 24q-45 0 -69 -28.5t-24 -72.5v-137q0 -44 24 -72.5t69 -28.5t69 24t24 63v16h96z" />
    <glyph glyph-name="Dcaron" unicode="&#x10e;" horiz-adv-x="584" 
d="M296 657q53 0 95.5 -15.5t72.5 -44t46 -69t16 -91.5v-217q0 -51 -16 -91.5t-46 -69t-72.5 -44t-95.5 -15.5h-218v657h218zM181 564v-471h115q61 0 94 35t33 92v217q0 57 -33 92t-94 35h-115zM236 692l-106 129l40 34l91 -81l90 80l38 -33l-105 -129h-48z" />
    <glyph glyph-name="dcaron" unicode="&#x10f;" 
d="M581 677l-59 -144h-56l22 144h93zM344 51q-20 -29 -51.5 -45t-73.5 -16q-82 0 -125 51t-43 135v137q0 84 43 135t125 51q38 0 68 -14t50 -38v230h99v-677h-82zM241 77q45 0 70.5 29t25.5 73v132q0 43 -25.5 72t-70.5 29t-67.5 -27.5t-22.5 -69.5v-141q0 -42 22.5 -69.5
t67.5 -27.5z" />
    <glyph glyph-name="Dcroat" unicode="&#x110;" horiz-adv-x="604" 
d="M316 657q53 0 95.5 -15.5t72 -44t45.5 -69t16 -91.5v-217q0 -51 -16 -91.5t-45.5 -69t-72 -44t-95.5 -15.5h-219v291h-70v85h70v281h219zM200 564v-188h115v-85h-115v-198h116q61 0 93.5 35t32.5 92v217q0 57 -32.5 92t-93.5 35h-116z" />
    <glyph glyph-name="dcroat" unicode="&#x111;" 
d="M344 51q-20 -29 -51.5 -45t-73.5 -16q-82 0 -125 51t-43 135v137q0 84 43 135t125 51q38 0 68 -14t50 -38v99h-107v62h107v69h99v-69h61v-62h-61v-546h-82zM241 77q45 0 70.5 29t25.5 73v132q0 43 -25.5 72t-70.5 29t-67.5 -27.5t-22.5 -69.5v-141q0 -42 22.5 -69.5
t67.5 -27.5z" />
    <glyph glyph-name="Emacron" unicode="&#x112;" horiz-adv-x="520" 
d="M181 289v-196h294v-93h-397v657h388v-93h-285v-184h259v-91h-259zM156 798h238v-72h-238v72z" />
    <glyph glyph-name="emacron" unicode="&#x113;" horiz-adv-x="475" 
d="M429 167v-6q0 -39 -14 -71t-38.5 -54t-59 -34t-76.5 -12q-43 0 -78 13t-60.5 38t-39.5 59.5t-14 78.5v126q0 45 14 80.5t39.5 61t60.5 39t78 13.5q42 0 76.5 -13.5t59 -39t38.5 -61t14 -80.5v-77h-282v-59q0 -42 25 -70.5t70 -28.5t68.5 25.5t23.5 63.5v8h95zM147 299
h187v18q0 44 -24 73t-69 29t-69.5 -29t-24.5 -73v-18zM120 639h238v-72h-238v72z" />
    <glyph glyph-name="Ebreve" unicode="&#x114;" horiz-adv-x="520" 
d="M181 289v-196h294v-93h-397v657h388v-93h-285v-184h259v-91h-259zM387 819v-20q0 -44 -30 -74.5t-81 -30.5t-81 30.5t-30 74.5v20h62v-20q0 -21 12.5 -36t36.5 -15q23 0 36.5 15t13.5 36v20h61z" />
    <glyph glyph-name="ebreve" unicode="&#x115;" horiz-adv-x="475" 
d="M429 167v-6q0 -39 -14 -71t-38.5 -54t-59 -34t-76.5 -12q-43 0 -78 13t-60.5 38t-39.5 59.5t-14 78.5v126q0 45 14 80.5t39.5 61t60.5 39t78 13.5q42 0 76.5 -13.5t59 -39t38.5 -61t14 -80.5v-77h-282v-59q0 -42 25 -70.5t70 -28.5t68.5 25.5t23.5 63.5v8h95zM147 299
h187v18q0 44 -24 73t-69 29t-69.5 -29t-24.5 -73v-18zM349 670v-20q0 -44 -30 -74.5t-81 -30.5t-81 30.5t-30 74.5v20h62v-20q0 -22 12.5 -36.5t36.5 -14.5q23 0 36.5 14.5t13.5 36.5v20h61z" />
    <glyph glyph-name="Edotaccent" unicode="&#x116;" horiz-adv-x="520" 
d="M217 768q0 26 17 43t42 17q26 0 43 -17t17 -43q0 -25 -17 -42t-43 -17q-25 0 -42 17t-17 42zM181 289v-196h294v-93h-397v657h388v-93h-285v-184h259v-91h-259z" />
    <glyph glyph-name="edotaccent" unicode="&#x117;" horiz-adv-x="475" 
d="M429 167v-6q0 -39 -14 -71t-38.5 -54t-59 -34t-76.5 -12q-43 0 -78 13t-60.5 38t-39.5 59.5t-14 78.5v126q0 45 14 80.5t39.5 61t60.5 39t78 13.5q42 0 76.5 -13.5t59 -39t38.5 -61t14 -80.5v-77h-282v-59q0 -42 25 -70.5t70 -28.5t68.5 25.5t23.5 63.5v8h95zM147 299
h187v18q0 44 -24 73t-69 29t-69.5 -29t-24.5 -73v-18zM179 611q0 25 17 42.5t42 17.5q26 0 43 -17.5t17 -42.5t-17 -42.5t-43 -17.5q-25 0 -42 17.5t-17 42.5z" />
    <glyph glyph-name="Eogonek" unicode="&#x118;" horiz-adv-x="520" 
d="M181 289v-196h294v-93h-32q-32 -20 -53.5 -44.5t-21.5 -52.5q0 -15 11 -25t34 -10h47v-59h-60q-48 0 -71 22.5t-23 54.5q0 37 22 67t52 47h-302v657h388v-93h-285v-184h259v-91h-259z" />
    <glyph glyph-name="eogonek" unicode="&#x119;" horiz-adv-x="475" 
d="M429 167v-6q0 -41 -14.5 -72.5t-40.5 -54.5q-29 -27 -49.5 -55.5t-20.5 -62.5q0 -21 11 -34.5t34 -13.5h47v-59h-59q-48 0 -71.5 26t-23.5 64q0 27 10 50.5t25 43.5q-17 -3 -36 -3q-43 0 -78 13t-60.5 38t-39.5 59.5t-14 78.5v126q0 45 14 80.5t39.5 61t60.5 39t78 13.5
q42 0 76.5 -13.5t59 -39t38.5 -61t14 -80.5v-77h-282v-59q0 -42 25 -70.5t70 -28.5t68.5 25.5t23.5 63.5v8h95zM147 299h187v18q0 44 -24 73t-69 29t-69.5 -29t-24.5 -73v-18z" />
    <glyph glyph-name="Ecaron" unicode="&#x11a;" horiz-adv-x="520" 
d="M181 289v-196h294v-93h-397v657h388v-93h-285v-184h259v-91h-259zM253 692l-106 129l40 34l91 -81l90 80l38 -33l-105 -129h-48z" />
    <glyph glyph-name="ecaron" unicode="&#x11b;" horiz-adv-x="475" 
d="M215 545l-106 129l40 34l91 -81l90 80l38 -33l-105 -129h-48zM429 167v-6q0 -39 -14 -71t-38.5 -54t-59 -34t-76.5 -12q-43 0 -78 13t-60.5 38t-39.5 59.5t-14 78.5v126q0 45 14 80.5t39.5 61t60.5 39t78 13.5q42 0 76.5 -13.5t59 -39t38.5 -61t14 -80.5v-77h-282v-59
q0 -42 25 -70.5t70 -28.5t68.5 25.5t23.5 63.5v8h95zM147 299h187v18q0 44 -24 73t-69 29t-69.5 -29t-24.5 -73v-18z" />
    <glyph glyph-name="Gcircumflex" unicode="&#x11c;" horiz-adv-x="555" 
d="M305 857l105 -129l-39 -34l-92 81l-90 -80l-38 33l106 129h48zM297 328h205v-129q0 -48 -16 -87t-44.5 -66t-69 -41.5t-89.5 -14.5q-50 0 -91 15t-70 43t-45.5 67.5t-16.5 89.5v247q0 100 60 157.5t165 57.5q49 0 89 -14t68.5 -39.5t44 -62.5t15.5 -83v-15h-100v16
q0 47 -30.5 76t-87.5 29q-58 0 -89.5 -34t-31.5 -88v-247q0 -54 31.5 -88t88.5 -34q60 0 91 32t31 83v48h-108v82z" />
    <glyph glyph-name="gcircumflex" unicode="&#x11d;" 
d="M269 707l105 -129l-39 -34l-92 81l-90 -80l-38 33l106 129h48zM51 313q0 84 43 135t125 51q42 0 73.5 -16t51.5 -44l10 50h82v-510q0 -83 -52.5 -129.5t-137.5 -46.5q-42 0 -76.5 11t-59.5 31t-38.5 48t-13.5 63v3h96v-8q0 -29 22.5 -48.5t68.5 -19.5t69 25t23 67v85
q-20 -24 -50 -37.5t-68 -13.5q-82 0 -125 51t-43 135v118zM241 96q45 0 70.5 29t25.5 72v114q0 43 -25.5 72t-70.5 29t-67.5 -27.5t-22.5 -69.5v-122q0 -42 22.5 -69.5t67.5 -27.5z" />
    <glyph glyph-name="Gbreve" unicode="&#x11e;" horiz-adv-x="555" 
d="M297 328h205v-129q0 -48 -16 -87t-44.5 -66t-69 -41.5t-89.5 -14.5q-50 0 -91 15t-70 43t-45.5 67.5t-16.5 89.5v247q0 100 60 157.5t165 57.5q49 0 89 -14t68.5 -39.5t44 -62.5t15.5 -83v-15h-100v16q0 47 -30.5 76t-87.5 29q-58 0 -89.5 -34t-31.5 -88v-247
q0 -54 31.5 -88t88.5 -34q60 0 91 32t31 83v48h-108v82zM391 819v-20q0 -44 -30 -74.5t-81 -30.5t-81 30.5t-30 74.5v20h62v-20q0 -21 12.5 -36t36.5 -15q23 0 36.5 15t13.5 36v20h61z" />
    <glyph glyph-name="gbreve" unicode="&#x11f;" 
d="M51 313q0 84 43 135t125 51q42 0 73.5 -16t51.5 -44l10 50h82v-510q0 -83 -52.5 -129.5t-137.5 -46.5q-42 0 -76.5 11t-59.5 31t-38.5 48t-13.5 63v3h96v-8q0 -29 22.5 -48.5t68.5 -19.5t69 25t23 67v85q-20 -24 -50 -37.5t-68 -13.5q-82 0 -125 51t-43 135v118zM241 96
q45 0 70.5 29t25.5 72v114q0 43 -25.5 72t-70.5 29t-67.5 -27.5t-22.5 -69.5v-122q0 -42 22.5 -69.5t67.5 -27.5zM355 670v-20q0 -44 -30 -74.5t-81 -30.5t-81 30.5t-30 74.5v20h62v-20q0 -22 12.5 -36.5t36.5 -14.5q23 0 36.5 14.5t13.5 36.5v20h61z" />
    <glyph glyph-name="Gdotaccent" unicode="&#x120;" horiz-adv-x="555" 
d="M220 768q0 26 17 43t42 17q26 0 43 -17t17 -43q0 -25 -17 -42t-43 -17q-25 0 -42 17t-17 42zM297 328h205v-129q0 -48 -16 -87t-44.5 -66t-69 -41.5t-89.5 -14.5q-50 0 -91 15t-70 43t-45.5 67.5t-16.5 89.5v247q0 100 60 157.5t165 57.5q49 0 89 -14t68.5 -39.5
t44 -62.5t15.5 -83v-15h-100v16q0 47 -30.5 76t-87.5 29q-58 0 -89.5 -34t-31.5 -88v-247q0 -54 31.5 -88t88.5 -34q60 0 91 32t31 83v48h-108v82z" />
    <glyph glyph-name="gdotaccent" unicode="&#x121;" 
d="M51 313q0 84 43 135t125 51q42 0 73.5 -16t51.5 -44l10 50h82v-510q0 -83 -52.5 -129.5t-137.5 -46.5q-42 0 -76.5 11t-59.5 31t-38.5 48t-13.5 63v3h96v-8q0 -29 22.5 -48.5t68.5 -19.5t69 25t23 67v85q-20 -24 -50 -37.5t-68 -13.5q-82 0 -125 51t-43 135v118zM241 96
q45 0 70.5 29t25.5 72v114q0 43 -25.5 72t-70.5 29t-67.5 -27.5t-22.5 -69.5v-122q0 -42 22.5 -69.5t67.5 -27.5zM185 611q0 25 17 42.5t42 17.5q26 0 43 -17.5t17 -42.5t-17 -42.5t-43 -17.5q-25 0 -42 17.5t-17 42.5z" />
    <glyph glyph-name="uni0122" unicode="&#x122;" horiz-adv-x="555" 
d="M348 -47l-79 -177h-64l37 177h106zM297 328h205v-129q0 -48 -16 -87t-44.5 -66t-69 -41.5t-89.5 -14.5q-50 0 -91 15t-70 43t-45.5 67.5t-16.5 89.5v247q0 100 60 157.5t165 57.5q49 0 89 -14t68.5 -39.5t44 -62.5t15.5 -83v-15h-100v16q0 47 -30.5 76t-87.5 29
q-58 0 -89.5 -34t-31.5 -88v-247q0 -54 31.5 -88t88.5 -34q60 0 91 32t31 83v48h-108v82z" />
    <glyph glyph-name="uni0123" unicode="&#x123;" 
d="M180 549l79 177h64l-37 -177h-106zM51 313q0 84 43 135t125 51q42 0 73.5 -16t51.5 -44l10 50h82v-510q0 -83 -52.5 -129.5t-137.5 -46.5q-42 0 -76.5 11t-59.5 31t-38.5 48t-13.5 63v3h96v-8q0 -29 22.5 -48.5t68.5 -19.5t69 25t23 67v85q-20 -24 -50 -37.5t-68 -13.5
q-82 0 -125 51t-43 135v118zM241 96q45 0 70.5 29t25.5 72v114q0 43 -25.5 72t-70.5 29t-67.5 -27.5t-22.5 -69.5v-122q0 -42 22.5 -69.5t67.5 -27.5z" />
    <glyph glyph-name="Hcircumflex" unicode="&#x124;" horiz-adv-x="594" 
d="M517 0h-104v288h-232v-288h-103v657h103v-276h232v276h104v-657zM322 857l105 -129l-39 -34l-92 81l-90 -80l-38 33l106 129h48z" />
    <glyph glyph-name="hcircumflex" unicode="&#x125;" horiz-adv-x="513" 
d="M140 858l105 -129l-39 -34l-92 81l-90 -80l-38 33l106 129h48zM66 0v677h100v-231q20 25 50.5 39t69.5 14q82 0 123.5 -49.5t41.5 -130.5v-319h-99v315q0 42 -23 69.5t-68 27.5t-70 -29t-25 -72v-311h-100z" />
    <glyph glyph-name="Hbar" unicode="&#x126;" horiz-adv-x="597" 
d="M519 549h61v-63h-61v-486h-104v288h-232v-288h-103v486h-62v63h62v108h103v-108h232v108h104v-108zM415 381v105h-232v-105h232z" />
    <glyph glyph-name="hbar" unicode="&#x127;" horiz-adv-x="513" 
d="M66 0v546h-59v62h59v69h100v-69h107v-62h-107v-100q20 25 50.5 39t69.5 14q82 0 123.5 -49.5t41.5 -130.5v-319h-99v315q0 42 -23 69.5t-68 27.5t-70 -29t-25 -72v-311h-100z" />
    <glyph glyph-name="Itilde" unicode="&#x128;" horiz-adv-x="258" 
d="M181 0h-103v657h103v-657zM284 811q1 -6 1 -12v-12q0 -45 -21 -68t-57 -23q-16 0 -31.5 4.5t-29.5 12.5l-42 22q-8 4 -17 7.5t-18 3.5q-14 0 -22 -7t-12 -16t-5 -16.5t-1 -8.5h-53q-1 7 -2 13t-1 13q0 39 24.5 65t64.5 26q26 0 55 -15l41 -21q11 -5 22 -10.5t20 -5.5
q11 0 17.5 6t9.5 14t4 16t1 12h52z" />
    <glyph glyph-name="itilde" unicode="&#x129;" horiz-adv-x="232" 
d="M166 489v-489h-100v489h100zM271 666q1 -7 1 -12.5v-11.5q0 -45 -21 -68t-57 -23q-16 0 -31.5 5t-29.5 13l-42 21q-8 5 -16.5 8.5t-18.5 3.5q-14 0 -22 -7.5t-12 -16.5t-5 -16.5t-1 -8.5h-53q-1 5 -2 12t-1 14q0 39 24.5 65t64.5 26q26 0 55 -15l41 -21q11 -5 22 -10.5
t20 -5.5q11 0 17.5 6t9.5 14t4 16t1 12h52z" />
    <glyph glyph-name="Imacron" unicode="&#x12a;" horiz-adv-x="258" 
d="M181 0h-103v657h103v-657zM10 798h238v-72h-238v72z" />
    <glyph glyph-name="imacron" unicode="&#x12b;" horiz-adv-x="232" 
d="M166 489v-489h-100v489h100zM-3 639h238v-72h-238v72z" />
    <glyph glyph-name="Iogonek" unicode="&#x12e;" horiz-adv-x="258" 
d="M157 -132v-59h-60q-48 0 -71 22.5t-23 54.5q0 37 22.5 67t52.5 47v657h103v-657h-41q-32 -20 -53.5 -44.5t-21.5 -52.5q0 -15 11 -25t34 -10h47z" />
    <glyph glyph-name="iogonek" unicode="&#x12f;" horiz-adv-x="232" 
d="M145 -132v-59h-60q-48 0 -71 22.5t-23 54.5q0 37 22.5 67t52.5 47v489h100v-489h-38q-32 -20 -53.5 -44.5t-21.5 -52.5q0 -15 11 -25t34 -10h47zM57 625q0 25 17 42t42 17t42 -17t17 -42q0 -26 -17 -42.5t-42 -16.5t-42 16.5t-17 42.5z" />
    <glyph glyph-name="Idotaccent" unicode="&#x130;" horiz-adv-x="258" 
d="M181 0h-103v657h103v-657zM69 768q0 26 17 43t42 17q26 0 43 -17t17 -43q0 -25 -17 -42t-43 -17q-25 0 -42 17t-17 42z" />
    <glyph glyph-name="dotlessi" unicode="&#x131;" horiz-adv-x="232" 
d="M166 489v-489h-100v489h100z" />
    <glyph glyph-name="IJ" unicode="&#x132;" horiz-adv-x="755" 
d="M181 0h-103v657h103v-657zM383 210v-25q0 -45 25.5 -73.5t72.5 -28.5q48 0 72.5 28.5t24.5 73.5v472h103v-472q0 -45 -14.5 -81t-41 -61.5t-63 -39t-81.5 -13.5q-44 0 -81 13.5t-63.5 39t-41 61.5t-14.5 81v25h102z" />
    <glyph glyph-name="ij" unicode="&#x133;" horiz-adv-x="469" 
d="M57 625q0 25 17 42t42 17t42 -17t17 -42q0 -26 -17 -42.5t-42 -16.5t-42 16.5t-17 42.5zM166 489v-489h-100v489h100zM214 -112q46 0 68 23t22 64v514h100v-508q0 -88 -47.5 -133t-132.5 -45h-32v85h22zM294 625q0 25 17 42t42 17t42 -17t17 -42q0 -26 -17 -42.5
t-42 -16.5t-42 16.5t-17 42.5z" />
    <glyph glyph-name="Jcircumflex" unicode="&#x134;" horiz-adv-x="494" 
d="M122 210v-25q0 -45 25.5 -73.5t72.5 -28.5q48 0 72.5 28.5t24.5 73.5v472h103v-472q0 -45 -14.5 -81t-41 -61.5t-63 -39t-81.5 -13.5q-44 0 -81 13.5t-63.5 39t-41 61.5t-14.5 81v25h102zM393 857l105 -129l-39 -34l-92 81l-90 -80l-38 33l106 129h48z" />
    <glyph glyph-name="jcircumflex" unicode="&#x135;" horiz-adv-x="232" 
d="M141 707l105 -129l-39 -34l-92 81l-90 -80l-38 33l106 129h48zM-24 -112q46 0 68 23t22 64v514h100v-508q0 -88 -47.5 -133t-132.5 -45h-32v85h22z" />
    <glyph glyph-name="uni0136" unicode="&#x136;" horiz-adv-x="549" 
d="M343 -47l-79 -177h-64l37 177h106zM181 319l232 338h115l-181 -270l187 -387h-116l-143 301l-94 -137v-164h-103v657h103v-338z" />
    <glyph glyph-name="uni0137" unicode="&#x137;" horiz-adv-x="478" 
d="M304 -47l-79 -177h-64l37 177h106zM166 677v-399l179 211h110l-157 -187l165 -302h-111l-122 225l-64 -76v-149h-100v677h100z" />
    <glyph glyph-name="kgreenlandic" unicode="&#x138;" horiz-adv-x="478" 
d="M166 489v-210l177 210h112l-157 -187l165 -302h-111l-122 225l-64 -76v-149h-100v489h100z" />
    <glyph glyph-name="Lacute" unicode="&#x139;" horiz-adv-x="466" 
d="M125 694l-46 42l113 126l64 -62zM181 93h270v-93h-373v657h103v-564z" />
    <glyph glyph-name="lacute" unicode="&#x13a;" horiz-adv-x="237" 
d="M117 703l-46 42l113 126l64 -62zM168 677v-677h-99v677h99z" />
    <glyph glyph-name="uni013B" unicode="&#x13b;" horiz-adv-x="466" 
d="M311 -47l-79 -177h-64l37 177h106zM181 93h270v-93h-373v657h103v-564z" />
    <glyph glyph-name="uni013C" unicode="&#x13c;" horiz-adv-x="237" 
d="M170 -47l-79 -177h-64l37 177h106zM168 677v-677h-99v677h99z" />
    <glyph glyph-name="Lcaron" unicode="&#x13d;" horiz-adv-x="466" 
d="M353 657l-59 -144h-56l22 144h93zM181 93h270v-93h-373v657h103v-564z" />
    <glyph glyph-name="lcaron" unicode="&#x13e;" horiz-adv-x="237" 
d="M328 677l-59 -144h-56l22 144h93zM168 677v-677h-99v677h99z" />
    <glyph glyph-name="Ldot" unicode="&#x13f;" horiz-adv-x="466" 
d="M181 93h270v-93h-373v657h103v-564zM246 344q0 26 18 44t44 18t44 -18t18 -44t-18 -43.5t-44 -17.5t-44 17.5t-18 43.5z" />
    <glyph glyph-name="ldot" unicode="&#x140;" horiz-adv-x="333" 
d="M168 677v-677h-99v677h99zM221 353q0 26 18 44t44 18t44 -18t18 -44t-18 -43.5t-44 -17.5t-44 17.5t-18 43.5z" />
    <glyph glyph-name="Lslash" unicode="&#x141;" horiz-adv-x="472" 
d="M187 404l114 63v-90l-114 -63v-221h270v-93h-373v257l-71 -39v91l71 39v309h103v-253z" />
    <glyph glyph-name="lslash" unicode="&#x142;" horiz-adv-x="269" 
d="M185 677v-248l64 36v-91l-64 -36v-338h-99v283l-65 -36v90l65 36v304h99z" />
    <glyph glyph-name="Nacute" unicode="&#x143;" horiz-adv-x="590" 
d="M294 694l-46 42l113 126l64 -62zM513 0h-85l-256 456v-456h-94v657h89l251 -447v447h95v-657z" />
    <glyph glyph-name="nacute" unicode="&#x144;" horiz-adv-x="513" 
d="M258 545l-46 41l113 126l64 -61zM66 0v489h83l9 -52q21 29 53.5 45.5t74.5 16.5q82 0 123.5 -49.5t41.5 -130.5v-319h-99v315q0 42 -23 69.5t-68 27.5t-70 -29t-25 -72v-311h-100z" />
    <glyph glyph-name="uni0145" unicode="&#x145;" horiz-adv-x="590" 
d="M359 -47l-79 -177h-64l37 177h106zM513 0h-85l-256 456v-456h-94v657h89l251 -447v447h95v-657z" />
    <glyph glyph-name="uni0146" unicode="&#x146;" horiz-adv-x="513" 
d="M314 -47l-79 -177h-64l37 177h106zM66 0v489h83l9 -52q21 29 53.5 45.5t74.5 16.5q82 0 123.5 -49.5t41.5 -130.5v-319h-99v315q0 42 -23 69.5t-68 27.5t-70 -29t-25 -72v-311h-100z" />
    <glyph glyph-name="Ncaron" unicode="&#x147;" horiz-adv-x="590" 
d="M513 0h-85l-256 456v-456h-94v657h89l251 -447v447h95v-657zM272 692l-106 129l40 34l91 -81l90 80l38 -33l-105 -129h-48z" />
    <glyph glyph-name="ncaron" unicode="&#x148;" horiz-adv-x="513" 
d="M235 545l-106 129l40 34l91 -81l90 80l38 -33l-105 -129h-48zM66 0v489h83l9 -52q21 29 53.5 45.5t74.5 16.5q82 0 123.5 -49.5t41.5 -130.5v-319h-99v315q0 42 -23 69.5t-68 27.5t-70 -29t-25 -72v-311h-100z" />
    <glyph glyph-name="napostrophe" unicode="&#x149;" horiz-adv-x="540" 
d="M141 677l-79 -177h-64l37 177h106zM92 0v489h83l9 -52q21 29 53.5 45.5t74.5 16.5q82 0 123.5 -49.5t41.5 -130.5v-319h-99v315q0 42 -23 69.5t-68 27.5t-70 -29t-25 -72v-311h-100z" />
    <glyph glyph-name="Omacron" unicode="&#x14c;" horiz-adv-x="568" 
d="M163 205q0 -54 31.5 -88t89.5 -34t89.5 34t31.5 88v247q0 54 -31.5 88t-89.5 34t-89.5 -34t-31.5 -88v-247zM509 205q0 -50 -16.5 -89.5t-46 -67.5t-71 -43t-91.5 -15t-91 15t-70.5 43t-46 67.5t-16.5 89.5v247q0 99 59 157t165 58q50 0 91.5 -15t71 -43t46 -68t16.5 -89
v-247zM165 798h238v-72h-238v72z" />
    <glyph glyph-name="omacron" unicode="&#x14d;" horiz-adv-x="486" 
d="M124 639h238v-72h-238v72zM149 176q0 -44 24.5 -72.5t69.5 -28.5t69.5 28.5t24.5 72.5v137q0 44 -24.5 72.5t-69.5 28.5t-69.5 -28.5t-24.5 -72.5v-137zM437 184q0 -45 -14 -80.5t-39.5 -61t-61.5 -39t-79 -13.5t-79 13.5t-61.5 39t-39.5 61t-14 80.5v121q0 45 14 80.5
t39.5 61t61.5 39t79 13.5t79 -13.5t61.5 -39t39.5 -61t14 -80.5v-121z" />
    <glyph glyph-name="Obreve" unicode="&#x14e;" horiz-adv-x="568" 
d="M163 205q0 -54 31.5 -88t89.5 -34t89.5 34t31.5 88v247q0 54 -31.5 88t-89.5 34t-89.5 -34t-31.5 -88v-247zM509 205q0 -50 -16.5 -89.5t-46 -67.5t-71 -43t-91.5 -15t-91 15t-70.5 43t-46 67.5t-16.5 89.5v247q0 99 59 157t165 58q50 0 91.5 -15t71 -43t46 -68t16.5 -89
v-247zM395 819v-20q0 -44 -30 -74.5t-81 -30.5t-81 30.5t-30 74.5v20h62v-20q0 -21 12.5 -36t36.5 -15q23 0 36.5 15t13.5 36v20h61z" />
    <glyph glyph-name="obreve" unicode="&#x14f;" horiz-adv-x="486" 
d="M149 176q0 -44 24.5 -72.5t69.5 -28.5t69.5 28.5t24.5 72.5v137q0 44 -24.5 72.5t-69.5 28.5t-69.5 -28.5t-24.5 -72.5v-137zM437 184q0 -45 -14 -80.5t-39.5 -61t-61.5 -39t-79 -13.5t-79 13.5t-61.5 39t-39.5 61t-14 80.5v121q0 45 14 80.5t39.5 61t61.5 39t79 13.5
t79 -13.5t61.5 -39t39.5 -61t14 -80.5v-121zM354 670v-20q0 -44 -30 -74.5t-81 -30.5t-81 30.5t-30 74.5v20h62v-20q0 -22 12.5 -36.5t36.5 -14.5q23 0 36.5 14.5t13.5 36.5v20h61z" />
    <glyph glyph-name="Ohungarumlaut" unicode="&#x150;" horiz-adv-x="568" 
d="M209 694l-38 34l107 129l55 -49zM334 693l-34 37l113 124l51 -53zM163 205q0 -54 31.5 -88t89.5 -34t89.5 34t31.5 88v247q0 54 -31.5 88t-89.5 34t-89.5 -34t-31.5 -88v-247zM509 205q0 -50 -16.5 -89.5t-46 -67.5t-71 -43t-91.5 -15t-91 15t-70.5 43t-46 67.5
t-16.5 89.5v247q0 99 59 157t165 58q50 0 91.5 -15t71 -43t46 -68t16.5 -89v-247z" />
    <glyph glyph-name="ohungarumlaut" unicode="&#x151;" horiz-adv-x="486" 
d="M170 546l-38 33l107 129l55 -49zM295 545l-34 37l113 124l51 -54zM149 176q0 -44 24.5 -72.5t69.5 -28.5t69.5 28.5t24.5 72.5v137q0 44 -24.5 72.5t-69.5 28.5t-69.5 -28.5t-24.5 -72.5v-137zM437 184q0 -45 -14 -80.5t-39.5 -61t-61.5 -39t-79 -13.5t-79 13.5t-61.5 39
t-39.5 61t-14 80.5v121q0 45 14 80.5t39.5 61t61.5 39t79 13.5t79 -13.5t61.5 -39t39.5 -61t14 -80.5v-121z" />
    <glyph glyph-name="OE" unicode="&#x152;" horiz-adv-x="853" 
d="M799 564h-290v-184h264v-91h-264v-196h299v-93h-397v39q-26 -23 -60.5 -36t-74.5 -13q-49 0 -88.5 15t-68 43t-44 67.5t-15.5 89.5v247q0 100 56.5 157.5t159.5 57.5q40 0 74.5 -13t60.5 -36v39h388v-93zM163 205q0 -54 31.5 -88t89.5 -34q57 0 89 33t32 86v250
q0 54 -31.5 88t-89.5 34t-89.5 -34t-31.5 -88v-247z" />
    <glyph glyph-name="oe" unicode="&#x153;" horiz-adv-x="763" 
d="M717 167v-6q0 -39 -14 -71t-38.5 -54t-59 -34t-76.5 -12q-48 0 -84.5 19.5t-58.5 54.5q-23 -35 -59.5 -54.5t-83.5 -19.5q-43 0 -79 13.5t-61.5 39t-39.5 61t-14 80.5v121q0 45 14 80.5t39.5 61t61.5 39t79 13.5q48 0 84.5 -20t59.5 -56q22 36 58 56t84 20
q42 0 76.5 -13.5t59 -39t38.5 -61t14 -80.5v-77h-282v-59q0 -42 25 -70.5t70 -28.5t68.5 25.5t23.5 63.5v8h95zM149 176q0 -44 24.5 -72.5t69.5 -28.5t69.5 28.5t24.5 72.5v137q0 44 -24.5 72.5t-69.5 28.5t-69.5 -28.5t-24.5 -72.5v-137zM435 299h187v18q0 44 -24 73
t-69 29t-69.5 -29t-24.5 -73v-18z" />
    <glyph glyph-name="Racute" unicode="&#x154;" horiz-adv-x="566" 
d="M408 0l-103 250q-4 -1 -8 -1h-9h-107v-249h-103v657h217q49 0 90 -14.5t71 -40.5t46.5 -63t16.5 -83q0 -64 -30.5 -111t-82.5 -71l115 -274h-113zM181 566v-227h105q59 0 93.5 31t34.5 85q0 51 -34.5 81t-93.5 30h-105zM252 694l-46 42l113 126l64 -62z" />
    <glyph glyph-name="racute" unicode="&#x155;" horiz-adv-x="327" 
d="M172 545l-46 41l113 126l64 -61zM66 0v489h83l10 -58q19 30 49.5 49t71.5 19q6 0 13 -0.5t14 -2.5v-94q-8 2 -17.5 3t-18.5 1q-45 0 -75 -26t-30 -77v-303h-100z" />
    <glyph glyph-name="uni0156" unicode="&#x156;" horiz-adv-x="566" 
d="M341 -47l-79 -177h-64l37 177h106zM408 0l-103 250q-4 -1 -8 -1h-9h-107v-249h-103v657h217q49 0 90 -14.5t71 -40.5t46.5 -63t16.5 -83q0 -64 -30.5 -111t-82.5 -71l115 -274h-113zM181 566v-227h105q59 0 93.5 31t34.5 85q0 51 -34.5 81t-93.5 30h-105z" />
    <glyph glyph-name="uni0157" unicode="&#x157;" horiz-adv-x="327" 
d="M171 -47l-79 -177h-64l37 177h106zM66 0v489h83l10 -58q19 30 49.5 49t71.5 19q6 0 13 -0.5t14 -2.5v-94q-8 2 -17.5 3t-18.5 1q-45 0 -75 -26t-30 -77v-303h-100z" />
    <glyph glyph-name="Rcaron" unicode="&#x158;" horiz-adv-x="566" 
d="M408 0l-103 250q-4 -1 -8 -1h-9h-107v-249h-103v657h217q49 0 90 -14.5t71 -40.5t46.5 -63t16.5 -83q0 -64 -30.5 -111t-82.5 -71l115 -274h-113zM181 566v-227h105q59 0 93.5 31t34.5 85q0 51 -34.5 81t-93.5 30h-105zM231 692l-106 129l40 34l91 -81l90 80l38 -33
l-105 -129h-48z" />
    <glyph glyph-name="rcaron" unicode="&#x159;" horiz-adv-x="327" 
d="M142 545l-106 129l40 34l91 -81l90 80l38 -33l-105 -129h-48zM66 0v489h83l10 -58q19 30 49.5 49t71.5 19q6 0 13 -0.5t14 -2.5v-94q-8 2 -17.5 3t-18.5 1q-45 0 -75 -26t-30 -77v-303h-100z" />
    <glyph glyph-name="Sacute" unicode="&#x15a;" horiz-adv-x="529" 
d="M371 463v18q0 44 -29 72t-80 28t-79 -23.5t-28 -61.5q0 -26 17 -48t52 -35l99 -38q30 -11 59 -25.5t52 -36t37 -52.5t14 -75t-16 -80t-44.5 -62t-69 -40t-89.5 -14q-50 0 -91 13t-70.5 38t-46 60t-16.5 79v19h101v-23q0 -45 31.5 -72.5t88.5 -27.5q59 0 90 28t31 71
q0 41 -24.5 64t-65.5 38l-97 38q-31 12 -57 28t-44.5 37t-29 48t-10.5 61q0 37 14.5 69.5t41.5 56.5t65 38t85 14t86 -13t66.5 -38t43 -60t15.5 -79v-14h-102zM261 694l-46 42l113 126l64 -62z" />
    <glyph glyph-name="sacute" unicode="&#x15b;" horiz-adv-x="450" 
d="M220 545l-46 41l113 126l64 -61zM131 154v-18q0 -32 24.5 -51t68.5 -19q45 0 67 18t22 49q0 24 -13.5 38t-43.5 23l-90 28q-23 7 -44 18t-36.5 27.5t-25 38.5t-9.5 51q0 28 12 54t34.5 46t53.5 31.5t70 11.5q82 0 131.5 -38.5t49.5 -106.5v-10h-93v13q0 29 -22 47.5
t-64 18.5q-31 0 -55.5 -15t-24.5 -44q0 -19 11.5 -32.5t41.5 -22.5l76 -23q27 -9 51.5 -20t43 -27.5t29.5 -40t11 -56.5q0 -69 -48 -111.5t-133 -42.5q-41 0 -75.5 10.5t-59.5 30t-39 47t-14 62.5v15h93z" />
    <glyph glyph-name="Scircumflex" unicode="&#x15c;" horiz-adv-x="529" 
d="M371 463v18q0 44 -29 72t-80 28t-79 -23.5t-28 -61.5q0 -26 17 -48t52 -35l99 -38q30 -11 59 -25.5t52 -36t37 -52.5t14 -75t-16 -80t-44.5 -62t-69 -40t-89.5 -14q-50 0 -91 13t-70.5 38t-46 60t-16.5 79v19h101v-23q0 -45 31.5 -72.5t88.5 -27.5q59 0 90 28t31 71
q0 41 -24.5 64t-65.5 38l-97 38q-31 12 -57 28t-44.5 37t-29 48t-10.5 61q0 37 14.5 69.5t41.5 56.5t65 38t85 14t86 -13t66.5 -38t43 -60t15.5 -79v-14h-102zM287 857l105 -129l-39 -34l-92 81l-90 -80l-38 33l106 129h48z" />
    <glyph glyph-name="scircumflex" unicode="&#x15d;" horiz-adv-x="450" 
d="M247 707l105 -129l-39 -34l-92 81l-90 -80l-38 33l106 129h48zM131 154v-18q0 -32 24.5 -51t68.5 -19q45 0 67 18t22 49q0 24 -13.5 38t-43.5 23l-90 28q-23 7 -44 18t-36.5 27.5t-25 38.5t-9.5 51q0 28 12 54t34.5 46t53.5 31.5t70 11.5q82 0 131.5 -38.5t49.5 -106.5
v-10h-93v13q0 29 -22 47.5t-64 18.5q-31 0 -55.5 -15t-24.5 -44q0 -19 11.5 -32.5t41.5 -22.5l76 -23q27 -9 51.5 -20t43 -27.5t29.5 -40t11 -56.5q0 -69 -48 -111.5t-133 -42.5q-41 0 -75.5 10.5t-59.5 30t-39 47t-14 62.5v15h93z" />
    <glyph glyph-name="Scedilla" unicode="&#x15e;" horiz-adv-x="531" 
d="M198 -79l21 73q-80 11 -128 59.5t-48 126.5v19h101v-23q0 -45 31.5 -72.5t88.5 -27.5q59 0 90 28t31 71q0 41 -24.5 64t-65.5 38l-97 38q-31 12 -57 28t-44.5 37t-29 48t-10.5 61q0 37 14.5 69.5t41.5 56.5t65 38t85 14t86 -13t66.5 -38t43 -60t15.5 -79v-14h-102v18
q0 44 -29 72t-80 28t-79 -23.5t-28 -61.5q0 -26 17 -48t52 -35l99 -38q30 -11 59 -25.5t52 -36t37 -52.5t14 -75q0 -43 -15 -78.5t-42.5 -61t-66 -40.5t-85.5 -16l-10 -33h12q39 0 60 -18.5t21 -52.5t-22 -53.5t-59 -19.5h-105v52h98q11 0 17.5 5t6.5 16t-6.5 16t-17.5 5
h-55z" />
    <glyph glyph-name="scedilla" unicode="&#x15f;" horiz-adv-x="450" 
d="M159 -79l21 72q-64 11 -102.5 49t-38.5 97v15h93v-18q0 -32 24.5 -51t68.5 -19q45 0 67 18t22 49q0 24 -13.5 38t-43.5 23l-90 28q-23 7 -44 18t-36.5 27.5t-25 38.5t-9.5 51q0 28 12 54t34.5 46t53.5 31.5t70 11.5q82 0 131.5 -38.5t49.5 -106.5v-10h-93v13
q0 29 -22 47.5t-64 18.5q-31 0 -55.5 -15t-24.5 -44q0 -19 11.5 -32.5t41.5 -22.5l76 -23q27 -9 51.5 -20t43 -27.5t29.5 -40t11 -56.5q0 -66 -45.5 -108.5t-124.5 -45.5l-10 -32h12q39 0 60 -18.5t21 -52.5t-22 -53.5t-59 -19.5h-105v52h98q11 0 17.5 5t6.5 16t-6.5 16
t-17.5 5h-55z" />
    <glyph glyph-name="Scaron" unicode="&#x160;" horiz-adv-x="529" 
d="M371 463v18q0 44 -29 72t-80 28t-79 -23.5t-28 -61.5q0 -26 17 -48t52 -35l99 -38q30 -11 59 -25.5t52 -36t37 -52.5t14 -75t-16 -80t-44.5 -62t-69 -40t-89.5 -14q-50 0 -91 13t-70.5 38t-46 60t-16.5 79v19h101v-23q0 -45 31.5 -72.5t88.5 -27.5q59 0 90 28t31 71
q0 41 -24.5 64t-65.5 38l-97 38q-31 12 -57 28t-44.5 37t-29 48t-10.5 61q0 37 14.5 69.5t41.5 56.5t65 38t85 14t86 -13t66.5 -38t43 -60t15.5 -79v-14h-102zM240 692l-106 129l40 34l91 -81l90 80l38 -33l-105 -129h-48z" />
    <glyph glyph-name="scaron" unicode="&#x161;" horiz-adv-x="450" 
d="M199 545l-106 129l40 34l91 -81l90 80l38 -33l-105 -129h-48zM131 154v-18q0 -32 24.5 -51t68.5 -19q45 0 67 18t22 49q0 24 -13.5 38t-43.5 23l-90 28q-23 7 -44 18t-36.5 27.5t-25 38.5t-9.5 51q0 28 12 54t34.5 46t53.5 31.5t70 11.5q82 0 131.5 -38.5t49.5 -106.5
v-10h-93v13q0 29 -22 47.5t-64 18.5q-31 0 -55.5 -15t-24.5 -44q0 -19 11.5 -32.5t41.5 -22.5l76 -23q27 -9 51.5 -20t43 -27.5t29.5 -40t11 -56.5q0 -69 -48 -111.5t-133 -42.5q-41 0 -75.5 10.5t-59.5 30t-39 47t-14 62.5v15h93z" />
    <glyph glyph-name="uni0162" unicode="&#x162;" horiz-adv-x="469" 
d="M182 -79l23 79h-22v564h-164v93h431v-93h-164v-564h-22l-13 -43h12q39 0 60 -18.5t21 -52.5t-22 -53.5t-59 -19.5h-105v52h98q11 0 17.5 5t6.5 16t-6.5 16t-17.5 5h-55z" />
    <glyph glyph-name="uni0163" unicode="&#x163;" horiz-adv-x="324" 
d="M109 -79l23 79h-20v402h-87v83h87v134h99v-134h88v-83h-88v-402h-20l-13 -43h12q39 0 60 -18.5t21 -52.5t-22 -53.5t-59 -19.5h-105v52h98q11 0 17.5 5t6.5 16t-6.5 16t-17.5 5h-55z" />
    <glyph glyph-name="Tcaron" unicode="&#x164;" horiz-adv-x="469" 
d="M19 657h431v-93h-164v-564h-103v564h-164v93zM211 692l-106 129l40 34l91 -81l90 80l38 -33l-105 -129h-48z" />
    <glyph glyph-name="tcaron" unicode="&#x165;" horiz-adv-x="324" 
d="M371 677l-59 -144h-56l22 144h93zM25 485h87v134h99v-134h88v-83h-88v-402h-99v402h-87v83z" />
    <glyph glyph-name="Tbar" unicode="&#x166;" horiz-adv-x="470" 
d="M19 657h431v-93h-164v-137h128v-80h-128v-347h-103v347h-126v80h126v137h-164v93z" />
    <glyph glyph-name="tbar" unicode="&#x167;" horiz-adv-x="328" 
d="M27 485h87v134h99v-134h88v-83h-88v-87h79v-66h-79v-249h-99v249h-78v66h78v87h-87v83z" />
    <glyph glyph-name="Utilde" unicode="&#x168;" horiz-adv-x="584" 
d="M511 657v-452q0 -50 -16 -89.5t-45 -67.5t-69 -43t-89 -15t-89 15t-69 43t-45 67.5t-16 89.5v452h103v-452q0 -54 30 -88t86 -34q55 0 85.5 34t30.5 88v452h103zM447 811q1 -6 1 -12v-12q0 -45 -21 -68t-57 -23q-16 0 -31.5 4.5t-29.5 12.5l-42 22q-8 4 -17 7.5t-18 3.5
q-14 0 -22 -7t-12 -16t-5 -16.5t-1 -8.5h-53q-1 7 -2 13t-1 13q0 39 24.5 65t64.5 26q26 0 55 -15l41 -21q11 -5 22 -10.5t20 -5.5q11 0 17.5 6t9.5 14t4 16t1 12h52z" />
    <glyph glyph-name="utilde" unicode="&#x169;" horiz-adv-x="508" 
d="M62 489h100v-320q0 -40 21.5 -66t63.5 -26q45 0 70 29t25 73v310h100v-489h-83l-10 51q-20 -28 -52.5 -44.5t-74.5 -16.5q-79 0 -119.5 48.5t-40.5 126.5v324zM407 666q1 -7 1 -12.5v-11.5q0 -45 -21 -68t-57 -23q-16 0 -31.5 5t-29.5 13l-42 21q-8 5 -16.5 8.5
t-18.5 3.5q-14 0 -22 -7.5t-12 -16.5t-5 -16.5t-1 -8.5h-53q-1 5 -2 12t-1 14q0 39 24.5 65t64.5 26q26 0 55 -15l41 -21q11 -5 22 -10.5t20 -5.5q11 0 17.5 6t9.5 14t4 16t1 12h52z" />
    <glyph glyph-name="Umacron" unicode="&#x16a;" horiz-adv-x="584" 
d="M511 657v-452q0 -50 -16 -89.5t-45 -67.5t-69 -43t-89 -15t-89 15t-69 43t-45 67.5t-16 89.5v452h103v-452q0 -54 30 -88t86 -34q55 0 85.5 34t30.5 88v452h103zM173 798h238v-72h-238v72z" />
    <glyph glyph-name="umacron" unicode="&#x16b;" horiz-adv-x="508" 
d="M62 489h100v-320q0 -40 21.5 -66t63.5 -26q45 0 70 29t25 73v310h100v-489h-83l-10 51q-20 -28 -52.5 -44.5t-74.5 -16.5q-79 0 -119.5 48.5t-40.5 126.5v324zM133 639h238v-72h-238v72z" />
    <glyph glyph-name="Ubreve" unicode="&#x16c;" horiz-adv-x="584" 
d="M511 657v-452q0 -50 -16 -89.5t-45 -67.5t-69 -43t-89 -15t-89 15t-69 43t-45 67.5t-16 89.5v452h103v-452q0 -54 30 -88t86 -34q55 0 85.5 34t30.5 88v452h103zM403 819v-20q0 -44 -30 -74.5t-81 -30.5t-81 30.5t-30 74.5v20h62v-20q0 -21 12.5 -36t36.5 -15
q23 0 36.5 15t13.5 36v20h61z" />
    <glyph glyph-name="ubreve" unicode="&#x16d;" horiz-adv-x="508" 
d="M62 489h100v-320q0 -40 21.5 -66t63.5 -26q45 0 70 29t25 73v310h100v-489h-83l-10 51q-20 -28 -52.5 -44.5t-74.5 -16.5q-79 0 -119.5 48.5t-40.5 126.5v324zM363 670v-20q0 -44 -30 -74.5t-81 -30.5t-81 30.5t-30 74.5v20h62v-20q0 -22 12.5 -36.5t36.5 -14.5
q23 0 36.5 14.5t13.5 36.5v20h61z" />
    <glyph glyph-name="Uring" unicode="&#x16e;" horiz-adv-x="584" 
d="M292 728q22 0 34.5 14.5t12.5 35.5t-12.5 35.5t-34.5 14.5q-21 0 -33.5 -14.5t-12.5 -35.5t12.5 -35.5t33.5 -14.5zM292 679q-46 0 -74.5 28.5t-28.5 70.5t28.5 71t74.5 29t75 -29t29 -71t-29 -70.5t-75 -28.5zM511 657v-452q0 -50 -16 -89.5t-45 -67.5t-69 -43t-89 -15
t-89 15t-69 43t-45 67.5t-16 89.5v452h103v-452q0 -54 30 -88t86 -34q55 0 85.5 34t30.5 88v452h103z" />
    <glyph glyph-name="uring" unicode="&#x16f;" horiz-adv-x="508" 
d="M251 577q22 0 34.5 14.5t12.5 36.5q0 21 -12.5 35t-34.5 14q-21 0 -33.5 -14t-12.5 -35q0 -22 12.5 -36.5t33.5 -14.5zM251 528q-46 0 -74.5 29t-28.5 71t28.5 70.5t74.5 28.5t75 -28.5t29 -70.5t-29 -71t-75 -29zM62 489h100v-320q0 -40 21.5 -66t63.5 -26q45 0 70 29
t25 73v310h100v-489h-83l-10 51q-20 -28 -52.5 -44.5t-74.5 -16.5q-79 0 -119.5 48.5t-40.5 126.5v324z" />
    <glyph glyph-name="Uhungarumlaut" unicode="&#x170;" horiz-adv-x="584" 
d="M227 694l-38 34l107 129l55 -49zM352 693l-34 37l113 124l51 -53zM511 657v-452q0 -50 -16 -89.5t-45 -67.5t-69 -43t-89 -15t-89 15t-69 43t-45 67.5t-16 89.5v452h103v-452q0 -54 30 -88t86 -34q55 0 85.5 34t30.5 88v452h103z" />
    <glyph glyph-name="uhungarumlaut" unicode="&#x171;" horiz-adv-x="508" 
d="M62 489h100v-320q0 -40 21.5 -66t63.5 -26q45 0 70 29t25 73v310h100v-489h-83l-10 51q-20 -28 -52.5 -44.5t-74.5 -16.5q-79 0 -119.5 48.5t-40.5 126.5v324zM187 546l-38 33l107 129l55 -49zM312 545l-34 37l113 124l51 -54z" />
    <glyph glyph-name="Uogonek" unicode="&#x172;" horiz-adv-x="585" 
d="M511 657v-452q0 -51 -16.5 -90t-45.5 -68q-30 -30 -53 -61.5t-23 -69.5q0 -21 11 -34.5t34 -13.5h47v-59h-60q-48 0 -71 26t-23 64q0 28 10.5 52.5t26.5 44.5q-27 -6 -56 -6q-49 0 -89 15t-69 43t-45 67.5t-16 89.5v452h103v-452q0 -54 30 -88t86 -34q55 0 85.5 34
t30.5 88v452h103z" />
    <glyph glyph-name="uogonek" unicode="&#x173;" horiz-adv-x="508" 
d="M62 489h100v-320q0 -40 21.5 -66t63.5 -26q45 0 70 29t25 73v310h100v-489h-27q-32 -20 -53.5 -44.5t-21.5 -52.5q0 -15 11 -25t34 -10h47v-59h-60q-48 0 -71 22.5t-23 54.5q0 39 24 69.5t56 47.5l-9 48q-20 -28 -52.5 -44.5t-74.5 -16.5q-79 0 -119.5 48.5t-40.5 126.5
v324z" />
    <glyph glyph-name="Wcircumflex" unicode="&#x174;" horiz-adv-x="732" 
d="M390 857l105 -129l-39 -34l-92 81l-90 -80l-38 33l106 129h48zM703 657l-144 -657h-94l-99 478l-99 -478h-94l-144 657h103l92 -474l97 474h94l97 -475l93 475h98z" />
    <glyph glyph-name="wcircumflex" unicode="&#x175;" horiz-adv-x="671" 
d="M360 707l105 -129l-39 -34l-92 81l-90 -80l-38 33l106 129h48zM210 143l85 346h85l85 -346l80 346h102l-135 -489h-90l-86 327l-86 -327h-90l-136 489h106z" />
    <glyph glyph-name="Ycircumflex" unicode="&#x176;" horiz-adv-x="499" 
d="M121 657l132 -292l131 292h104l-187 -393v-264h-103v263l-187 394h110zM274 857l105 -129l-39 -34l-92 81l-90 -80l-38 33l106 129h48z" />
    <glyph glyph-name="ycircumflex" unicode="&#x177;" horiz-adv-x="461" 
d="M123 -187l63 178l-166 498h106l107 -354l107 354h102l-226 -676h-93zM255 707l105 -129l-39 -34l-92 81l-90 -80l-38 33l106 129h48z" />
    <glyph glyph-name="Ydieresis" unicode="&#x178;" horiz-adv-x="499" 
d="M121 657l132 -292l131 292h104l-187 -393v-264h-103v263l-187 394h110zM133 764q0 22 15.5 37t38.5 15q21 0 35.5 -15t14.5 -37t-14.5 -38t-35.5 -16q-23 0 -38.5 16t-15.5 38zM262 764q0 22 15 37t37 15t37 -15t15 -37t-15 -38t-37 -16t-37 16t-15 38z" />
    <glyph glyph-name="Zacute" unicode="&#x179;" horiz-adv-x="472" 
d="M46 657h382v-65l-266 -500h273v-92h-399v65l266 500h-256v92zM235 694l-46 42l113 126l64 -62z" />
    <glyph glyph-name="zacute" unicode="&#x17a;" horiz-adv-x="434" 
d="M215 545l-46 41l113 126l64 -61zM44 489h347v-59l-232 -348h237v-82h-360v59l232 348h-224v82z" />
    <glyph glyph-name="Zdotaccent" unicode="&#x17b;" horiz-adv-x="472" 
d="M176 768q0 26 17 43t42 17q26 0 43 -17t17 -43q0 -25 -17 -42t-43 -17q-25 0 -42 17t-17 42zM46 657h382v-65l-266 -500h273v-92h-399v65l266 500h-256v92z" />
    <glyph glyph-name="zdotaccent" unicode="&#x17c;" horiz-adv-x="434" 
d="M44 489h347v-59l-232 -348h237v-82h-360v59l232 348h-224v82zM157 611q0 25 17 42.5t42 17.5q26 0 43 -17.5t17 -42.5t-17 -42.5t-43 -17.5q-25 0 -42 17.5t-17 42.5z" />
    <glyph glyph-name="Zcaron" unicode="&#x17d;" horiz-adv-x="472" 
d="M46 657h382v-65l-266 -500h273v-92h-399v65l266 500h-256v92zM215 692l-106 129l40 34l91 -81l90 80l38 -33l-105 -129h-48z" />
    <glyph glyph-name="zcaron" unicode="&#x17e;" horiz-adv-x="434" 
d="M193 545l-106 129l40 34l91 -81l90 80l38 -33l-105 -129h-48zM44 489h347v-59l-232 -348h237v-82h-360v59l232 348h-224v82z" />
    <glyph glyph-name="longs" unicode="&#x17f;" horiz-adv-x="252" 
d="M248 592q-45 0 -63.5 -22t-18.5 -59v-511h-100v505q0 85 44 128.5t129 43.5h46v-85h-37z" />
    <glyph glyph-name="florin" unicode="&#x192;" horiz-adv-x="415" 
d="M80 375h74v119q0 85 44 128.5t129 43.5h46v-85h-37q-45 0 -64 -22t-19 -59v-125h114v-84h-114v-306q0 -85 -44 -128.5t-129 -43.5h-46v85h37q45 0 64 22t19 59v312h-74v84z" />
    <glyph glyph-name="uni0218" unicode="&#x218;" horiz-adv-x="529" 
d="M327 -47l-79 -177h-64l37 177h106zM371 463v18q0 44 -29 72t-80 28t-79 -23.5t-28 -61.5q0 -26 17 -48t52 -35l99 -38q30 -11 59 -25.5t52 -36t37 -52.5t14 -75t-16 -80t-44.5 -62t-69 -40t-89.5 -14q-50 0 -91 13t-70.5 38t-46 60t-16.5 79v19h101v-23q0 -45 31.5 -72.5
t88.5 -27.5q59 0 90 28t31 71q0 41 -24.5 64t-65.5 38l-97 38q-31 12 -57 28t-44.5 37t-29 48t-10.5 61q0 37 14.5 69.5t41.5 56.5t65 38t85 14t86 -13t66.5 -38t43 -60t15.5 -79v-14h-102z" />
    <glyph glyph-name="uni0219" unicode="&#x219;" horiz-adv-x="450" 
d="M286 -47l-79 -177h-64l37 177h106zM131 154v-18q0 -32 24.5 -51t68.5 -19q45 0 67 18t22 49q0 24 -13.5 38t-43.5 23l-90 28q-23 7 -44 18t-36.5 27.5t-25 38.5t-9.5 51q0 28 12 54t34.5 46t53.5 31.5t70 11.5q82 0 131.5 -38.5t49.5 -106.5v-10h-93v13q0 29 -22 47.5
t-64 18.5q-31 0 -55.5 -15t-24.5 -44q0 -19 11.5 -32.5t41.5 -22.5l76 -23q27 -9 51.5 -20t43 -27.5t29.5 -40t11 -56.5q0 -69 -48 -111.5t-133 -42.5q-41 0 -75.5 10.5t-59.5 30t-39 47t-14 62.5v15h93z" />
    <glyph glyph-name="uni021A" unicode="&#x21a;" horiz-adv-x="469" 
d="M286 -47l-79 -177h-64l37 177h106zM19 657h431v-93h-164v-564h-103v564h-164v93z" />
    <glyph glyph-name="uni021B" unicode="&#x21b;" horiz-adv-x="324" 
d="M213 -47l-79 -177h-64l37 177h106zM25 485h87v134h99v-134h88v-83h-88v-402h-99v402h-87v83z" />
    <glyph glyph-name="uni0237" unicode="&#x237;" horiz-adv-x="232" 
d="M-24 -112q46 0 68 23t22 64v514h100v-508q0 -88 -47.5 -133t-132.5 -45h-32v85h22z" />
    <glyph glyph-name="circumflex" unicode="&#x2c6;" horiz-adv-x="299" 
d="M174 707l105 -129l-39 -34l-92 81l-90 -80l-38 33l106 129h48z" />
    <glyph glyph-name="caron" unicode="&#x2c7;" horiz-adv-x="299" 
d="M126 545l-106 129l40 34l91 -81l90 80l38 -33l-105 -129h-48z" />
    <glyph glyph-name="uni02C9" unicode="&#x2c9;" horiz-adv-x="278" 
d="M20 640h238v-72h-238v72z" />
    <glyph glyph-name="breve" unicode="&#x2d8;" horiz-adv-x="262" 
d="M242 670v-20q0 -44 -30 -74.5t-81 -30.5t-81 30.5t-30 74.5v20h62v-20q0 -22 12.5 -36.5t36.5 -14.5q23 0 36.5 14.5t13.5 36.5v20h61z" />
    <glyph glyph-name="dotaccent" unicode="&#x2d9;" horiz-adv-x="159" 
d="M20 611q0 25 17 42.5t42 17.5q26 0 43 -17.5t17 -42.5t-17 -42.5t-43 -17.5q-25 0 -42 17.5t-17 42.5z" />
    <glyph glyph-name="ring" unicode="&#x2da;" horiz-adv-x="247" 
d="M123 577q22 0 34.5 14.5t12.5 36.5q0 21 -12.5 35t-34.5 14q-21 0 -33.5 -14t-12.5 -35q0 -22 12.5 -36.5t33.5 -14.5zM123 528q-46 0 -74.5 29t-28.5 71t28.5 70.5t74.5 28.5t75 -28.5t29 -70.5t-29 -71t-75 -29z" />
    <glyph glyph-name="ogonek" unicode="&#x2db;" horiz-adv-x="252" 
d="M200 -132v-59h-60q-48 0 -71 22.5t-23 54.5q0 21 8 40t21 35t29.5 28t33.5 20l45 -9q-32 -20 -53.5 -44.5t-21.5 -52.5q0 -15 11 -25t34 -10h47z" />
    <glyph glyph-name="tilde" unicode="&#x2dc;" horiz-adv-x="352" 
d="M331 666q1 -7 1 -12.5v-11.5q0 -45 -21 -68t-57 -23q-16 0 -31.5 5t-29.5 13l-42 21q-8 5 -16.5 8.5t-18.5 3.5q-14 0 -22 -7.5t-12 -16.5t-5 -16.5t-1 -8.5h-53q-1 5 -2 12t-1 14q0 39 24.5 65t64.5 26q26 0 55 -15l41 -21q11 -5 22 -10.5t20 -5.5q11 0 17.5 6t9.5 14
t4 16t1 12h52z" />
    <glyph glyph-name="hungarumlaut" unicode="&#x2dd;" horiz-adv-x="333" 
d="M58 546l-38 33l107 129l55 -49zM183 545l-34 37l113 124l51 -54z" />
    <glyph glyph-name="uni0394" unicode="&#x394;" horiz-adv-x="530" 
d="M22 0l189 657h109l189 -657h-487zM150 91h225l-112 415z" />
    <glyph glyph-name="uni03A9" unicode="&#x3a9;" horiz-adv-x="596" 
d="M353 94q32 10 49.5 37.5t17.5 67.5v253q0 54 -32 88t-90 34t-89.5 -34t-31.5 -88v-253q0 -40 17 -67.5t50 -37.5v-94h-197v71h99q-72 46 -72 155v226q0 99 59 157t165 58t165.5 -58t59.5 -157v-226q0 -56 -19 -94t-54 -61h100v-71h-197v94z" />
    <glyph glyph-name="uni03BC" unicode="&#x3bc;" horiz-adv-x="512" 
d="M66 489h100v-320q0 -40 21.5 -66t63.5 -26q44 0 69 28t26 70v314h100v-489h-83l-10 51q-20 -28 -52.5 -44.5t-74.5 -16.5q-39 0 -66 22l6 -158v-41h-100v676z" />
    <glyph glyph-name="pi" unicode="&#x3c0;" horiz-adv-x="625" 
d="M24 489h576v-88h-85v-401h-100v401h-205v-401h-100v401h-86v88z" />
    <glyph glyph-name="Wgrave" unicode="&#x1e80;" horiz-adv-x="732" 
d="M235 800l65 62l112 -126l-46 -42zM703 657l-144 -657h-94l-99 478l-99 -478h-94l-144 657h103l92 -474l97 474h94l97 -475l93 475h98z" />
    <glyph glyph-name="wgrave" unicode="&#x1e81;" horiz-adv-x="671" 
d="M210 143l85 346h85l85 -346l80 346h102l-135 -489h-90l-86 327l-86 -327h-90l-136 489h106zM204 651l65 61l112 -126l-46 -41z" />
    <glyph glyph-name="Wacute" unicode="&#x1e82;" horiz-adv-x="732" 
d="M367 694l-46 42l113 126l64 -62zM703 657l-144 -657h-94l-99 478l-99 -478h-94l-144 657h103l92 -474l97 474h94l97 -475l93 475h98z" />
    <glyph glyph-name="wacute" unicode="&#x1e83;" horiz-adv-x="671" 
d="M335 545l-46 41l113 126l64 -61zM210 143l85 346h85l85 -346l80 346h102l-135 -489h-90l-86 327l-86 -327h-90l-136 489h106z" />
    <glyph glyph-name="Wdieresis" unicode="&#x1e84;" horiz-adv-x="732" 
d="M703 657l-144 -657h-94l-99 478l-99 -478h-94l-144 657h103l92 -474l97 474h94l97 -475l93 475h98zM249 764q0 22 15.5 37t38.5 15q21 0 35.5 -15t14.5 -37t-14.5 -38t-35.5 -16q-23 0 -38.5 16t-15.5 38zM378 764q0 22 15 37t37 15t37 -15t15 -37t-15 -38t-37 -16
t-37 16t-15 38z" />
    <glyph glyph-name="wdieresis" unicode="&#x1e85;" horiz-adv-x="671" 
d="M219 610q0 22 15.5 36.5t38.5 14.5q21 0 35.5 -14.5t14.5 -36.5q0 -23 -14.5 -38.5t-35.5 -15.5q-23 0 -38.5 15.5t-15.5 38.5zM348 610q0 22 15 36.5t37 14.5t37 -14.5t15 -36.5q0 -23 -15 -38.5t-37 -15.5t-37 15.5t-15 38.5zM210 143l85 346h85l85 -346l80 346h102
l-135 -489h-90l-86 327l-86 -327h-90l-136 489h106z" />
    <glyph glyph-name="endash" unicode="&#x2013;" horiz-adv-x="522" 
d="M63 299h396v-74h-396v74z" />
    <glyph glyph-name="emdash" unicode="&#x2014;" horiz-adv-x="797" 
d="M63 299h671v-74h-671v74z" />
    <glyph glyph-name="quoteleft" unicode="&#x2018;" horiz-adv-x="233" 
d="M41 461l85 196h65l-43 -196h-107z" />
    <glyph glyph-name="quoteright" unicode="&#x2019;" horiz-adv-x="229" 
d="M197 657l-85 -196h-65l44 196h106z" />
    <glyph glyph-name="quotesinglbase" unicode="&#x201a;" horiz-adv-x="233" 
d="M181 102l-86 -196h-64l43 196h107z" />
    <glyph glyph-name="quotedblleft" unicode="&#x201c;" horiz-adv-x="374" 
d="M183 461l86 196h63l-43 -196h-106zM40 461l97 196h63l-54 -196h-106z" />
    <glyph glyph-name="quotedblright" unicode="&#x201d;" horiz-adv-x="369" 
d="M196 657l-85 -196h-64l44 196h105zM339 657l-96 -196h-64l55 196h105z" />
    <glyph glyph-name="quotedblbase" unicode="&#x201e;" horiz-adv-x="375" 
d="M180 102l-86 -196h-63l43 196h106zM323 102l-97 -196h-63l54 196h106z" />
    <glyph glyph-name="dagger" unicode="&#x2020;" horiz-adv-x="407" 
d="M242 489h131v-66h-139l18 -431v-103h-97v103l17 431h-138v66h130l-9 65v103h97v-103z" />
    <glyph glyph-name="daggerdbl" unicode="&#x2021;" horiz-adv-x="434" 
d="M260 489h126v-66h-130l-9 -150l9 -150h130v-66h-126l5 -65v-103h-96v103l4 65h-125v66h130l8 150l-8 150h-130v66h125l-4 65v103h96v-103z" />
    <glyph glyph-name="bullet" unicode="&#x2022;" horiz-adv-x="347" 
d="M71 274q0 22 8 40.5t22 32.5t32.5 22t39.5 8t40 -8t33 -22t22 -32.5t8 -40.5q0 -21 -8 -39.5t-22 -32t-33 -21.5t-40 -8t-39.5 8t-32.5 21.5t-22 32t-8 39.5z" />
    <glyph glyph-name="ellipsis" unicode="&#x2026;" horiz-adv-x="626" 
d="M53 49q0 26 17 43t42 17q26 0 43 -17t17 -43q0 -25 -17 -42t-43 -17q-25 0 -42 17t-17 42zM253 49q0 26 17.5 43t42.5 17t42.5 -17t17.5 -43q0 -25 -17.5 -42t-42.5 -17t-42.5 17t-17.5 42zM454 49q0 26 17 43t42 17q26 0 43 -17t17 -43q0 -25 -17 -42t-43 -17
q-25 0 -42 17t-17 42z" />
    <glyph glyph-name="perthousand" unicode="&#x2030;" horiz-adv-x="916" 
d="M117 442q0 -23 13 -37.5t36 -14.5q24 0 36.5 14.5t12.5 37.5v111q0 23 -12.5 37.5t-36.5 14.5q-23 0 -36 -14.5t-13 -37.5v-111zM285 442q0 -50 -31 -82t-88 -32t-88 32t-31 82v111q0 50 31 82t88 32t88 -32t31 -82v-111zM469 657h81l-194 -329l-188 -328h-81l195 329z
M422 104q0 -23 13 -37.5t36 -14.5q24 0 36.5 14.5t12.5 37.5v111q0 23 -12.5 37.5t-36.5 14.5q-23 0 -36 -14.5t-13 -37.5v-111zM590 104q0 -50 -31 -82t-88 -32t-88 32t-31 82v111q0 50 31 82t88 32t88 -32t31 -82v-111zM706 104q0 -23 13 -37.5t36 -14.5q24 0 36.5 14.5
t12.5 37.5v111q0 23 -12.5 37.5t-36.5 14.5q-23 0 -36 -14.5t-13 -37.5v-111zM874 104q0 -50 -31 -82t-88 -32t-88 32t-31 82v111q0 50 31 82t88 32t88 -32t31 -82v-111z" />
    <glyph glyph-name="guilsinglleft" unicode="&#x2039;" horiz-adv-x="260" 
d="M124 398h83l-65 -165l65 -165h-83l-77 165z" />
    <glyph glyph-name="guilsinglright" unicode="&#x203a;" horiz-adv-x="260" 
d="M213 233l-77 -165h-83l65 165l-65 165h83z" />
    <glyph glyph-name="fraction" unicode="&#x2044;" horiz-adv-x="130" 
d="M216 657h81l-195 -329l-187 -328h-81l195 329z" />
    <glyph glyph-name="uni2070" unicode="&#x2070;" horiz-adv-x="295" 
d="M107 582q0 -20 10.5 -32t29.5 -12q20 0 30.5 12t10.5 32v124q0 20 -10.5 32t-30.5 12q-19 0 -29.5 -12t-10.5 -32v-124zM258 581q0 -49 -30 -77.5t-81 -28.5q-50 0 -80 28.5t-30 77.5v126q0 49 28 77.5t82 28.5q51 0 81 -28.5t30 -77.5v-126z" />
    <glyph glyph-name="uni2074" unicode="&#x2074;" horiz-adv-x="298" 
d="M238 808v-202h35v-59h-35v-67h-71v67h-147v67l135 194h83zM167 606v120l-83 -120h83z" />
    <glyph glyph-name="uni2075" unicode="&#x2075;" horiz-adv-x="282" 
d="M237 748h-134v-75q20 17 54 17q43 0 69.5 -27.5t26.5 -77.5q0 -52 -30 -81t-80 -29t-80.5 23.5t-30.5 65.5v8h68v-6q0 -15 10 -24t30 -9t30.5 13.5t10.5 36.5t-9.5 36.5t-30.5 13.5q-16 0 -24.5 -5.5t-15.5 -11.5h-60v192h196v-60z" />
    <glyph glyph-name="uni2076" unicode="&#x2076;" horiz-adv-x="289" 
d="M258 578q0 -51 -30.5 -77t-80.5 -26q-49 0 -79.5 26.5t-30.5 78.5v123q0 51 28.5 80.5t82.5 29.5q48 0 77 -25t29 -68v-5h-68v4q0 15 -10 24.5t-27 9.5q-42 0 -42 -45v-45q10 8 23.5 12.5t30.5 4.5q45 0 71 -27t26 -75zM147 623q-15 0 -24.5 -5t-15.5 -11v-26
q0 -25 10.5 -36.5t28.5 -11.5q40 0 40 43q0 21 -9.5 34t-29.5 13z" />
    <glyph glyph-name="uni2077" unicode="&#x2077;" horiz-adv-x="244" 
d="M20 808h206v-53l-107 -275h-76l106 268h-129v60z" />
    <glyph glyph-name="uni2078" unicode="&#x2078;" horiz-adv-x="284" 
d="M246 721q0 -28 -10 -45t-26 -26q19 -8 31 -27t12 -51q0 -44 -30 -70.5t-81 -26.5t-80.5 26.5t-29.5 70.5q0 32 11.5 50.5t30.5 27.5q-17 8 -27 25.5t-10 45.5q0 41 28 66.5t77 25.5q48 0 76 -25.5t28 -66.5zM103 576q0 -45 39 -45t39 45q0 46 -39 46t-39 -46zM106 716
q0 -43 36 -43q34 0 34 43q0 39 -34 39q-36 0 -36 -39z" />
    <glyph glyph-name="uni2079" unicode="&#x2079;" horiz-adv-x="287" 
d="M30 710q0 50 30.5 76.5t80.5 26.5t80 -28.5t30 -85.5v-114q0 -51 -28.5 -80.5t-82.5 -29.5q-48 0 -77 25t-29 68v5h68v-3q0 -16 10 -25.5t27 -9.5q42 0 42 45v44q-10 -7 -23.5 -11.5t-30.5 -4.5q-45 0 -71 27t-26 75zM141 665q15 0 24 5t16 11v17q0 57 -39 57
q-40 0 -40 -43q0 -21 9.5 -34t29.5 -13z" />
    <glyph glyph-name="uni207D" unicode="&#x207d;" horiz-adv-x="180" 
d="M154 487v-63h-5q-55 0 -83 29.5t-28 80.5v219q0 51 28 80t83 29h5v-62h-5q-20 0 -30.5 -12t-10.5 -32v-225q0 -44 41 -44h5z" />
    <glyph glyph-name="uni207E" unicode="&#x207e;" horiz-adv-x="180" 
d="M31 487q20 0 31 11.5t11 32.5v225q0 20 -11 32t-31 12h-5v62h5q55 0 83.5 -29t28.5 -80v-219q0 -51 -28.5 -80.5t-83.5 -29.5h-5v63h5z" />
    <glyph glyph-name="uni2080" unicode="&#x2080;" horiz-adv-x="301" 
d="M110 -48q0 -20 10.5 -32t29.5 -12q20 0 30.5 12t10.5 32v124q0 20 -10.5 32.5t-30.5 12.5q-19 0 -29.5 -12.5t-10.5 -32.5v-124zM262 -49q0 -49 -30.5 -77.5t-81.5 -28.5q-49 0 -79.5 28.5t-30.5 77.5v126q0 49 28 77.5t82 28.5q51 0 81.5 -28.5t30.5 -77.5v-126z" />
    <glyph glyph-name="uni2081" unicode="&#x2081;" horiz-adv-x="235" 
d="M32 178h126v-268h58v-60h-184v60h56v206h-56v62z" />
    <glyph glyph-name="uni2082" unicode="&#x2082;" horiz-adv-x="288" 
d="M32 -116q0 12 2 25.5t7.5 27.5t15.5 27.5t27 24.5l60 40q15 9 25.5 22.5t10.5 34.5q0 16 -9 25.5t-27 9.5q-20 0 -30 -10.5t-10 -28.5v-8h-68v9q0 44 30 72t80 28q49 0 78 -25t29 -69q0 -37 -16 -61.5t-46 -44.5l-54 -35q-14 -9 -18.5 -18.5t-5.5 -15.5h140v-64h-221v34z
" />
    <glyph glyph-name="uni2083" unicode="&#x2083;" horiz-adv-x="286" 
d="M112 45h22q23 0 32.5 9t9.5 29q0 38 -37 38q-17 0 -27.5 -10.5t-10.5 -28.5v-6h-68v8q0 42 29.5 70.5t78.5 28.5t77 -25.5t28 -65.5q0 -26 -9.5 -44t-26.5 -27q19 -10 30.5 -29.5t11.5 -49.5q0 -45 -30.5 -71t-81.5 -26t-80 27t-29 72v8h68v-7q0 -18 10.5 -29t28.5 -11
q42 0 42 45q0 41 -46 41h-22v54z" />
    <glyph glyph-name="uni2084" unicode="&#x2084;" horiz-adv-x="301" 
d="M239 178v-202h34v-59h-34v-67h-71v67h-147v67l135 194h83zM168 -24v120l-83 -120h83z" />
    <glyph glyph-name="uni2085" unicode="&#x2085;" horiz-adv-x="285" 
d="M239 118h-134v-75q9 8 22 12.5t32 4.5q43 0 69.5 -27.5t26.5 -77.5q0 -52 -30 -81t-80 -29t-80.5 23.5t-30.5 65.5v8h68v-6q0 -15 10 -24t30 -9t30.5 13.5t10.5 36.5t-9.5 36.5t-30.5 13.5q-16 0 -24.5 -5.5t-15.5 -11.5h-61v192h197v-60z" />
    <glyph glyph-name="uni2086" unicode="&#x2086;" horiz-adv-x="293" 
d="M261 -52q0 -51 -30.5 -77t-79.5 -26q-50 0 -80.5 26.5t-30.5 78.5v123q0 51 28.5 80.5t82.5 29.5q48 0 77 -25t29 -68v-5h-68v4q0 15 -10 24.5t-27 9.5q-42 0 -42 -45v-44q11 7 24 11.5t30 4.5q45 0 71 -27t26 -75zM150 -7q-15 0 -24.5 -5t-15.5 -11v-26
q0 -25 10.5 -36.5t28.5 -11.5q40 0 40 43q0 21 -9.5 34t-29.5 13z" />
    <glyph glyph-name="uni2087" unicode="&#x2087;" horiz-adv-x="247" 
d="M21 178h206v-53l-106 -275h-76l105 268h-129v60z" />
    <glyph glyph-name="uni2088" unicode="&#x2088;" horiz-adv-x="290" 
d="M249 91q0 -28 -10 -45t-27 -26q20 -8 31.5 -27t11.5 -51q0 -44 -29.5 -70.5t-80.5 -26.5t-81 26.5t-30 70.5q0 32 12 50.5t30 27.5q-16 9 -26.5 26t-10.5 45q0 41 28.5 66.5t77.5 25.5q48 0 76 -25.5t28 -66.5zM106 -54q0 -45 39 -45t39 45q0 46 -40 46q-38 0 -38 -46z
M109 86q0 -43 36 -43q34 0 34 43q0 39 -35 39t-35 -39z" />
    <glyph glyph-name="uni2089" unicode="&#x2089;" horiz-adv-x="292" 
d="M32 80q0 50 30.5 76.5t80.5 26.5q49 0 79.5 -28.5t30.5 -85.5v-114q0 -51 -28.5 -80.5t-82.5 -29.5q-48 0 -77 25t-29 68v5h68v-3q0 -16 9.5 -25.5t26.5 -9.5q43 0 43 45v44q-11 -7 -24.5 -11.5t-30.5 -4.5q-44 0 -70 27t-26 75zM143 35q14 0 23.5 5t16.5 11v17
q0 29 -10.5 43t-28.5 14q-40 0 -40 -43q0 -21 9.5 -34t29.5 -13z" />
    <glyph glyph-name="uni208D" unicode="&#x208d;" horiz-adv-x="185" 
d="M157 -143v-63h-5q-55 0 -83 29.5t-28 80.5v219q0 51 28 80t83 29h5v-62h-5q-20 0 -30.5 -12t-10.5 -32v-225q0 -44 41 -44h5z" />
    <glyph glyph-name="uni208E" unicode="&#x208e;" horiz-adv-x="185" 
d="M33 -143q41 0 41 44v225q0 20 -10.5 32t-30.5 12h-5v62h5q55 0 83.5 -29t28.5 -80v-219q0 -51 -28.5 -80.5t-83.5 -29.5h-5v63h5z" />
    <glyph glyph-name="franc" unicode="&#x20a3;" horiz-adv-x="537" 
d="M114 657h388v-93h-285v-135h167v-76h-167v-66h167v-76h-167v-211h-103v211h-62v76h62v66h-62v76h62v228z" />
    <glyph glyph-name="lira" unicode="&#x20a4;" horiz-adv-x="565" 
d="M217 90h297v-90h-461v90h62v102h-62v65h62v66h-62v65h62v74q0 47 14.5 85t41 64.5t63.5 41t82 14.5q43 0 79 -14t61.5 -39.5t40 -62.5t14.5 -83v-21h-99v21q0 48 -24.5 77.5t-71.5 29.5q-48 0 -73.5 -31.5t-25.5 -81.5v-74h146v-65h-146v-66h146v-65h-146v-102z" />
    <glyph glyph-name="peseta" unicode="&#x20a7;" horiz-adv-x="1242" 
d="M79 657h216q49 0 90.5 -15t71.5 -43t46.5 -66.5t16.5 -86.5q0 -50 -16.5 -90t-46.5 -68t-71.5 -43.5t-90.5 -15.5h-113v-229h-103v657zM182 566v-247h105q60 0 94 34t34 91q0 56 -34 89t-94 33h-105zM553 485h86v134h100v-134h88v-83h-88v-402h-100v402h-86v83zM919 154
v-18q0 -32 24.5 -51t68.5 -19q45 0 67 18t22 49q0 24 -13.5 38t-44.5 23l-89 28q-23 7 -44 18t-36.5 27.5t-25 38.5t-9.5 51q0 28 12 54t34.5 46t53.5 31.5t70 11.5q82 0 131.5 -38.5t49.5 -106.5v-10h-93v13q0 29 -22.5 47.5t-64.5 18.5q-30 0 -54.5 -15t-24.5 -44
q0 -19 11.5 -32.5t41.5 -22.5l76 -23q27 -9 51.5 -20t43 -27.5t29.5 -40t11 -56.5q0 -69 -48 -111.5t-133 -42.5q-41 0 -75.5 10.5t-59.5 30t-39 47t-14 62.5v15h93z" />
    <glyph glyph-name="Euro" unicode="&#x20ac;" horiz-adv-x="585" 
d="M44 429h64v18q0 103 57.5 161.5t160.5 58.5q46 0 84 -14.5t65.5 -41t42.5 -64.5t15 -86v-15h-97v18q0 51 -29 82.5t-84 31.5q-54 0 -84.5 -34.5t-30.5 -88.5v-26h128v-65h-128v-66h128v-65h-128v-31q0 -54 30.5 -88.5t84.5 -34.5q55 0 84 31.5t29 82.5v22h97v-19
q0 -48 -15.5 -86t-43 -64.5t-66 -41t-84.5 -14.5q-48 0 -88 15.5t-68.5 44t-44 69t-15.5 91.5v23h-64v65h64v66h-64v65z" />
    <glyph glyph-name="uni2113" unicode="&#x2113;" horiz-adv-x="472" 
d="M22 243l95 66v193q0 80 43.5 125t118.5 45q40 0 70 -12.5t50 -33t30.5 -47t10.5 -55.5q0 -56 -29 -96.5t-71 -70.5l-124 -88v-97q0 -41 22 -64t68 -23h118v-85h-127q-85 0 -132.5 45t-47.5 133v21l-46 -32zM216 378l69 49q28 20 45.5 42t17.5 54q0 27 -16.5 46t-48.5 19
q-33 0 -50 -23t-17 -61v-126z" />
    <glyph glyph-name="trademark" unicode="&#x2122;" horiz-adv-x="788" 
d="M520 377l-78 133v-221h-69v368h66l106 -186l105 186h67v-368h-72v226l-81 -138h-44zM59 657h275v-67h-97v-301h-80v301h-98v67z" />
    <glyph glyph-name="Omega" unicode="&#x2126;" horiz-adv-x="599" 
d="M354 94q32 10 49.5 37.5t17.5 67.5v253q0 54 -31.5 88t-89.5 34t-90 -34t-32 -88v-253q0 -40 17.5 -67.5t49.5 -37.5v-94h-197v71h99q-72 46 -72 155v226q0 100 59 157.5t166 57.5q106 0 165 -58t59 -157v-226q0 -56 -18.5 -94t-53.5 -61h99v-71h-197v94z" />
    <glyph glyph-name="estimated" unicode="&#x212e;" horiz-adv-x="763" 
d="M669 141q-45 -69 -120 -110.5t-165 -41.5q-71 0 -132.5 26.5t-107.5 72t-72.5 107t-26.5 132.5q0 70 26.5 132t72.5 108.5t107.5 73t132.5 26.5q70 0 132 -26.5t108.5 -73t73 -108.5t26.5 -132v-8h-540v-186q38 -41 89 -63.5t111 -22.5q63 0 117 24.5t92 69.5h76z
M384 609q-60 0 -111 -23.5t-89 -64.5v-146h401v145q-38 42 -89.5 65.5t-111.5 23.5z" />
    <glyph glyph-name="onethird" unicode="&#x2153;" horiz-adv-x="652" 
d="M483 657h81l-194 -329l-187 -328h-81l194 329zM49 657h126v-268h58v-60h-184v60h56v206h-56v62zM468 195h21q23 0 33 9t10 29q0 37 -37 37q-18 0 -28.5 -10t-10.5 -28v-6h-67v8q0 42 29 70.5t79 28.5q49 0 77 -25.5t28 -65.5q0 -26 -10 -44t-26 -28q19 -9 30 -28.5
t11 -49.5q0 -45 -30 -71t-81 -26t-80 27t-29 72v8h67v-7q0 -18 10.5 -29t29.5 -11q42 0 42 45q0 41 -47 41h-21v54z" />
    <glyph glyph-name="twothirds" unicode="&#x2154;" horiz-adv-x="682" 
d="M513 657h81l-194 -329l-188 -328h-81l195 329zM498 195h21q23 0 32.5 9t9.5 29q0 37 -36 37q-18 0 -28.5 -10t-10.5 -28v-6h-67v8q0 42 29 70.5t79 28.5q49 0 77 -25.5t28 -65.5q0 -26 -10 -44t-26 -28q19 -9 30 -28.5t11 -49.5q0 -45 -30 -71t-81 -26t-80 27t-29 72v8
h67v-7q0 -18 10.5 -29t29.5 -11q41 0 41 45q0 41 -46 41h-21v54zM46 363q0 12 2 25.5t7 27.5t15 27.5t27 24.5l61 40q15 9 25.5 22.5t10.5 34.5q0 34 -37 34q-39 0 -39 -38v-8h-69v9q0 44 30.5 72t80.5 28q49 0 78 -25t29 -69q0 -37 -16 -61.5t-46 -44.5l-54 -35
q-14 -9 -18.5 -18.5t-5.5 -15.5h140v-64h-221v34z" />
    <glyph glyph-name="uni2155" unicode="&#x2155;" horiz-adv-x="669" 
d="M483 657h81l-194 -329l-187 -328h-81l194 329zM49 657h126v-268h58v-60h-184v60h56v206h-56v62zM608 268h-134v-75q20 17 54 17q43 0 69.5 -27.5t26.5 -77.5q0 -52 -30 -81t-80 -29t-80.5 23.5t-30.5 65.5v8h68v-6q0 -15 10 -24t30 -9t30.5 13.5t10.5 36.5t-9.5 36.5
t-30.5 13.5q-16 0 -24.5 -5.5t-15.5 -11.5h-61v192h197v-60z" />
    <glyph glyph-name="uni2156" unicode="&#x2156;" horiz-adv-x="694" 
d="M508 657h81l-194 -329l-187 -328h-82l195 329zM633 268h-134v-75q9 8 22 12.5t32 4.5q43 0 69.5 -27.5t26.5 -77.5q0 -52 -30 -81t-80 -29t-80.5 23.5t-30.5 65.5v8h68v-6q0 -15 10 -24t30 -9t30.5 13.5t10.5 36.5t-9.5 36.5t-30.5 13.5q-16 0 -24.5 -5.5t-15.5 -11.5
h-61v192h197v-60zM47 363q0 12 2 25.5t7 27.5t15 27.5t27 24.5l61 40q14 9 25 22.5t11 34.5q0 34 -37 34q-40 0 -40 -38v-8h-68v9q0 44 30 72t80 28t79 -25t29 -69q0 -37 -16 -61.5t-47 -44.5l-54 -35q-13 -9 -18 -18.5t-6 -15.5h141v-64h-221v34z" />
    <glyph glyph-name="uni2157" unicode="&#x2157;" horiz-adv-x="665" 
d="M479 657h81l-194 -329l-187 -328h-82l195 329zM604 268h-134v-75q9 8 22 12.5t32 4.5q43 0 69.5 -27.5t26.5 -77.5q0 -52 -30 -81t-80 -29t-80.5 23.5t-30.5 65.5v8h68v-6q0 -15 10 -24t30 -9t30.5 13.5t10.5 36.5t-9.5 36.5t-30.5 13.5q-16 0 -24.5 -5.5t-15.5 -11.5
h-61v192h197v-60zM127 527h21q23 0 33 9t10 29q0 38 -37 38q-18 0 -28.5 -10.5t-10.5 -27.5v-6h-67v7q0 43 29 71.5t79 28.5q49 0 77 -25.5t28 -66.5q0 -26 -10 -43.5t-26 -27.5q19 -10 30 -29.5t11 -48.5q0 -45 -30 -71t-81 -26t-80 27t-29 72v8h67v-7q0 -18 10.5 -29
t29.5 -11q41 0 41 44q0 42 -46 42h-21v53z" />
    <glyph glyph-name="uni2158" unicode="&#x2158;" horiz-adv-x="694" 
d="M507 657h81l-195 -329l-187 -328h-81l195 329zM632 268h-134v-75q9 8 22 12.5t31 4.5q43 0 70 -27.5t27 -77.5q0 -52 -30.5 -81t-80.5 -29q-49 0 -79.5 23.5t-30.5 65.5v8h67v-6q0 -15 10 -24t30 -9t31 13.5t11 36.5t-9.5 36.5t-30.5 13.5q-16 0 -25 -5.5t-15 -11.5h-61
v192h197v-60zM254 657v-202h35v-59h-35v-67h-70v67h-147v67l135 194h82zM184 455v120l-84 -120h84z" />
    <glyph glyph-name="uni2159" unicode="&#x2159;" horiz-adv-x="664" 
d="M483 657h81l-194 -329l-187 -328h-81l194 329zM49 657h126v-268h58v-60h-184v60h56v206h-56v62zM619 98q0 -51 -30.5 -77t-79.5 -26q-50 0 -80.5 26.5t-30.5 78.5v123q0 51 28.5 80.5t82.5 29.5q48 0 77 -25t29 -68v-5h-68v4q0 15 -10 24.5t-27 9.5q-42 0 -42 -45v-45
q11 8 24 12.5t30 4.5q45 0 71 -27t26 -75zM508 143q-15 0 -24.5 -5t-15.5 -11v-26q0 -25 10.5 -36.5t28.5 -11.5q40 0 40 43q0 21 -9.5 34t-29.5 13z" />
    <glyph glyph-name="uni215A" unicode="&#x215a;" horiz-adv-x="667" 
d="M486 657h81l-195 -329l-187 -328h-81l195 329zM622 98q0 -51 -30.5 -77t-80.5 -26t-80.5 26.5t-30.5 78.5v123q0 51 29 80.5t83 29.5q48 0 77 -25t29 -68v-5h-69v4q0 15 -9.5 24.5t-26.5 9.5q-42 0 -42 -45v-45q10 8 23.5 12.5t30.5 4.5q45 0 71 -27t26 -75zM510 143
q-14 0 -23.5 -5t-15.5 -11v-26q0 -25 10.5 -36.5t28.5 -11.5q39 0 39 43q0 21 -9.5 34t-29.5 13zM251 597h-134v-75q9 8 22 12.5t32 4.5q42 0 69 -27.5t27 -77.5q0 -52 -30.5 -81t-80.5 -29q-49 0 -79.5 23.5t-30.5 65.5v8h68v-6q0 -15 9.5 -24t29.5 -9t31 13.5t11 36.5
t-9.5 36.5t-30.5 13.5q-16 0 -25 -5.5t-15 -11.5h-61v192h197v-60z" />
    <glyph glyph-name="oneeighth" unicode="&#x215b;" horiz-adv-x="659" 
d="M483 657h81l-194 -329l-187 -328h-81l194 329zM49 657h126v-268h58v-60h-184v60h56v206h-56v62zM608 241q0 -28 -10 -45t-26 -26q19 -8 31 -27t12 -51q0 -44 -30 -70.5t-81 -26.5t-80.5 26.5t-29.5 70.5q0 32 11.5 50.5t30.5 27.5q-17 8 -27 25.5t-10 45.5q0 41 28 66.5
t77 25.5q48 0 76 -25.5t28 -66.5zM465 96q0 -45 39 -45t39 45q0 46 -39 46t-39 -46zM468 236q0 -43 36 -43q34 0 34 43q0 39 -34 39q-36 0 -36 -39z" />
    <glyph glyph-name="threeeighths" unicode="&#x215c;" horiz-adv-x="658" 
d="M482 657h81l-194 -329l-187 -328h-81l195 329zM607 241q0 -28 -10 -45t-26 -26q19 -8 31 -27t12 -51q0 -44 -30 -70.5t-81 -26.5t-80.5 26.5t-29.5 70.5q0 32 11.5 50.5t30.5 27.5q-17 8 -27 25.5t-10 45.5q0 41 28 66.5t77 25.5q48 0 76 -25.5t28 -66.5zM464 96
q0 -45 39 -45t39 45q0 46 -39 46t-39 -46zM468 236q0 -43 35 -43q34 0 34 43q0 39 -34 39q-35 0 -35 -39zM127 527h21q23 0 33 9t10 29q0 38 -37 38q-18 0 -28.5 -10.5t-10.5 -27.5v-6h-67v7q0 43 29 71.5t79 28.5q49 0 77 -25.5t28 -66.5q0 -26 -10 -43.5t-26 -27.5
q19 -10 30 -29.5t11 -48.5q0 -45 -30 -71t-81 -26t-80 27t-29 72v8h67v-7q0 -18 10.5 -29t29.5 -11q41 0 41 44q0 42 -46 42h-21v53z" />
    <glyph glyph-name="fiveeighths" unicode="&#x215d;" horiz-adv-x="661" 
d="M485 657h81l-194 -329l-187 -328h-81l194 329zM610 241q0 -28 -10 -45t-26 -26q19 -8 31 -27t12 -51q0 -44 -30 -70.5t-81 -26.5t-80.5 26.5t-29.5 70.5q0 32 11.5 50.5t30.5 27.5q-17 8 -27 25.5t-10 45.5q0 41 28 66.5t77 25.5q48 0 76 -25.5t28 -66.5zM467 96
q0 -45 39 -45t39 45q0 46 -39 46t-39 -46zM470 236q0 -43 36 -43q34 0 34 43q0 39 -34 39q-36 0 -36 -39zM251 597h-134v-75q9 8 22 12.5t32 4.5q42 0 69 -27.5t27 -77.5q0 -52 -30.5 -81t-80.5 -29q-49 0 -79.5 23.5t-30.5 65.5v8h68v-6q0 -15 9.5 -24t29.5 -9t31 13.5
t11 36.5t-9.5 36.5t-30.5 13.5q-16 0 -25 -5.5t-15 -11.5h-61v192h197v-60z" />
    <glyph glyph-name="seveneighths" unicode="&#x215e;" horiz-adv-x="638" 
d="M458 657h81l-194 -329l-187 -328h-82l195 329zM587 241q0 -28 -10 -45t-26 -26q19 -8 31 -27t12 -51q0 -44 -30 -70.5t-81 -26.5t-80.5 26.5t-29.5 70.5q0 32 11.5 50.5t30.5 27.5q-17 8 -27 25.5t-10 45.5q0 41 28.5 66.5t76.5 25.5t76 -25.5t28 -66.5zM444 96
q0 -45 39 -45q40 0 40 45q0 46 -40 46q-39 0 -39 -46zM448 236q0 -43 35 -43t35 43q0 39 -35 39t-35 -39zM43 657h217v-53l-112 -275h-76l111 268h-140v60z" />
    <glyph glyph-name="uni215F" unicode="&#x215f;" horiz-adv-x="482" 
d="M567 657h81l-194 -329l-187 -328h-81l195 329zM134 657h126v-268h57v-60h-183v60h55v206h-55v62z" />
    <glyph glyph-name="partialdiff" unicode="&#x2202;" horiz-adv-x="493" 
d="M435 184q0 -45 -14 -80.5t-39.5 -61t-61.5 -39t-79 -13.5t-78.5 13.5t-61 39t-39.5 61t-14 80.5v85q0 90 46.5 141.5t127.5 51.5q40 0 69.5 -15.5t46.5 -42.5q-4 42 -14 79.5t-28.5 65t-45.5 43.5t-65 16q-17 0 -31.5 -2.5t-25.5 -4.5q-12 -4 -23 -7l-19 71q16 6 34 11
q16 4 36 7.5t43 3.5q78 0 124.5 -35t71 -88t32.5 -115.5t8 -118.5v-146zM147 176q0 -44 24.5 -72.5t69.5 -28.5t70 28.5t25 72.5v100q0 44 -25 73t-70 29t-69.5 -29t-24.5 -73v-100z" />
    <glyph glyph-name="Delta" unicode="&#x2206;" horiz-adv-x="547" 
d="M30 0l189 657h109l189 -657h-487zM158 91h225l-112 415z" />
    <glyph glyph-name="product" unicode="&#x220f;" horiz-adv-x="594" 
d="M517 0h-104v564h-232v-564h-103v657h439v-657z" />
    <glyph glyph-name="summation" unicode="&#x2211;" horiz-adv-x="544" 
d="M184 564l184 -229l-202 -240h335v-95h-458v88l206 248l-195 233v88h427v-93h-297z" />
    <glyph glyph-name="minus" unicode="&#x2212;" horiz-adv-x="526" 
d="M66 374h394v-89h-394v89z" />
    <glyph glyph-name="uni2215" unicode="&#x2215;" horiz-adv-x="477" 
d="M390 657h81l-195 -329l-187 -328h-81l195 329z" />
    <glyph glyph-name="uni2219" unicode="&#x2219;" horiz-adv-x="307" 
d="M51 274q0 22 8 40.5t22 32.5t32.5 22t39.5 8t40 -8t33 -22t22 -32.5t8 -40.5q0 -21 -8 -39.5t-22 -32t-33 -21.5t-40 -8t-39.5 8t-32.5 21.5t-22 32t-8 39.5z" />
    <glyph glyph-name="radical" unicode="&#x221a;" horiz-adv-x="589" 
d="M28 468h165l116 -410l174 629h91l-224 -779h-95l-143 478h-84v82z" />
    <glyph glyph-name="infinity" unicode="&#x221e;" horiz-adv-x="769" 
d="M565 424q32 0 60 -11.5t48.5 -32t32 -49t11.5 -62.5q0 -31 -12 -59t-33 -49t-49.5 -33.5t-61.5 -12.5q-46 0 -86.5 24.5t-90.5 71.5q-41 -38 -86 -66.5t-93 -28.5h-1q-32 0 -60 11.5t-48 31.5t-31.5 48.5t-11.5 62.5q0 31 12 59t32.5 49.5t49 34t61.5 12.5
q46 0 86.5 -25.5t90.5 -71.5q20 19 41.5 36.5t44 30.5t46 21t47.5 8h1zM564 341q-33 0 -63 -21.5t-57 -47.5l-1 -1q31 -31 58.5 -52t59.5 -21t52.5 21t20.5 50q0 32 -19.5 52t-49.5 20h-1zM205 199q32 0 62 20.5t58 47.5v1q-31 31 -58 52.5t-59 21.5t-52 -21.5t-20 -50.5
q0 -32 19 -51.5t49 -19.5h1z" />
    <glyph glyph-name="integral" unicode="&#x222b;" horiz-adv-x="387" 
d="M144 570q0 85 44 128.5t129 43.5h46v-85h-37q-45 0 -64 -22t-19 -59v-536q0 -85 -44 -128t-129 -43h-46v84h37q45 0 64 22.5t19 58.5v536z" />
    <glyph glyph-name="approxequal" unicode="&#x2248;" horiz-adv-x="544" 
d="M491 441q-23 -45 -54.5 -74t-73.5 -29q-29 0 -50.5 11t-47.5 28q-17 11 -32.5 20t-35.5 9q-26 0 -46.5 -22t-40.5 -55l-55 42q23 49 59.5 81.5t84.5 32.5q32 0 56 -12.5t44 -25.5q19 -13 33 -21t31 -8q20 0 36.5 17t33.5 46zM491 236q-23 -45 -54.5 -74t-73.5 -29
q-29 0 -50.5 10.5t-47.5 27.5q-17 11 -32.5 20t-35.5 9q-26 0 -46.5 -22t-40.5 -54l-55 41q23 49 59.5 81.5t84.5 32.5q32 0 56 -12.5t44 -25.5q19 -12 33 -20.5t31 -8.5q20 0 36.5 17t33.5 47z" />
    <glyph glyph-name="notequal" unicode="&#x2260;" horiz-adv-x="522" 
d="M66 465h224l48 97h71l-48 -97h94v-84h-133l-50 -103h183v-83h-222l-48 -98h-71l48 98h-96v83h135l50 103h-185v84z" />
    <glyph glyph-name="lessequal" unicode="&#x2264;" horiz-adv-x="519" 
d="M64 171h389v-66h-389v66zM64 406l389 119v-86l-271 -70l271 -72v-90l-389 119v80z" />
    <glyph glyph-name="greaterequal" unicode="&#x2265;" horiz-adv-x="519" 
d="M455 105h-389v66h389v-66zM455 326l-389 -119v90l271 72l-271 70v86l389 -119v-80z" />
    <glyph glyph-name="lozenge" unicode="&#x25ca;" horiz-adv-x="520" 
d="M490 329l-191 -345h-78l-191 345l191 344h78zM137 329l122 -226l122 226l-122 225z" />
    <glyph glyph-name="uniF629" unicode="&#xf629;" horiz-adv-x="261" 
d="M160 333v-44q33 -7 53 -30.5t20 -59.5v-2h-68v6q0 14 -8.5 23t-22.5 9q-15 0 -22.5 -10.5t-7.5 -27.5v-65q0 -17 7.5 -27.5t22.5 -10.5q31 0 31 35v8h68v-3q0 -38 -20 -63t-53 -32v-44h-50v44q-35 7 -55.5 32.5t-20.5 64.5v56q0 40 20.5 65t55.5 32v44h50z" />
    <glyph glyph-name="uniF62A" unicode="&#xf62a;" horiz-adv-x="272" 
d="M170 227v12q0 17 -9.5 27t-26.5 10q-16 0 -25 -8.5t-9 -22.5q0 -10 5 -20t19 -15l40 -16q15 -6 30 -13t26.5 -18.5t19 -27.5t7.5 -39q0 -40 -24 -67t-64 -32v-51h-51v52q-38 6 -60.5 31.5t-22.5 63.5v12h69v-14q0 -19 11 -29t31 -10q21 0 31.5 10.5t10.5 26.5
q0 17 -9.5 25.5t-23.5 14.5l-48 20q-28 11 -46.5 32.5t-18.5 56.5q0 32 19.5 58.5t56.5 33.5v52h51v-52q37 -6 58.5 -31t21.5 -64v-8h-69z" />
    <glyph glyph-name="uniF62B" unicode="&#xf62b;" horiz-adv-x="208" 
d="M44 159h121v-60h-121v60z" />
    <glyph glyph-name="uniF62C" unicode="&#xf62c;" horiz-adv-x="186" 
d="M159 7v-63h-5q-56 0 -84 29.5t-28 80.5v219q0 51 28 80t84 29h5v-62h-5q-20 0 -31 -12t-11 -32v-225q0 -44 42 -44h5z" />
    <glyph glyph-name="uniF62D" unicode="&#xf62d;" horiz-adv-x="186" 
d="M33 7q41 0 41 44v225q0 20 -10.5 32t-30.5 12h-5v62h5q55 0 83.5 -29t28.5 -80v-219q0 -51 -28.5 -80.5t-83.5 -29.5h-5v63h5z" />
    <glyph glyph-name="uniF62E" unicode="&#xf62e;" horiz-adv-x="261" 
d="M160 662v-44q33 -7 53 -30t20 -60v-2h-68v6q0 14 -8.5 23t-22.5 9q-15 0 -22.5 -10.5t-7.5 -27.5v-65q0 -17 7.5 -27.5t22.5 -10.5q31 0 31 35v8h68v-3q0 -38 -20 -63t-53 -31v-45h-50v45q-35 7 -55.5 32.5t-20.5 64.5v56q0 39 20.5 64t55.5 32v44h50z" />
    <glyph glyph-name="uniF62F" unicode="&#xf62f;" horiz-adv-x="271" 
d="M170 557v11q0 17 -9.5 27t-26.5 10q-16 0 -25 -8.5t-9 -22.5q0 -10 5 -19.5t19 -15.5l40 -16q15 -6 30 -13t26.5 -18.5t19 -27.5t7.5 -39q0 -40 -24 -66.5t-64 -32.5v-51h-51v52q-38 7 -60.5 32t-22.5 64v11h69v-14q0 -18 11 -28t31 -10q21 0 31.5 10.5t10.5 26.5
q0 17 -9.5 25t-23.5 14l-48 20q-28 11 -46.5 32.5t-18.5 56.5q0 33 19.5 59t56.5 34v51h51v-51q37 -7 58.5 -32t21.5 -64v-7h-69z" />
    <glyph glyph-name="uniF630" unicode="&#xf630;" horiz-adv-x="208" 
d="M44 489h121v-61h-121v61z" />
    <glyph glyph-name="uniF631" unicode="&#xf631;" horiz-adv-x="185" 
d="M157 336v-63h-5q-55 0 -83 30t-28 81v218q0 51 28 80t83 29h5v-62h-5q-20 0 -30.5 -11.5t-10.5 -31.5v-226q0 -20 10.5 -32t30.5 -12h5z" />
    <glyph glyph-name="uniF632" unicode="&#xf632;" horiz-adv-x="185" 
d="M32 336q20 0 31 12t11 32v226q0 20 -11 31.5t-31 11.5h-5v62h5q56 0 84 -29t28 -80v-218q0 -51 -28 -81t-84 -30h-5v63h5z" />
    <glyph glyph-name="uniF655" unicode="&#xf655;" horiz-adv-x="302" 
d="M111 102q0 -20 10.5 -32t29.5 -12q20 0 30.5 12t10.5 32v124q0 20 -10.5 32t-30.5 12q-19 0 -29.5 -12t-10.5 -32v-124zM262 101q0 -49 -30.5 -77.5t-80.5 -28.5t-80.5 28.5t-30.5 77.5v126q0 49 28 77.5t83 28.5q50 0 80.5 -28.5t30.5 -77.5v-126z" />
    <glyph glyph-name="uniF656" unicode="&#xf656;" horiz-adv-x="236" 
d="M33 328h126v-268h58v-60h-184v60h56v206h-56v62z" />
    <glyph glyph-name="uniF657" unicode="&#xf657;" horiz-adv-x="289" 
d="M33 34q0 12 2 25.5t7 27.5t15 27.5t27 24.5l61 40q14 9 25 22.5t11 34.5q0 34 -37 34q-40 0 -40 -38v-8h-68v9q0 44 30 72t80 28t79 -25t29 -69q0 -37 -16 -61.5t-47 -44.5l-54 -35q-13 -9 -18 -18.5t-6 -15.5h141v-64h-221v34z" />
    <glyph glyph-name="uniF658" unicode="&#xf658;" horiz-adv-x="286" 
d="M112 195h22q23 0 32.5 9t9.5 29q0 37 -37 37q-17 0 -27.5 -10t-10.5 -28v-6h-68v8q0 42 29.5 70.5t78.5 28.5t77 -25.5t28 -65.5q0 -26 -9.5 -44t-26.5 -28q19 -9 30.5 -28.5t11.5 -49.5q0 -45 -30.5 -71t-81.5 -26t-80 27t-29 72v8h68v-7q0 -18 10 -29t29 -11
q42 0 42 45q0 41 -46 41h-22v54z" />
    <glyph glyph-name="uniF659" unicode="&#xf659;" horiz-adv-x="301" 
d="M239 328v-202h34v-59h-34v-67h-71v67h-147v67l135 194h83zM168 126v120l-83 -120h83z" />
    <glyph glyph-name="uniF65A" unicode="&#xf65a;" horiz-adv-x="286" 
d="M240 268h-134v-75q9 8 22 12.5t32 4.5q43 0 69.5 -27.5t26.5 -77.5q0 -52 -30 -81t-80 -29t-80.5 23.5t-30.5 65.5v8h68v-6q0 -15 10 -24t30 -9t30.5 13.5t10.5 36.5t-9.5 36.5t-30.5 13.5q-16 0 -24.5 -5.5t-15.5 -11.5h-61v192h197v-60z" />
    <glyph glyph-name="uniF65B" unicode="&#xf65b;" horiz-adv-x="293" 
d="M261 98q0 -51 -30.5 -77t-79.5 -26q-50 0 -80.5 26.5t-30.5 78.5v123q0 51 28.5 80.5t82.5 29.5q48 0 77 -25t29 -68v-5h-68v4q0 15 -10 24.5t-27 9.5q-42 0 -42 -45v-45q11 8 24 12.5t30 4.5q45 0 71 -27t26 -75zM150 143q-15 0 -24.5 -5t-15.5 -11v-26
q0 -25 10.5 -36.5t28.5 -11.5q40 0 40 43q0 21 -9.5 34t-29.5 13z" />
    <glyph glyph-name="uniF65C" unicode="&#xf65c;" horiz-adv-x="247" 
d="M21 328h206v-53l-106 -275h-76l105 268h-129v60z" />
    <glyph glyph-name="uniF65D" unicode="&#xf65d;" horiz-adv-x="290" 
d="M249 241q0 -28 -10 -45t-26 -26q19 -8 31 -27t12 -51q0 -44 -30 -70.5t-81 -26.5t-80.5 26.5t-29.5 70.5q0 32 11.5 50.5t30.5 27.5q-17 8 -27 25.5t-10 45.5q0 41 28.5 66.5t76.5 25.5t76 -25.5t28 -66.5zM106 96q0 -45 39 -45q40 0 40 45q0 46 -40 46q-39 0 -39 -46z
M110 236q0 -43 35 -43t35 43q0 39 -35 39t-35 -39z" />
    <glyph glyph-name="uniF65E" unicode="&#xf65e;" horiz-adv-x="292" 
d="M32 230q0 50 31 76.5t80 26.5q50 0 80.5 -28.5t30.5 -85.5v-114q0 -51 -29 -80.5t-83 -29.5q-48 0 -77 25t-29 68v5h68v-3q0 -16 10 -25.5t27 -9.5q42 0 42 45v44q-10 -7 -23.5 -11.5t-30.5 -4.5q-45 0 -71 27t-26 75zM143 185q15 0 24.5 5t15.5 11v17q0 57 -39 57
q-40 0 -40 -43q0 -21 9.5 -34t29.5 -13z" />
    <glyph glyph-name="uniF65F" unicode="&#xf65f;" horiz-adv-x="141" 
d="M113 65l-52 -112h-40l24 112h68z" />
    <glyph glyph-name="uniF660" unicode="&#xf660;" horiz-adv-x="137" 
d="M29 32q0 17 11 28t28 11t28 -11t11 -28t-11 -28t-28 -11t-28 11t-11 28z" />
    <glyph glyph-name="uniF661" unicode="&#xf661;" horiz-adv-x="301" 
d="M110 431q0 -20 10.5 -32t29.5 -12q20 0 30.5 12t10.5 32v125q0 20 -10.5 32t-30.5 12q-19 0 -29.5 -12t-10.5 -32v-125zM262 431q0 -50 -30.5 -78.5t-81.5 -28.5q-49 0 -79.5 28.5t-30.5 78.5v125q0 50 28 78t82 28q51 0 81.5 -28t30.5 -78v-125z" />
    <glyph glyph-name="uniF662" unicode="&#xf662;" horiz-adv-x="234" 
d="M32 657h126v-268h58v-60h-184v60h56v206h-56v62z" />
    <glyph glyph-name="uniF663" unicode="&#xf663;" horiz-adv-x="288" 
d="M32 363q0 24 9 53.5t42 52.5l61 39q14 10 25 23.5t11 33.5q0 35 -37 35q-40 0 -40 -38v-9h-68v10q0 44 30 71.5t80 27.5t79 -25t29 -69q0 -36 -16 -60.5t-47 -44.5l-54 -36q-13 -8 -18 -18t-6 -16h141v-64h-221v34z" />
    <glyph glyph-name="uniF664" unicode="&#xf664;" horiz-adv-x="286" 
d="M112 524h22q23 0 32.5 9t9.5 29q0 38 -37 38q-17 0 -27.5 -10.5t-10.5 -27.5v-6h-68v7q0 42 29.5 70.5t78.5 28.5t77 -25t28 -66q0 -26 -9.5 -44t-26.5 -27q19 -10 30.5 -29.5t11.5 -48.5q0 -45 -30.5 -71.5t-81.5 -26.5t-80 27.5t-29 72.5v8h68v-7q0 -19 10.5 -30
t28.5 -11q42 0 42 45q0 41 -46 41h-22v54z" />
    <glyph glyph-name="uniF665" unicode="&#xf665;" horiz-adv-x="301" 
d="M239 657v-201h34v-59h-34v-68h-71v68h-147v66l135 194h83zM168 456v119l-83 -119h83z" />
    <glyph glyph-name="uniF666" unicode="&#xf666;" horiz-adv-x="285" 
d="M239 597h-134v-74q9 7 22 11.5t32 4.5q43 0 69.5 -27t26.5 -78t-30 -80.5t-80 -29.5t-80.5 23.5t-30.5 65.5v8h68v-6q0 -32 40 -32q20 0 30.5 13t10.5 36t-9.5 36.5t-30.5 13.5q-16 0 -24.5 -5.5t-15.5 -11.5h-61v192h197v-60z" />
    <glyph glyph-name="uniF667" unicode="&#xf667;" horiz-adv-x="293" 
d="M261 428q0 -51 -30.5 -77.5t-79.5 -26.5q-50 0 -80.5 27t-30.5 78v123q0 51 28.5 80.5t82.5 29.5q48 0 77 -24.5t29 -68.5v-5h-68v4q0 15 -10 25t-27 10q-42 0 -42 -45v-45q22 16 54 16q45 0 71 -26.5t26 -74.5zM150 473q-15 0 -24.5 -5.5t-15.5 -10.5v-27
q0 -25 10.5 -36t28.5 -11q40 0 40 43q0 21 -9.5 34t-29.5 13z" />
    <glyph glyph-name="uniF668" unicode="&#xf668;" horiz-adv-x="246" 
d="M21 657h206v-52l-107 -276h-75l105 268h-129v60z" />
    <glyph glyph-name="uniF669" unicode="&#xf669;" horiz-adv-x="290" 
d="M249 571q0 -28 -10 -45.5t-27 -26.5q20 -8 31.5 -26.5t11.5 -50.5q0 -44 -29.5 -71t-80.5 -27t-81 27t-30 71q0 31 12 50t30 27q-16 9 -26.5 26.5t-10.5 45.5q0 40 28.5 65.5t77.5 25.5q48 0 76 -25.5t28 -65.5zM106 426q0 -46 39 -46t39 46t-40 46q-38 0 -38 -46z
M109 565q0 -42 36 -42q34 0 34 42q0 39 -35 39t-35 -39z" />
    <glyph glyph-name="uniF66A" unicode="&#xf66a;" horiz-adv-x="292" 
d="M31 559q0 50 31 76.5t80 26.5q50 0 80.5 -28t30.5 -86v-113q0 -51 -29 -81t-83 -30q-48 0 -77 25t-29 69v5h68v-4q0 -15 10 -25t27 -10q42 0 42 45v45q-21 -16 -54 -16q-45 0 -71 26.5t-26 74.5zM142 514q15 0 24.5 5t15.5 12v16q0 30 -10 43.5t-29 13.5q-40 0 -40 -43
q0 -21 9.5 -34t29.5 -13z" />
    <glyph glyph-name="uniF66B" unicode="&#xf66b;" horiz-adv-x="142" 
d="M112 394l-51 -112h-41l24 112h68z" />
    <glyph glyph-name="uniF66C" unicode="&#xf66c;" horiz-adv-x="138" 
d="M30 362q0 16 11 27t28 11t28 -11t11 -27q0 -17 -11 -28t-28 -11t-28 11t-11 28z" />
    <glyph glyph-name="uniF6C3" unicode="&#xf6c3;" horiz-adv-x="184" 
d="M158 -47l-79 -177h-64l37 177h106z" />
    <glyph glyph-name="uniF8FF" unicode="&#xf8ff;" horiz-adv-x="1420" 
d="M378 488q11 0 11 -11v-6q9 7 22.5 14t35.5 7q18 0 30.5 -7.5t20.5 -18.5q8 7 23 16.5t41 9.5t41.5 -15.5t15.5 -38.5v-132q0 -11 -12 -11h-38q-13 0 -13 11v116q0 9 -2.5 12.5t-11.5 3.5q-11 0 -21.5 -5t-16.5 -10v-117q0 -11 -11 -11h-38q-12 0 -12 11v116
q0 9 -2.5 12.5t-12.5 3.5q-11 0 -21.5 -5t-15.5 -10v-117q0 -11 -10 -11h-41q-11 0 -11 11v171q0 11 11 11h38zM1043 488q12 0 12 -11l1 -7q8 7 22 14.5t38 7.5q29 0 43 -16t14 -44v-80q0 -29 -14 -45.5t-43 -16.5q-23 0 -36.5 7.5t-21.5 13.5v-83q0 -11 -11 -11h-40
q-11 0 -11 11v249q0 11 11 11h36zM296 388q0 -11 -12 -11h-93v-23q0 -18 23 -18q25 0 25 18v1q0 11 11 11h32q12 0 12 -11v-3q0 -28 -17.5 -45t-62.5 -17t-65 17t-20 45v79q0 29 20 45t65 16t63.5 -16t18.5 -45v-43zM1370 388q0 -11 -11 -11h-94v-23q0 -18 23 -18
q24 0 24 18v1q0 11 12 11h32q11 0 11 -11v-3q0 -28 -17 -45t-62 -17t-64.5 17t-19.5 45v79q0 29 19.5 45t64.5 16t63.5 -16t18.5 -45v-43zM872 407q4 -14 5.5 -25t1.5 -12q1 1 4.5 13.5t5.5 21.5l24 72q2 5 4 8t8 3h37q14 0 11 -11l-84 -249q-4 -11 -14 -11h-28
q-14 0 -11 11l16 59l-65 190q-4 11 11 11h40q6 0 8 -3t4 -8zM762 487q11 0 11 -10v-27q0 -11 -11 -11h-31v-77q0 -18 24 -18h10q12 0 12 -11v-27q0 -11 -12 -11h-19q-45 0 -61.5 14.5t-16.5 45.5v84h-17q-11 0 -11 11v25q0 8 11 11l16 1h1v36q0 12 12 12h39q12 0 12 -12v-36
h31zM472 98q0 -4 -4 -4h-114v-48q0 -14 10.5 -23.5t39.5 -9.5t38.5 9.5t9.5 23.5v8q0 4 6 4h9q5 0 5 -4v-9q0 -21 -14.5 -34.5t-54.5 -13.5q-39 0 -54 13.5t-15 34.5v102q0 21 15 34.5t55 13.5q39 0 53.5 -13.5t14.5 -34.5v-49zM154 171q8 6 25.5 15t41.5 9q28 0 41 -13
t13 -33v-144q0 -5 -4 -5h-11q-4 0 -4 5v140q0 14 -9.5 22.5t-29.5 8.5q-23 0 -39.5 -8.5t-22.5 -14.5v-148q0 -5 -4 -5h-11q-5 0 -5 5v183q0 4 5 4h9q5 0 5 -4v-17zM603 191q4 0 4 -4v-8q0 -5 -4 -5h-47v-124q0 -14 11 -23.5t39 -9.5h6q5 0 5 -5v-7q0 -5 -5 -5h-9
q-39 0 -52.5 12.5t-13.5 35.5v126h-25q-4 0 -4 5v7q0 4 4 5h25v41q0 5 4 5h11q4 0 4 -5v-41h47zM354 110h98v36q0 14 -10 23t-38 9q-29 0 -39.5 -9t-10.5 -23v-36zM1112 423q0 5 -2.5 10t-14.5 5q-11 0 -21 -5.5t-16 -9.5v-63q6 -4 16 -10t21 -6q12 0 14.5 6t2.5 11v62z
M191 417h48v11q0 18 -25 18q-23 0 -23 -18v-11zM1265 417h47v11q0 18 -24 18q-23 0 -23 -18v-11zM70 5q0 -5 -5 -5h-11q-4 0 -4 5v30q0 5 4 5h11q5 0 5 -5v-30z" />
    <glyph glyph-name="uniFB00" unicode="&#xfb00;" horiz-adv-x="622" 
d="M200 0h-99v402h-73v83h73v20q0 85 44 128.5t129 43.5h46v-85h-37q-45 0 -64 -22t-19 -59v-26h187v20q0 85 44 128.5t129 43.5h46v-85h-37q-45 0 -64 -22t-19 -59v-26h114v-83h-114v-402h-99v402h-187v-402z" />
    <glyph glyph-name="uniFB01" unicode="&#xfb01;" horiz-adv-x="561" 
d="M283 592q-45 0 -64 -22t-19 -59v-26h296v-485h-100v402h-196v-402h-99v402h-73v83h73v20q0 85 44 128.5t129 43.5h222v-85h-213z" />
    <glyph glyph-name="uniFB02" unicode="&#xfb02;" horiz-adv-x="564" 
d="M28 485h73v20q0 85 44 128.5t129 43.5h222v-677h-100v592h-113q-45 0 -64 -22t-19 -59v-26h110v-83h-110v-402h-99v402h-73v83z" />
    <glyph glyph-name="uniFB03" unicode="&#xfb03;" horiz-adv-x="833" 
d="M28 485h73v20q0 85 44 128.5t129 43.5h46v-85h-37q-45 0 -64 -22t-19 -59v-26h187v20q0 85 44 128.5t129 43.5h208v-85h-199q-45 0 -63.5 -22t-18.5 -59v-26h281v-485h-100v402h-181v-402h-100v402h-187v-402h-99v402h-73v83z" />
    <glyph glyph-name="uniFB04" unicode="&#xfb04;" horiz-adv-x="836" 
d="M200 0h-99v402h-73v83h73v20q0 85 44 128.5t129 43.5h46v-85h-37q-45 0 -64 -22t-19 -59v-26h187v20q0 85 44 128.5t129 43.5h208v-677h-100v592h-99q-45 0 -63.5 -22t-18.5 -59v-26h109v-83h-109v-402h-100v402h-187v-402z" />
    <glyph glyph-name="uniFB05" unicode="&#xfb05;" horiz-adv-x="559" 
d="M248 592q-45 0 -63.5 -22t-18.5 -59v-511h-100v505q0 85 44 128.5t129 43.5h46v-85h-37zM260 485h87v134h99v-134h88v-83h-88v-402h-99v402h-87v83z" />
    <glyph glyph-name="glyph390" horiz-adv-x="217" 
d="M20 800l65 62l112 -126l-46 -42z" />
    <glyph glyph-name="glyph391" horiz-adv-x="273" 
d="M20 764q0 22 15.5 37t38.5 15q21 0 35.5 -15t14.5 -37t-14.5 -38t-35.5 -16q-23 0 -38.5 16t-15.5 38zM149 764q0 22 15 37t37 15t37 -15t15 -37t-15 -38t-37 -16t-37 16t-15 38z" />
    <glyph glyph-name="glyph392" horiz-adv-x="278" 
d="M20 798h238v-72h-238v72z" />
    <glyph glyph-name="glyph393" horiz-adv-x="217" 
d="M66 694l-46 42l113 126l64 -62z" />
    <glyph glyph-name="glyph394" horiz-adv-x="299" 
d="M174 857l105 -129l-39 -34l-92 81l-90 -80l-38 33l106 129h48z" />
    <glyph glyph-name="glyph395" horiz-adv-x="299" 
d="M126 692l-106 129l40 34l91 -81l90 80l38 -33l-105 -129h-48z" />
    <glyph glyph-name="glyph396" horiz-adv-x="262" 
d="M242 819v-20q0 -44 -30 -74.5t-81 -30.5t-81 30.5t-30 74.5v20h62v-20q0 -21 12.5 -36t36.5 -15q23 0 36.5 15t13.5 36v20h61z" />
    <glyph glyph-name="glyph397" horiz-adv-x="159" 
d="M20 768q0 26 17 43t42 17q26 0 43 -17t17 -43q0 -25 -17 -42t-43 -17q-25 0 -42 17t-17 42z" />
    <glyph glyph-name="glyph398" horiz-adv-x="247" 
d="M123 737q22 0 34.5 14.5t12.5 35.5t-12.5 35.5t-34.5 14.5q-21 0 -33.5 -14.5t-12.5 -35.5t12.5 -35.5t33.5 -14.5zM123 688q-46 0 -74.5 28.5t-28.5 70.5t28.5 71t74.5 29t75 -29t29 -71t-29 -70.5t-75 -28.5z" />
    <glyph glyph-name="glyph399" horiz-adv-x="352" 
d="M331 811q1 -6 1 -12v-12q0 -45 -21 -68t-57 -23q-16 0 -31.5 4.5t-29.5 12.5l-42 22q-8 4 -17 7.5t-18 3.5q-14 0 -22 -7t-12 -16t-5 -16.5t-1 -8.5h-53q-1 7 -2 13t-1 13q0 39 24.5 65t64.5 26q26 0 55 -15l41 -21q11 -5 22 -10.5t20 -5.5q11 0 17.5 6t9.5 14t4 16t1 12
h52z" />
    <glyph glyph-name="glyph400" horiz-adv-x="333" 
d="M58 694l-38 34l107 129l55 -49zM183 693l-34 37l113 124l51 -53z" />
    <glyph glyph-name="glyph401" horiz-adv-x="182" 
d="M147 677l-59 -144h-56l22 144h93z" />
    <glyph glyph-name="glyph402" horiz-adv-x="206" 
d="M170 -41l-81 -178h-65l40 178h106z" />
    <glyph glyph-name="glyph403" horiz-adv-x="481" 
d="M327 48q-20 -27 -51.5 -42.5t-73.5 -15.5q-72 0 -116.5 34t-44.5 103q0 75 47 110t125 35h106v63q0 35 -22 58.5t-65 23.5q-42 0 -64.5 -22.5t-22.5 -55.5v-11h-96v6q0 38 13.5 68.5t38 52t59 33t75.5 11.5q84 0 134 -46.5t50 -127.5v-325h-83zM224 70q42 0 66 24t29 59
v47h-91q-15 0 -30 -2.5t-27.5 -9.5t-20.5 -20t-8 -34q0 -29 19.5 -46.5t62.5 -17.5z" />
    <glyph glyph-name="glyph404" horiz-adv-x="341" 
d="M27 485h73v134h99v-134h115v-83h-115v-239q0 -35 21 -56.5t62 -21.5h32v-85h-41q-82 0 -127.5 43.5t-45.5 125.5v233h-73v83z" />
    <glyph glyph-name="glyph405" horiz-adv-x="605" 
d="M468 476h-94v24q0 37 -19.5 60t-57.5 23q-37 0 -55.5 -21.5t-18.5 -53.5q0 -37 16 -66.5t30 -46.5l139 -182l73 147h95l-115 -217l109 -143h-111l-54 69q-33 -37 -76 -58t-94 -21q-43 0 -79 11t-62 33t-40.5 55t-14.5 78q0 65 40 110.5t111 67.5l-4 6q-10 14 -21 31
t-20 37t-14.5 42t-5.5 46q0 37 12.5 66.5t35.5 50.5t55 32t71 11q78 0 123.5 -45t45.5 -124v-22zM248 76q35 0 61 15t46 41l-122 157q-45 -14 -67.5 -43.5t-22.5 -67.5q0 -50 27 -76t78 -26z" />
    <glyph glyph-name="glyph406" horiz-adv-x="541" 
d="M162 197q0 -51 28 -82.5t81 -31.5q52 0 80 31.5t28 82.5v263q0 51 -28 82.5t-80 31.5q-53 0 -81 -31.5t-28 -82.5v-263zM482 198q0 -48 -15.5 -86.5t-43 -65.5t-66.5 -41.5t-86 -14.5t-86 14.5t-67 41.5t-43.5 65.5t-15.5 86.5v261q0 97 56 152.5t156 55.5q47 0 86 -14.5
t66.5 -41.5t43 -65.5t15.5 -86.5v-261z" />
    <glyph glyph-name="glyph407" horiz-adv-x="541" 
d="M90 657h243v-566h136v-91h-379v91h140v474h-140v92z" />
    <glyph glyph-name="glyph408" horiz-adv-x="541" 
d="M58 43q0 36 5.5 69t19.5 62.5t38 56.5t61 52l111 73q34 23 56 54t22 75q0 40 -25.5 64.5t-76.5 24.5t-78 -27t-27 -70v-19h-100v19q0 42 15 77t42.5 60t66 39t85.5 14q46 0 84 -12t65 -35.5t41.5 -56.5t14.5 -75q0 -65 -30 -112.5t-87 -85.5l-120 -81q-21 -15 -34 -30
t-20.5 -30t-10.5 -28.5t-4 -25.5h306v-95h-420v43z" />
    <glyph glyph-name="glyph409" horiz-adv-x="541" 
d="M211 380h48q59 0 82.5 27t23.5 72q0 44 -26 69.5t-75 25.5q-50 0 -76.5 -26t-26.5 -68v-16h-100v16q0 41 14.5 75.5t41.5 59t65 38.5t84 14t83.5 -13t64 -36.5t40.5 -56t14 -72.5q0 -53 -20.5 -89.5t-58.5 -56.5q43 -20 67 -61t24 -101q0 -44 -15.5 -79.5t-43.5 -60
t-67.5 -38t-87.5 -13.5q-47 0 -85.5 13.5t-66 38t-42.5 59t-15 76.5v15h100v-15q0 -43 28 -70t79 -27q54 0 81.5 29.5t27.5 81.5q0 46 -26.5 77t-87.5 31h-48v81z" />
    <glyph glyph-name="glyph410" horiz-adv-x="541" 
d="M435 657v-422h72v-88h-72v-147h-102v147h-304v98l281 412h125zM333 235v304l-208 -304h208z" />
    <glyph glyph-name="glyph411" horiz-adv-x="541" 
d="M455 566h-277v-191q19 15 47 24.5t66 9.5q89 0 141.5 -54.5t52.5 -150.5q0 -50 -15.5 -90t-43.5 -67.5t-67 -42t-86 -14.5t-85.5 12t-66 34.5t-43 54.5t-15.5 72v15h99v-15q0 -37 27.5 -61t79.5 -24q55 0 82.5 33.5t27.5 91.5q0 25 -6 47t-18.5 38.5t-32.5 26t-48 9.5
q-41 0 -64.5 -12.5t-39.5 -26.5h-87v372h372v-91z" />
    <glyph glyph-name="glyph412" horiz-adv-x="541" 
d="M489 194q0 -49 -15.5 -87t-43.5 -64t-67 -39.5t-86 -13.5t-86 14.5t-67 41.5t-43 67t-15 91v254q0 97 56 153t156 56q45 0 82.5 -12.5t64.5 -36.5t41.5 -58t14.5 -76v-10h-99v11q0 40 -27 66.5t-76 26.5q-54 0 -82 -30t-28 -81v-117q22 19 53.5 32t73.5 13q45 0 81 -14.5
t60.5 -40.5t38 -63.5t13.5 -82.5zM279 309q-44 0 -69.5 -16.5t-40.5 -33.5v-55q0 -60 28.5 -93t79.5 -33q52 0 79 30.5t27 81.5q0 24 -6 45.5t-18.5 38t-32 26t-47.5 9.5z" />
    <glyph glyph-name="glyph413" horiz-adv-x="541" 
d="M59 657h425v-77l-240 -580h-110l236 566h-311v91z" />
    <glyph glyph-name="glyph414" horiz-adv-x="541" 
d="M471 487q0 -55 -22 -91.5t-59 -54.5q42 -18 68 -58t26 -101q0 -44 -15.5 -79t-43.5 -60.5t-67 -39t-87 -13.5t-87.5 13.5t-67 39t-43 60.5t-15.5 79q0 61 25.5 100.5t67.5 57.5q-38 19 -60 56t-22 91q0 40 14.5 73t40.5 57t63.5 37t83.5 13q45 0 82 -13t63.5 -37
t40.5 -57t14 -73zM163 187q0 -51 27.5 -81t80.5 -30q52 0 79.5 30t27.5 81q0 50 -26 81t-82 31t-81.5 -31t-25.5 -81zM171 479q0 -45 23.5 -73.5t76.5 -28.5q52 0 75 28.5t23 73.5q0 46 -25.5 73t-73.5 27t-73.5 -27t-25.5 -73z" />
    <glyph glyph-name="glyph415" horiz-adv-x="541" 
d="M52 463q0 48 15.5 86t44 64.5t68 40t86.5 13.5q46 0 84.5 -15t66.5 -43.5t43 -70.5t15 -96v-243q0 -97 -56 -153t-156 -56q-45 0 -82.5 12.5t-64.5 36.5t-41.5 58t-14.5 76v10h99v-11q0 -40 27 -66.5t76 -26.5q54 0 82 30t28 81v116q-23 -18 -54 -31t-73 -13
q-45 0 -81 14.5t-60.5 40.5t-38 63.5t-13.5 82.5zM262 348q44 0 69 16.5t41 33.5v44q0 63 -28 100t-79 37q-53 0 -80 -30.5t-27 -81.5q0 -24 6 -45.5t18.5 -38t32 -26t47.5 -9.5z" />
    <glyph glyph-name="glyph484" horiz-adv-x="481" 
d="M327 48q-20 -27 -51.5 -42.5t-73.5 -15.5q-72 0 -116.5 34t-44.5 103q0 75 47 110t125 35h106v63q0 35 -22 58.5t-65 23.5q-42 0 -64.5 -22.5t-22.5 -55.5v-11h-96v6q0 38 13.5 68.5t38 52t59 33t75.5 11.5q84 0 134 -46.5t50 -127.5v-325h-83zM224 70q42 0 66 24t29 59
v47h-91q-15 0 -30 -2.5t-27.5 -9.5t-20.5 -20t-8 -34q0 -29 19.5 -46.5t62.5 -17.5zM105 651l65 61l112 -126l-46 -41z" />
    <glyph glyph-name="glyph485" horiz-adv-x="481" 
d="M230 545l-46 41l113 126l64 -61zM327 48q-20 -27 -51.5 -42.5t-73.5 -15.5q-72 0 -116.5 34t-44.5 103q0 75 47 110t125 35h106v63q0 35 -22 58.5t-65 23.5q-42 0 -64.5 -22.5t-22.5 -55.5v-11h-96v6q0 38 13.5 68.5t38 52t59 33t75.5 11.5q84 0 134 -46.5t50 -127.5
v-325h-83zM224 70q42 0 66 24t29 59v47h-91q-15 0 -30 -2.5t-27.5 -9.5t-20.5 -20t-8 -34q0 -29 19.5 -46.5t62.5 -17.5z" />
    <glyph glyph-name="glyph486" horiz-adv-x="481" 
d="M259 707l105 -129l-39 -34l-92 81l-90 -80l-38 33l106 129h48zM327 48q-20 -27 -51.5 -42.5t-73.5 -15.5q-72 0 -116.5 34t-44.5 103q0 75 47 110t125 35h106v63q0 35 -22 58.5t-65 23.5q-42 0 -64.5 -22.5t-22.5 -55.5v-11h-96v6q0 38 13.5 68.5t38 52t59 33t75.5 11.5
q84 0 134 -46.5t50 -127.5v-325h-83zM224 70q42 0 66 24t29 59v47h-91q-15 0 -30 -2.5t-27.5 -9.5t-20.5 -20t-8 -34q0 -29 19.5 -46.5t62.5 -17.5z" />
    <glyph glyph-name="glyph487" horiz-adv-x="481" 
d="M327 48q-20 -27 -51.5 -42.5t-73.5 -15.5q-72 0 -116.5 34t-44.5 103q0 75 47 110t125 35h106v63q0 35 -22 58.5t-65 23.5q-42 0 -64.5 -22.5t-22.5 -55.5v-11h-96v6q0 38 13.5 68.5t38 52t59 33t75.5 11.5q84 0 134 -46.5t50 -127.5v-325h-83zM224 70q42 0 66 24t29 59
v47h-91q-15 0 -30 -2.5t-27.5 -9.5t-20.5 -20t-8 -34q0 -29 19.5 -46.5t62.5 -17.5zM387 666q1 -7 1 -12.5v-11.5q0 -45 -21 -68t-57 -23q-16 0 -31.5 5t-29.5 13l-42 21q-8 5 -16.5 8.5t-18.5 3.5q-14 0 -22 -7.5t-12 -16.5t-5 -16.5t-1 -8.5h-53q-1 5 -2 12t-1 14
q0 39 24.5 65t64.5 26q26 0 55 -15l41 -21q11 -5 22 -10.5t20 -5.5q11 0 17.5 6t9.5 14t4 16t1 12h52z" />
    <glyph glyph-name="glyph488" horiz-adv-x="481" 
d="M116 610q0 22 15.5 36.5t38.5 14.5q21 0 35.5 -14.5t14.5 -36.5q0 -23 -14.5 -38.5t-35.5 -15.5q-23 0 -38.5 15.5t-15.5 38.5zM245 610q0 22 15 36.5t37 14.5t37 -14.5t15 -36.5q0 -23 -15 -38.5t-37 -15.5t-37 15.5t-15 38.5zM327 48q-20 -27 -51.5 -42.5t-73.5 -15.5
q-72 0 -116.5 34t-44.5 103q0 75 47 110t125 35h106v63q0 35 -22 58.5t-65 23.5q-42 0 -64.5 -22.5t-22.5 -55.5v-11h-96v6q0 38 13.5 68.5t38 52t59 33t75.5 11.5q84 0 134 -46.5t50 -127.5v-325h-83zM224 70q42 0 66 24t29 59v47h-91q-15 0 -30 -2.5t-27.5 -9.5t-20.5 -20
t-8 -34q0 -29 19.5 -46.5t62.5 -17.5z" />
    <glyph glyph-name="glyph489" horiz-adv-x="481" 
d="M232 577q22 0 34.5 14.5t12.5 36.5q0 21 -12.5 35t-34.5 14q-21 0 -33.5 -14t-12.5 -35q0 -22 12.5 -36.5t33.5 -14.5zM232 528q-46 0 -74.5 29t-28.5 71t28.5 70.5t74.5 28.5t75 -28.5t29 -70.5t-29 -71t-75 -29zM327 48q-20 -27 -51.5 -42.5t-73.5 -15.5
q-72 0 -116.5 34t-44.5 103q0 75 47 110t125 35h106v63q0 35 -22 58.5t-65 23.5q-42 0 -64.5 -22.5t-22.5 -55.5v-11h-96v6q0 38 13.5 68.5t38 52t59 33t75.5 11.5q84 0 134 -46.5t50 -127.5v-325h-83zM224 70q42 0 66 24t29 59v47h-91q-15 0 -30 -2.5t-27.5 -9.5t-20.5 -20
t-8 -34q0 -29 19.5 -46.5t62.5 -17.5z" />
    <glyph glyph-name="glyph490" horiz-adv-x="481" 
d="M327 48q-20 -27 -51.5 -42.5t-73.5 -15.5q-72 0 -116.5 34t-44.5 103q0 75 47 110t125 35h106v63q0 35 -22 58.5t-65 23.5q-42 0 -64.5 -22.5t-22.5 -55.5v-11h-96v6q0 38 13.5 68.5t38 52t59 33t75.5 11.5q84 0 134 -46.5t50 -127.5v-325h-83zM224 70q42 0 66 24t29 59
v47h-91q-15 0 -30 -2.5t-27.5 -9.5t-20.5 -20t-8 -34q0 -29 19.5 -46.5t62.5 -17.5zM113 639h238v-72h-238v72z" />
    <glyph glyph-name="glyph491" horiz-adv-x="481" 
d="M327 48q-20 -27 -51.5 -42.5t-73.5 -15.5q-72 0 -116.5 34t-44.5 103q0 75 47 110t125 35h106v63q0 35 -22 58.5t-65 23.5q-42 0 -64.5 -22.5t-22.5 -55.5v-11h-96v6q0 38 13.5 68.5t38 52t59 33t75.5 11.5q84 0 134 -46.5t50 -127.5v-325h-83zM224 70q42 0 66 24t29 59
v47h-91q-15 0 -30 -2.5t-27.5 -9.5t-20.5 -20t-8 -34q0 -29 19.5 -46.5t62.5 -17.5zM342 670v-20q0 -44 -30 -74.5t-81 -30.5t-81 30.5t-30 74.5v20h62v-20q0 -22 12.5 -36.5t36.5 -14.5q23 0 36.5 14.5t13.5 36.5v20h61z" />
    <glyph glyph-name="glyph492" horiz-adv-x="481" 
d="M409 -132v-59h-60q-48 0 -71 22.5t-23 54.5q0 39 24 69.5t56 47.5l-8 45q-20 -27 -51.5 -42.5t-73.5 -15.5q-72 0 -116.5 34t-44.5 103q0 75 47 110t125 35h106v63q0 35 -22 58.5t-65 23.5q-42 0 -64.5 -22.5t-22.5 -55.5v-11h-96v6q0 38 13.5 68.5t38 52t59 33
t75.5 11.5q84 0 134 -46.5t50 -127.5v-325h-27q-32 -20 -53.5 -44.5t-21.5 -52.5q0 -15 11 -25t34 -10h47zM224 70q42 0 66 24t29 59v47h-91q-15 0 -30 -2.5t-27.5 -9.5t-20.5 -20t-8 -34q0 -29 19.5 -46.5t62.5 -17.5z" />
    <glyph glyph-name="glyph493" horiz-adv-x="341" 
d="M27 485h73v134h99v-134h115v-83h-115v-239q0 -35 21 -56.5t62 -21.5h32v-85h-41q-20 0 -38 3l-14 -46h12q39 0 60 -18.5t21 -52.5t-22 -53.5t-59 -19.5h-106v52h99q10 0 17 5t7 16t-7 16t-17 5h-56l-19 14l29 98q-80 38 -80 150v233h-73v83z" />
    <glyph glyph-name="glyph494" horiz-adv-x="341" 
d="M27 485h73v134h99v-134h115v-83h-115v-239q0 -35 21 -56.5t62 -21.5h32v-85h-41q-82 0 -127.5 43.5t-45.5 125.5v233h-73v83zM363 677l-59 -144h-56l22 144h93z" />
    <glyph glyph-name="glyph495" horiz-adv-x="371" 
d="M47 484h73v134h99v-134h115v-83h-115v-87h104v-67h-104v-85q0 -35 21 -56.5t62 -21.5h32v-85h-41q-82 0 -127.5 43.5t-45.5 125.5v79h-79v67h79v87h-73v83z" />
    <glyph glyph-name="glyph496" horiz-adv-x="574" 
d="M260 485h73v134h99v-134h115v-83h-115v-239q0 -35 21 -56.5t62 -21.5h32v-85h-41q-81 0 -127 43.5t-46 125.5v233h-73v83zM248 592q-45 0 -63.5 -22t-18.5 -59v-511h-100v505q0 85 44 128.5t129 43.5h46v-85h-37z" />
    <glyph glyph-name="glyph497" horiz-adv-x="355" 
d="M231 -47l-79 -177h-64l37 177h106zM27 485h73v134h99v-134h115v-83h-115v-239q0 -35 21 -56.5t62 -21.5h32v-85h-41q-82 0 -127.5 43.5t-45.5 125.5v233h-73v83z" />
    </font>
</defs>
</svg>
