<?xml version="1.0" standalone="no"?>
<!DOCTYPE svg PUBLIC "-//W3C//DTD SVG 1.1//EN" "http://www.w3.org/Graphics/SVG/1.1/DTD/svg11.dtd" >
<svg>
<metadata>
Created by FontForge 20120731 at Mon Jul  1 11:18:28 2019
 By www
Copyright (c) 2015 by Eduardo Manso. All rights reserved.
</metadata>
<defs>
<font id="CiutadellaRoundedW01-Light" horiz-adv-x="494" >
  <font-face 
    font-family="CiutadellaRoundedW01-Light"
    font-weight="300"
    font-stretch="normal"
    units-per-em="1000"
    panose-1="2 0 0 0 0 0 0 0 0 0"
    ascent="800"
    descent="-200"
    x-height="488"
    cap-height="662"
    bbox="-72 -197 834 837"
    underline-thickness="50"
    underline-position="-125"
    unicode-range="U+000D-2122"
  />
<missing-glyph horiz-adv-x="841" 
d="M421 236l-92 -92q-12 -12 -21 -12q-11 0 -21 12l-51 52q-11 11 -11 19q0 10 12 21l92 92l-92 92q-13 12 -13 22q0 8 11 19l51 52q10 11 21 11q10 0 22 -12l92 -92l92 92q13 13 22 13q8 0 19 -11l52 -51q11 -10 11 -22q0 -11 -12 -21l-92 -92l92 -92q12 -14 12 -21
q0 -11 -12 -21l-52 -51q-11 -11 -19 -11q-11 0 -21 12zM80 328q0 70 26.5 132t73 108t108 72.5t132.5 26.5q70 0 132 -26.5t108.5 -72.5t73 -108t26.5 -132q0 -71 -27 -132.5t-73 -107t-108.5 -72t-132.5 -26.5q-71 0 -132.5 26.5t-107.5 72t-72.5 107t-26.5 132.5zM128 328
q0 -61 22.5 -114.5t62 -93t92.5 -62.5t114 -23t114 23t92.5 62.5t62.5 93t23 114.5t-22.5 114.5t-62 93.5t-92.5 63t-114 23t-114 -23t-92.5 -63t-62.5 -93.5t-23 -114.5z" />
    <glyph glyph-name=".notdef" horiz-adv-x="841" 
d="M421 236l-92 -92q-12 -12 -21 -12q-11 0 -21 12l-51 52q-11 11 -11 19q0 10 12 21l92 92l-92 92q-13 12 -13 22q0 8 11 19l51 52q10 11 21 11q10 0 22 -12l92 -92l92 92q13 13 22 13q8 0 19 -11l52 -51q11 -10 11 -22q0 -11 -12 -21l-92 -92l92 -92q12 -14 12 -21
q0 -11 -12 -21l-52 -51q-11 -11 -19 -11q-11 0 -21 12zM80 328q0 70 26.5 132t73 108t108 72.5t132.5 26.5q70 0 132 -26.5t108.5 -72.5t73 -108t26.5 -132q0 -71 -27 -132.5t-73 -107t-108.5 -72t-132.5 -26.5q-71 0 -132.5 26.5t-107.5 72t-72.5 107t-26.5 132.5zM128 328
q0 -61 22.5 -114.5t62 -93t92.5 -62.5t114 -23t114 23t92.5 62.5t62.5 93t23 114.5t-22.5 114.5t-62 93.5t-92.5 63t-114 23t-114 -23t-92.5 -63t-62.5 -93.5t-23 -114.5z" />
    <glyph glyph-name="glyph1" horiz-adv-x="0" 
 />
    <glyph glyph-name="glyph1" horiz-adv-x="0" 
 />
    <glyph glyph-name="uni000D" unicode="&#xd;" horiz-adv-x="220" 
 />
    <glyph glyph-name="space" unicode=" " horiz-adv-x="220" 
 />
    <glyph glyph-name="exclam" unicode="!" horiz-adv-x="228" 
d="M131 169q0 -16 -17 -16t-17 16l-10 319v148q0 12 7.5 19t19.5 7t19.5 -7t7.5 -19v-148zM74 30q0 17 11.5 29t28.5 12t29 -12t12 -29t-12 -28.5t-29 -11.5t-28.5 11.5t-11.5 28.5z" />
    <glyph glyph-name="quotedbl" unicode="&#x22;" horiz-adv-x="288" 
d="M93 423q-9 0 -11 10q-8 57 -11 93.5t-3 59.5v51q0 11 7 18t18 7t18.5 -7t7.5 -18v-51q0 -23 -3 -59.5t-11 -93.5q-2 -10 -12 -10zM194 423q-9 0 -11 10q-8 57 -11 93.5t-3 59.5v51q0 11 7 18t18 7t18.5 -7t7.5 -18v-51q0 -23 -3 -59.5t-11 -93.5q-2 -10 -12 -10z" />
    <glyph glyph-name="numbersign" unicode="#" horiz-adv-x="649" 
d="M405 19q-5 -24 -26 -24q-11 0 -17.5 6t-4.5 18l27 150h-179l-27 -150q-5 -24 -26 -24q-11 0 -17.5 6t-4.5 18l27 150h-92q-22 0 -22 22q0 10 6 16.5t16 6.5h101l42 229h-113q-22 0 -22 22q0 10 6 16.5t16 6.5h122l27 150q5 24 26 24q11 0 17.5 -6t4.5 -18l-27 -150h179
l27 150q5 24 26 24q11 0 17.5 -6t4.5 -18l-27 -150h92q10 0 16 -6.5t6 -16.5q0 -22 -22 -22h-101l-42 -229h113q10 0 16 -6.5t6 -16.5q0 -22 -22 -22h-122zM214 214h179l42 229h-179z" />
    <glyph glyph-name="dollar" unicode="$" horiz-adv-x="492" 
d="M407 475q-11 0 -18 7t-7 18q-1 25 -10 47t-26 38.5t-42 26.5t-58 10q-66 0 -102 -31.5t-36 -80.5q0 -40 22.5 -66.5t51.5 -39.5l116 -50q24 -11 50 -24.5t47 -34t34.5 -49.5t13.5 -70q0 -81 -48 -129.5t-126 -55.5v-81q0 -11 -6.5 -17t-17.5 -6q-23 0 -23 23v81
q-79 7 -125.5 52.5t-48.5 115.5q0 11 7 18t18 7q10 0 17.5 -7t7.5 -18q2 -51 39.5 -87.5t107.5 -36.5t108.5 38.5t38.5 96.5q0 32 -10.5 54t-27.5 37.5t-39 26.5t-45 22l-90 40q-23 10 -45 23.5t-39 32.5t-27.5 43.5t-10.5 56.5q0 68 45.5 110.5t118.5 49.5v81q0 23 23 23
q11 0 17.5 -6t6.5 -17v-81q73 -7 117 -52.5t46 -113.5q1 -11 -7 -18t-18 -7z" />
    <glyph glyph-name="percent" unicode="%" horiz-adv-x="619" 
d="M98 432q0 -29 17.5 -48.5t49.5 -19.5t49.5 19.5t17.5 48.5v131q0 29 -17.5 48.5t-49.5 19.5t-49.5 -19.5t-17.5 -48.5v-131zM274 434q0 -49 -30.5 -77.5t-78.5 -28.5q-49 0 -79 28.5t-30 77.5v127q0 49 30 77.5t79 28.5q48 0 78.5 -28.5t30.5 -77.5v-127zM387 94
q0 -29 17.5 -48.5t49.5 -19.5t49.5 19.5t17.5 48.5v131q0 29 -17.5 48.5t-49.5 19.5t-49.5 -19.5t-17.5 -48.5v-131zM563 96q0 -49 -30.5 -77.5t-78.5 -28.5q-49 0 -79 28.5t-30 77.5v127q0 49 30 77.5t79 28.5q48 0 78.5 -28.5t30.5 -77.5v-127zM139 5q-6 -10 -19 -10
q-9 0 -15.5 6t-6.5 15q0 7 5 15l182 297l194 324q6 10 19 10q9 0 15.5 -6t6.5 -15q0 -7 -5 -15l-182 -298z" />
    <glyph glyph-name="ampersand" unicode="&#x26;" horiz-adv-x="574" 
d="M539 345q0 -9 -5.5 -15t-14.5 -6h-52v-134q0 -46 -14.5 -83t-41.5 -63t-64 -40t-82 -14q-48 0 -86.5 13t-66.5 37t-43 58.5t-15 77.5q0 60 29 104.5t89 64.5q-47 21 -69 60.5t-22 91.5q0 38 13.5 69.5t37.5 54t57.5 34.5t74.5 12q80 0 126.5 -44t50.5 -114
q1 -11 -6.5 -18t-18.5 -7q-23 0 -25 25q-2 22 -10 42t-23.5 36t-39 25.5t-55.5 9.5q-64 0 -96.5 -36t-32.5 -91q0 -26 7 -49.5t24 -41t45 -28t69 -10.5h240q9 0 14.5 -6t5.5 -15zM266 35q37 0 65 11.5t47 32t29 48t10 59.5v138h-142q-46 0 -78 -13.5t-51.5 -34t-28.5 -46
t-9 -49.5q0 -65 40 -105.5t118 -40.5z" />
    <glyph glyph-name="quotesingle" unicode="'" horiz-adv-x="188" 
d="M94 423q-10 0 -12 10q-8 57 -11 93.5t-3 59.5v51q0 11 7.5 18t18.5 7t18.5 -7t7.5 -18v-51q0 -23 -3 -59.5t-11 -93.5q-2 -10 -12 -10z" />
    <glyph glyph-name="parenleft" unicode="(" horiz-adv-x="287" 
d="M78 605q0 77 39.5 117.5t108.5 42.5q22 0 22 -22q0 -21 -22 -23q-54 -2 -75 -32t-21 -79v-564q0 -49 21 -79t75 -32q22 -2 22 -23q0 -22 -22 -22q-69 1 -108.5 42t-39.5 118v556z" />
    <glyph glyph-name="parenright" unicode=")" horiz-adv-x="287" 
d="M209 49q0 -77 -39.5 -118t-108.5 -42q-22 0 -22 22q0 21 22 23q54 2 75 32t21 79v564q0 49 -21 79t-75 32q-22 2 -22 23q0 22 22 22q69 -2 108.5 -42.5t39.5 -117.5v-556z" />
    <glyph glyph-name="asterisk" unicode="*" horiz-adv-x="398" 
d="M222 638q0 -8 -1.5 -23.5t-4 -34t-5 -36t-4.5 -28.5q8 7 21.5 18.5t27.5 23.5t26.5 22t18.5 14q10 7 19 4.5t14 -10.5q10 -19 -9 -32q-6 -4 -21 -11t-32 -14.5t-33.5 -15t-26.5 -11.5q10 -4 26.5 -11.5t33.5 -15t32 -15t21 -11.5q10 -6 11.5 -15t-3.5 -17t-13.5 -10.5
t-18.5 4.5q-6 4 -18.5 14t-26.5 21.5t-27 22.5t-22 19q2 -11 4.5 -28.5t5 -35.5t4 -34t1.5 -23q0 -12 -6.5 -18t-16.5 -6q-22 0 -22 24q0 7 2 22.5t4 33.5t4.5 36t4.5 29q-8 -7 -21.5 -18.5t-28 -23t-27 -21.5t-18.5 -14q-10 -7 -18.5 -4.5t-13.5 10.5q-12 18 8 32
q6 4 20.5 11t31.5 15t33.5 15t26.5 12q-9 4 -25.5 11t-33.5 15t-32 15t-21 11q-19 13 -9 32q5 8 14 10.5t19 -4.5q6 -4 18.5 -14t26.5 -21.5t27.5 -23.5t22.5 -19q-2 10 -4.5 28t-4.5 36t-4 34t-2 24q0 24 22 24q10 0 16.5 -6t6.5 -18z" />
    <glyph glyph-name="plus" unicode="+" horiz-adv-x="475" 
d="M260 351h146q10 0 15.5 -6.5t5.5 -16.5q0 -22 -21 -22h-146v-129q0 -10 -6.5 -16t-16.5 -6t-16.5 6t-6.5 16v129h-145q-21 0 -21 22q0 10 5.5 16.5t15.5 6.5h145v129q0 10 6.5 16t16.5 6t16.5 -6t6.5 -16v-129z" />
    <glyph glyph-name="comma" unicode="," horiz-adv-x="213" 
d="M92 -79q-4 -9 -8.5 -14.5t-14.5 -5.5q-11 0 -17 7t-4 18l26 111q4 15 11 24.5t22 9.5q14 0 25.5 -11t2.5 -33z" />
    <glyph glyph-name="hyphen" unicode="-" horiz-adv-x="378" 
d="M68 263q0 10 6 16.5t16 6.5h198q10 0 16 -6.5t6 -16.5q0 -22 -22 -22h-198q-22 0 -22 22z" />
    <glyph glyph-name="period" unicode="." horiz-adv-x="213" 
d="M66 30q0 17 11.5 29t28.5 12t29 -12t12 -29t-12 -28.5t-29 -11.5t-28.5 11.5t-11.5 28.5z" />
    <glyph glyph-name="slash" unicode="/" horiz-adv-x="396" 
d="M80 -98q-7 -18 -24 -18q-10 0 -16.5 7t-6.5 18q0 2 1 6t2 6l278 830q6 19 26 19q10 0 16.5 -7t6.5 -18q0 -2 -1 -6t-2 -6z" />
    <glyph glyph-name="zero" unicode="0" horiz-adv-x="544" 
d="M126 187q0 -32 9.5 -59.5t28 -47.5t46 -31.5t62.5 -11.5t62.5 11.5t46 31.5t28 47.5t9.5 59.5v283q0 32 -9.5 59.5t-28 47.5t-46 31.5t-62.5 11.5t-62.5 -11.5t-46 -31.5t-28 -47.5t-9.5 -59.5v-283zM470 191q0 -47 -14.5 -84t-40.5 -63t-62.5 -40t-80.5 -14t-80.5 14
t-62.5 40t-40.5 63t-14.5 84v275q0 46 14.5 83.5t40.5 63.5t62.5 40t80.5 14t80.5 -14t62.5 -40t40.5 -63.5t14.5 -83.5v-275z" />
    <glyph glyph-name="one" unicode="1" horiz-adv-x="379" 
d="M47 633q0 10 6 17t16 7h134q22 0 22 -22v-588h103q10 0 16 -7t6 -17t-6 -16.5t-16 -6.5h-259q-10 0 -16 6.5t-6 16.5t6 17t16 7h104v563h-104q-10 0 -16 6.5t-6 16.5z" />
    <glyph glyph-name="two" unicode="2" horiz-adv-x="507" 
d="M430 49q10 0 16 -7.5t6 -17.5t-6 -17t-16 -7h-346q-25 0 -25 25v4q0 84 37 145t114 114l97 67q42 29 64.5 64.5t22.5 82.5q0 53 -35.5 85.5t-104.5 32.5t-105 -36t-36 -91q0 -25 -25 -25q-11 0 -18 6.5t-7 16.5q0 41 14 73.5t39.5 55.5t61 35t77.5 12q43 0 78.5 -11
t60.5 -32.5t39 -52.5t14 -71q0 -53 -26.5 -98t-77.5 -80l-126 -88q-33 -23 -53.5 -48t-31 -49.5t-14.5 -47t-4 -40.5h316v0z" />
    <glyph glyph-name="three" unicode="3" horiz-adv-x="517" 
d="M195 345q0 22 22 22h38q38 0 64 10.5t41.5 28t22.5 41t7 49.5q0 54 -34.5 89t-103.5 35q-68 0 -103.5 -34.5t-35.5 -85.5q0 -25 -25 -25t-25 25q0 24 6 45q16 57 64.5 89.5t119.5 32.5q86 0 138 -45.5t52 -123.5q0 -54 -22 -94t-69 -60q52 -22 77.5 -66.5t25.5 -103.5
q0 -43 -14.5 -77t-41 -58t-63 -36.5t-80.5 -12.5q-88 0 -140.5 44t-56.5 116q-1 11 6.5 18t18.5 7q23 0 25 -25q1 -23 11 -43t28 -36t45 -25t62 -9q73 0 109.5 39t36.5 103q0 24 -7.5 49.5t-24.5 46t-45 34t-69 13.5h-38q-22 0 -22 23z" />
    <glyph glyph-name="four" unicode="4" horiz-adv-x="521" 
d="M367 662q20 0 29 -12t9 -23v-417h57q10 0 16 -7t6 -17t-6 -16.5t-16 -6.5h-57v-143q0 -11 -7.5 -18t-18.5 -7t-18.5 7t-7.5 18v143h-290q-14 0 -22.5 7.5t-8.5 21.5q0 12 7 23l14 22l264 396q6 9 17.5 19t32.5 10zM353 210v390l-261 -390h261z" />
    <glyph glyph-name="five" unicode="5" horiz-adv-x="507" 
d="M431 633q0 -10 -6 -16.5t-16 -6.5h-273v-249q22 14 52 24t71 10q46 0 82 -14.5t61 -41t38.5 -63t13.5 -80.5q0 -48 -14.5 -86t-41 -65t-63 -41t-80.5 -14t-79.5 11t-61 31.5t-40.5 49t-16 63.5q-1 11 6.5 18t18.5 7q23 0 25 -25q1 -22 10.5 -41.5t28 -34.5t45.5 -23.5
t62 -8.5q73 0 109.5 43.5t36.5 116.5q0 28 -7.5 55t-24.5 48.5t-43.5 34.5t-65.5 13q-41 0 -68 -9t-45 -22q-8 -5 -15.5 -10t-21.5 -5q-11 0 -18 5.5t-7 16.5v311q0 22 22 22h303q10 0 16 -7t6 -17z" />
    <glyph glyph-name="six" unicode="6" horiz-adv-x="528" 
d="M469 189q0 -47 -15 -83.5t-41.5 -62.5t-63.5 -39.5t-81 -13.5t-80 15.5t-61.5 44t-39.5 69.5t-14 92v265q0 44 14.5 79.5t40.5 60t62 38t80 13.5q43 0 78 -13t60 -35.5t38.5 -53.5t14.5 -67q0 -25 -25 -25t-25 25t-9.5 47.5t-27.5 39t-44 26.5t-60 10q-35 0 -62 -11
t-45.5 -29.5t-28 -44t-9.5 -55.5v-155q23 24 60.5 42.5t91.5 18.5q46 0 81.5 -15t60 -42t37.5 -63t13 -78zM274 339q-31 0 -54.5 -6.5t-41.5 -17t-31 -23.5t-22 -26v-59q0 -37 9.5 -68t28 -54t46 -36t62.5 -13q71 0 107.5 42t36.5 107q0 29 -7.5 56.5t-24.5 49.5t-43.5 35
t-65.5 13z" />
    <glyph glyph-name="seven" unicode="7" horiz-adv-x="443" 
d="M173 10q-7 -15 -25 -15q-16 0 -22 12t0 26l227 577h-298q-11 0 -17 6.5t-6 17.5q0 23 23 23h325q14 0 23 -6t9 -20q0 -6 -1.5 -11.5t-6.5 -16.5z" />
    <glyph glyph-name="eight" unicode="8" horiz-adv-x="526" 
d="M454 492q0 -54 -25 -92.5t-68 -58.5q48 -20 76 -63t28 -101q0 -42 -15 -76.5t-42 -59t-64 -38t-81 -13.5t-81 13.5t-64 38t-42 59t-15 76.5q0 58 28 101t76 63q-43 20 -68 59t-25 92q0 40 14 72t39.5 55t60.5 35.5t77 12.5t77 -12.5t60.5 -35.5t39.5 -55t14 -72zM115 178
q0 -30 10 -56t28.5 -45.5t46 -30.5t63.5 -11t63.5 11t46 30.5t28.5 45.5t10 56q0 28 -8.5 53.5t-26.5 45t-46 31t-67 11.5t-67 -11.5t-46 -31t-26.5 -45t-8.5 -53.5zM125 491q0 -26 8 -49.5t24.5 -41t42.5 -28t63 -10.5t63 10.5t42.5 28t24.5 41t8 49.5q0 56 -35.5 93.5
t-102.5 37.5t-102.5 -37.5t-35.5 -93.5z" />
    <glyph glyph-name="nine" unicode="9" horiz-adv-x="528" 
d="M59 468q0 46 15 83t41.5 63t63.5 39.5t81 13.5t80 -15.5t61.5 -44t39.5 -69.5t14 -92v-265q0 -44 -14.5 -79.5t-40.5 -60.5t-62 -38t-80 -13q-42 0 -76.5 12t-59.5 34t-39.5 53.5t-15.5 69.5q0 25 25 25t25 -25q1 -51 37 -87t104 -36q35 0 62 11t45.5 29.5t28 44
t9.5 55.5v154q-24 -24 -61 -42t-91 -18q-46 0 -81.5 15t-60 42t-37.5 63t-13 78zM254 318q31 0 54.5 6.5t41.5 17t31 23.5t22 26v59q0 34 -9.5 65t-28 54.5t-46 37.5t-62.5 14q-71 0 -107.5 -42t-36.5 -107q0 -29 7.5 -56.5t24.5 -49.5t43.5 -35t65.5 -13z" />
    <glyph glyph-name="colon" unicode=":" horiz-adv-x="227" 
d="M73 30q0 17 11.5 29t28.5 12t29 -12t12 -29t-12 -28.5t-29 -11.5t-28.5 11.5t-11.5 28.5zM73 457q0 17 11.5 29t28.5 12t29 -12t12 -29t-12 -28.5t-29 -11.5t-28.5 11.5t-11.5 28.5z" />
    <glyph glyph-name="semicolon" unicode=";" horiz-adv-x="250" 
d="M90 457q0 17 11.5 29t28.5 12t29 -12t12 -29t-12 -28.5t-29 -11.5t-28.5 11.5t-11.5 28.5zM111 -79q-4 -9 -8.5 -14.5t-14.5 -5.5q-11 0 -17 7t-4 18l26 111q4 15 11 24.5t22 9.5q14 0 25.5 -11t2.5 -33z" />
    <glyph glyph-name="less" unicode="&#x3c;" horiz-adv-x="463" 
d="M63 301q-19 8 -19 25q0 18 19 26l301 122q6 2 9 2q10 0 16.5 -6.5t6.5 -16.5q0 -14 -13 -19l-270 -107l270 -108q13 -5 13 -19q0 -10 -6.5 -16.5t-16.5 -6.5q-3 0 -9 2z" />
    <glyph glyph-name="equal" unicode="=" horiz-adv-x="521" 
d="M71 414q0 10 6 16.5t16 6.5h335q10 0 16 -6.5t6 -16.5q0 -22 -22 -22h-335q-22 0 -22 22zM71 244q0 10 6 16.5t16 6.5h335q10 0 16 -6.5t6 -16.5q0 -22 -22 -22h-335q-22 0 -22 22z" />
    <glyph glyph-name="greater" unicode="&#x3e;" horiz-adv-x="463" 
d="M400 349q19 -8 19 -25q0 -18 -19 -26l-301 -122q-6 -2 -9 -2q-10 0 -16.5 6.5t-6.5 16.5q0 14 13 19l270 107l-270 108q-13 5 -13 19q0 10 6.5 16.5t16.5 6.5q3 0 9 -2z" />
    <glyph glyph-name="question" unicode="?" horiz-adv-x="466" 
d="M217 158q-17 0 -20 19q-6 34 0.5 61.5t21 51t33.5 43.5t39 40l27.5 27.5t26.5 31t19.5 35.5t7.5 43q0 50 -35 80t-100 30q-72 0 -109 -36t-37 -91q0 -25 -25 -25t-25 25q0 40 14.5 72t40.5 54.5t62 35t80 12.5q41 0 75.5 -11t59 -31.5t38.5 -49.5t14 -66q0 -28 -9 -51
t-24 -44t-34 -40.5t-39 -39.5q-16 -16 -30.5 -30t-26 -31t-18 -40t-6.5 -56q0 -8 -6.5 -13.5t-14.5 -5.5zM177 30q0 17 11.5 29t28.5 12t29 -12t12 -29t-12 -28.5t-29 -11.5t-28.5 11.5t-11.5 28.5z" />
    <glyph glyph-name="at" unicode="@" horiz-adv-x="795" 
d="M365 78q42 0 70.5 28.5t36.5 70.5l19 109q8 42 -15.5 70.5t-75.5 28.5q-40 0 -64 -29t-32 -72l-19 -105q-8 -43 11 -72t69 -29zM511 147q-11 -65 14 -91t73 -26q28 0 47 11.5t30 32t15.5 48t4.5 60.5v138q0 56 -20.5 101.5t-58.5 77.5t-92 49.5t-122 17.5t-122 -17.5
t-92 -49.5t-58.5 -77.5t-20.5 -101.5v-177q0 -56 20.5 -101.5t58.5 -77.5t92 -49.5t122 -17.5h68q10 0 15.5 -6.5t5.5 -16.5q0 -22 -21 -22h-68q-83 0 -146.5 21.5t-106 61t-64 95.5t-21.5 125v153q0 69 21.5 125t64 95.5t106 61t146.5 21.5t146.5 -21.5t106 -61t64 -95.5
t21.5 -125v-114q0 -110 -37.5 -157t-104.5 -47q-59 0 -93 28.5t-35 82.5q-42 -62 -111 -62q-65 0 -96.5 38.5t-20.5 104.5l17 99q11 66 47.5 104.5t93.5 38.5q38 0 67 -14.5t43 -41.5l15 43q3 11 14 11q7 0 12.5 -4.5t3.5 -14.5z" />
    <glyph glyph-name="A" unicode="A" horiz-adv-x="544" 
d="M151 214h240l-121 366zM506 31q2 -6 2 -11q0 -11 -7.5 -18t-19.5 -7q-18 0 -25 20l-50 152h-271l-50 -156q-5 -16 -24 -16q-10 0 -17 7t-7 17q0 5 1 8l202 611q8 24 32 24q22 0 30 -24z" />
    <glyph glyph-name="B" unicode="B" horiz-adv-x="551" 
d="M88 632q0 25 25 25h172q43 0 79 -12t62 -34t41 -53t15 -69q0 -56 -27 -93.5t-74 -55.5v-1q54 -15 85.5 -55t31.5 -105q0 -41 -14.5 -74t-40.5 -56t-62 -36t-78 -13h-190q-25 0 -25 25v607zM140 315v-269h161q66 0 104.5 36.5t38.5 96.5q0 63 -37 99.5t-101 36.5h-166z
M140 611v-251h148q65 0 102.5 34.5t37.5 94.5q0 56 -39 89t-106 33h-143z" />
    <glyph glyph-name="C" unicode="C" horiz-adv-x="542" 
d="M459 207q25 0 25 -25q0 -45 -15 -80.5t-42 -60t-65 -38t-84 -13.5t-84.5 14.5t-66 41t-42.5 64.5t-15 86v265q0 48 15 86t42.5 64.5t66 41t84.5 14.5t83.5 -13t64.5 -38t42.5 -60t15.5 -78q0 -11 -7 -17t-18 -6q-25 0 -25 25q0 30 -10.5 55.5t-30 44t-49 29.5t-66.5 11
q-38 0 -67 -12t-48.5 -32.5t-30 -49t-10.5 -61.5v-273q0 -33 10.5 -61.5t30 -49t48.5 -32.5t67 -12q75 0 115.5 40t40.5 105q0 25 25 25z" />
    <glyph glyph-name="D" unicode="D" horiz-adv-x="569" 
d="M287 657q47 0 86.5 -14.5t67.5 -42t43.5 -66.5t15.5 -88v-235q0 -49 -15.5 -88t-43.5 -66.5t-67.5 -42t-86.5 -14.5h-174q-25 0 -25 25v607q0 25 25 25h174zM140 610v-563h147q39 0 69 12t50.5 33.5t31 51t10.5 63.5v243q0 34 -10.5 63.5t-31 51t-50.5 33.5t-69 12h-147z
" />
    <glyph glyph-name="E" unicode="E" horiz-adv-x="509" 
d="M140 313v-266h300q11 0 17 -6.5t6 -17.5q0 -23 -23 -23h-327q-25 0 -25 25v607q0 25 25 25h319q11 0 17 -6.5t6 -17.5q0 -23 -23 -23h-292v-250h270q11 0 17 -6.5t6 -17.5q0 -23 -23 -23h-270z" />
    <glyph glyph-name="F" unicode="F" horiz-adv-x="493" 
d="M140 295v-275q0 -11 -7.5 -18t-18.5 -7t-18.5 7t-7.5 18v612q0 25 25 25h319q11 0 17 -6.5t6 -17.5q0 -23 -23 -23h-292v-268h270q11 0 17 -6.5t6 -17.5q0 -23 -23 -23h-270z" />
    <glyph glyph-name="G" unicode="G" horiz-adv-x="548" 
d="M294 292q0 10 6 16.5t16 6.5h143q25 0 25 -25v-109q0 -44 -15 -79.5t-42 -60.5t-64.5 -38t-83.5 -13t-84.5 14.5t-66 41t-43 64.5t-15.5 86v265q0 48 15 86t42.5 64.5t66 41t84.5 14.5t84 -12t65 -35.5t42 -56.5t15 -75q0 -10 -7 -17t-18 -7q-25 0 -25 26
q0 55 -40.5 92.5t-115.5 37.5q-38 0 -67 -12t-48.5 -32.5t-30 -49t-10.5 -61.5v-273q0 -33 10.5 -61.5t30.5 -49t49 -32.5t67 -12q76 0 116 40t40 100v93h-119q-22 0 -22 22z" />
    <glyph glyph-name="H" unicode="H" horiz-adv-x="582" 
d="M494 20q0 -11 -7.5 -18t-18.5 -7t-18.5 7t-7.5 18v293h-302v-293q0 -11 -7.5 -18t-18.5 -7t-18.5 7t-7.5 18v617q0 11 7.5 18t18.5 7t18.5 -7t7.5 -18v-277h302v277q0 11 7.5 18t18.5 7t18.5 -7t7.5 -18v-617z" />
    <glyph glyph-name="I" unicode="I" horiz-adv-x="228" 
d="M140 20q0 -11 -7.5 -18t-18.5 -7t-18.5 7t-7.5 18v617q0 11 7.5 18t18.5 7t18.5 -7t7.5 -18v-617z" />
    <glyph glyph-name="J" unicode="J" horiz-adv-x="481" 
d="M54 204q25 0 25 -32q0 -57 35 -96t99 -39q65 0 98.5 39t33.5 96v465q0 11 7.5 18t18.5 7t18.5 -7t7.5 -18v-461q0 -43 -13.5 -77.5t-37.5 -58.5t-58 -37t-75 -13t-74.5 13t-58 37t-38 58.5t-13.5 77.5q0 28 25 28z" />
    <glyph glyph-name="K" unicode="K" horiz-adv-x="533" 
d="M301 393l190 -357q2 -5 3.5 -7.5t1.5 -7.5q0 -11 -8 -18.5t-19 -7.5q-8 0 -14.5 5t-9.5 11l-179 339l-126 -164v-166q0 -11 -7.5 -18t-18.5 -7t-18.5 7t-7.5 18v617q0 11 7.5 18t18.5 7t18.5 -7t7.5 -18v-375l303 392q6 8 17 8t17.5 -6.5t6.5 -17.5q0 -7 -4 -12z" />
    <glyph glyph-name="L" unicode="L" horiz-adv-x="458" 
d="M140 47h284q11 0 17 -6.5t6 -17.5q0 -23 -23 -23h-311q-25 0 -25 25v612q0 11 7.5 18t18.5 7t18.5 -7t7.5 -18v-590z" />
    <glyph glyph-name="M" unicode="M" horiz-adv-x="628" 
d="M315 288l172 354q7 14 12 17t16 3q25 0 25 -25v-617q0 -25 -25 -25t-25 25v526l-157 -319q-3 -6 -7.5 -10t-12.5 -4t-12.5 4t-7.5 10l-157 319v-527q0 -11 -6.5 -17.5t-17.5 -6.5t-17.5 6.5t-6.5 17.5v618q0 25 25 25q11 0 16.5 -3t12.5 -17z" />
    <glyph glyph-name="N" unicode="N" horiz-adv-x="580" 
d="M492 20q0 -25 -25 -25q-13 0 -17.5 6t-9.5 14l-303 540v-536q0 -11 -7 -17.5t-18 -6.5t-17.5 6.5t-6.5 17.5v618q0 11 8 18t19 7q13 0 18 -4.5t12 -17.5l298 -530v528q0 11 6.5 17.5t17.5 6.5t18 -6.5t7 -17.5v-618z" />
    <glyph glyph-name="O" unicode="O" horiz-adv-x="556" 
d="M122 192q0 -33 10.5 -61.5t30 -49t48.5 -32.5t67 -12q37 0 66.5 12t49 32.5t30 49t10.5 61.5v273q0 33 -10.5 61.5t-30 49t-49 32.5t-66.5 12q-38 0 -67 -12t-48.5 -32.5t-30 -49t-10.5 -61.5v-273zM486 196q0 -48 -15 -86t-42.5 -64.5t-66 -41t-84.5 -14.5t-84.5 14.5
t-66 41t-42.5 64.5t-15 86v265q0 48 15 86t42.5 64.5t66 41t84.5 14.5t84.5 -14.5t66 -41t42.5 -64.5t15 -86v-265z" />
    <glyph glyph-name="P" unicode="P" horiz-adv-x="537" 
d="M88 632q0 25 25 25h162q48 0 88.5 -14.5t69.5 -41.5t45.5 -65.5t16.5 -85.5t-16.5 -85.5t-45.5 -66t-69.5 -42.5t-88.5 -15h-135v-221q0 -11 -7.5 -18t-18.5 -7t-18.5 7t-7.5 18v612zM140 611v-324h133q78 0 123 44.5t45 118.5t-45 117.5t-123 43.5h-133z" />
    <glyph glyph-name="Q" unicode="Q" horiz-adv-x="559" 
d="M122 192q0 -33 10.5 -61.5t30 -49t48.5 -32.5t67 -12q37 0 66.5 12t49 32.5t30 49t10.5 61.5v273q0 33 -10.5 61.5t-30 49t-49 32.5t-66.5 12q-38 0 -67 -12t-48.5 -32.5t-30 -49t-10.5 -61.5v-273zM453 -95q5 -7 5 -15q0 -11 -8 -19.5t-20 -8.5t-21 12l-85 120
q-11 -2 -22.5 -3t-23.5 -1q-46 0 -84.5 14.5t-66 41t-42.5 64.5t-15 86v265q0 48 15 86t42.5 64.5t66 41t84.5 14.5t84.5 -14.5t66 -41t42.5 -64.5t15 -86v-265q0 -67 -29.5 -115t-80.5 -71z" />
    <glyph glyph-name="R" unicode="R" horiz-adv-x="548" 
d="M140 611v-298h133q78 0 123 41.5t45 110.5q0 67 -45 106.5t-123 39.5h-133zM476 33q3 -6 3 -12q0 -11 -7.5 -18.5t-18.5 -7.5q-17 0 -24 16l-118 259q-9 -1 -18 -1.5t-18 -0.5h-135v-248q0 -11 -7.5 -18t-18.5 -7t-18.5 7t-7.5 18v612q0 25 25 25h162q48 0 88.5 -13.5
t69.5 -38.5t45.5 -60.5t16.5 -79.5q0 -67 -36 -115t-96 -68z" />
    <glyph glyph-name="S" unicode="S" horiz-adv-x="521" 
d="M431 466q-11 0 -18 7t-7 17q0 57 -38.5 94.5t-107.5 37.5t-107.5 -31t-38.5 -81q0 -41 25.5 -67t56.5 -39l116 -49q27 -11 54.5 -25t50 -34.5t36.5 -49.5t14 -70q0 -43 -15 -77.5t-42.5 -58.5t-66 -37t-84.5 -13q-45 0 -83 12t-65 34.5t-42.5 54.5t-16.5 73q0 25 25 25
q11 0 18 -6t7 -16q0 -28 10.5 -52t31 -42t49.5 -28t66 -10q75 0 116 38.5t41 96.5q0 32 -11 54t-29.5 38t-42.5 27t-49 22l-90 38q-24 10 -47 24t-41.5 32.5t-29.5 43.5t-11 57q0 37 14.5 66.5t40.5 50.5t61.5 32.5t78.5 11.5q42 0 78 -12.5t62.5 -35t41 -55.5t14.5 -73
q0 -11 -7 -18t-18 -7z" />
    <glyph glyph-name="T" unicode="T" horiz-adv-x="453" 
d="M15 634q0 23 23 23h377q11 0 17 -6.5t6 -17.5q0 -23 -23 -23h-163v-590q0 -11 -7.5 -18t-18.5 -7t-18.5 7t-7.5 18v590h-162q-11 0 -17 6.5t-6 17.5z" />
    <glyph glyph-name="U" unicode="U" horiz-adv-x="574" 
d="M466 662q11 0 18.5 -7t7.5 -18v-441q0 -48 -15 -86t-42 -64.5t-65 -41t-83 -14.5t-83 14.5t-65 41t-42 64.5t-15 86v441q0 11 8 18t19 7q25 0 25 -25v-445q0 -33 10 -61.5t29.5 -49t48 -32.5t65.5 -12t65.5 12t48 32.5t29.5 49t10 61.5v445q0 11 7.5 18t18.5 7z" />
    <glyph glyph-name="V" unicode="V" horiz-adv-x="500" 
d="M281 19q-3 -11 -11.5 -17.5t-19.5 -6.5t-19.5 6.5t-11.5 17.5l-180 605q-2 6 -2 11q0 11 7.5 19t18.5 8q20 0 25 -19l163 -553l164 554q2 8 8.5 13t14.5 5q11 0 18.5 -6.5t7.5 -17.5q0 -1 -0.5 -5t-1.5 -6z" />
    <glyph glyph-name="W" unicode="W" horiz-adv-x="743" 
d="M553 17q-5 -22 -27 -22t-27 22l-128 540l-127 -540q-5 -22 -27 -22t-27 22l-145 611q-1 4 -1 9q0 11 6.5 18t16.5 7q21 0 26 -22l125 -538l126 537q5 23 27 23q23 0 28 -23l126 -537l125 538q5 22 26 22q10 0 16.5 -7t6.5 -18q0 -5 -1 -9z" />
    <glyph glyph-name="X" unicode="X" horiz-adv-x="475" 
d="M239 378l146 272q6 12 23 12q8 0 16 -6.5t8 -17.5q0 -5 -1.5 -8.5t-3.5 -6.5l-158 -289l162 -300q2 -3 3.5 -6.5t1.5 -8.5q0 -11 -7.5 -17.5t-18.5 -6.5q-17 0 -23 12l-150 280l-149 -280q-6 -12 -23 -12q-11 0 -17.5 6.5t-6.5 17.5q0 5 1.5 8.5t3.5 6.5l163 297
l-160 291q-4 8 -4 16q0 10 6.5 17t17.5 7q17 0 23 -12z" />
    <glyph glyph-name="Y" unicode="Y" horiz-adv-x="478" 
d="M265 261v-241q0 -11 -7.5 -18t-18.5 -7t-18.5 7t-7.5 18v241l-176 363q-3 6 -3 12q0 11 7 18.5t18 7.5q16 0 23 -14l159 -335l160 336q4 8 9.5 10.5t11.5 2.5q11 0 17 -6t7 -13q1 -5 -1 -9.5t-4 -9.5z" />
    <glyph glyph-name="Z" unicode="Z" horiz-adv-x="457" 
d="M386 657q11 0 18 -6.5t7 -16.5q0 -5 -1 -10t-6 -13l-304 -564h303q11 0 17 -6.5t6 -17.5q0 -23 -23 -23h-342q-11 0 -18 6.5t-7 16.5q0 5 1 10t6 13l304 564h-279q-23 0 -23 23q0 11 6 17.5t17 6.5h318v0z" />
    <glyph glyph-name="bracketleft" unicode="[" horiz-adv-x="295" 
d="M138 -64h95q11 0 17 -6.5t6 -17.5q0 -23 -23 -23h-124q-23 0 -23 23v830q0 23 23 23h124q11 0 17 -6.5t6 -17.5q0 -23 -23 -23h-95v-782z" />
    <glyph glyph-name="backslash" unicode="\" horiz-adv-x="396" 
d="M36 733q-1 2 -2 6t-1 6q0 11 6.5 18t16.5 7q20 0 26 -19l278 -830q1 -2 2 -6t1 -6q0 -11 -6.5 -18t-16.5 -7q-19 0 -24 18z" />
    <glyph glyph-name="bracketright" unicode="]" horiz-adv-x="295" 
d="M157 718h-95q-23 0 -23 23q0 11 6 17.5t17 6.5h124q23 0 23 -23v-830q0 -23 -23 -23h-124q-23 0 -23 23q0 11 6 17.5t17 6.5h95v782z" />
    <glyph glyph-name="asciicircum" unicode="^" horiz-adv-x="351" 
d="M176 595l-75 -166q-7 -13 -21 -13q-8 0 -14.5 6t-6.5 14q0 6 4 14l87 194q8 18 25 18q18 0 26 -18l87 -194q4 -8 4 -14q0 -8 -6.5 -14t-14.5 -6q-15 0 -21 13z" />
    <glyph glyph-name="underscore" unicode="_" horiz-adv-x="693" 
d="M67 -50q0 20 20 20h519q20 0 20 -20t-20 -20h-519q-20 0 -20 20z" />
    <glyph glyph-name="grave" unicode="`" horiz-adv-x="192" 
d="M162 585q6 -6 6 -14t-5 -12.5t-13 -4.5q-6 0 -10 3l-101 76q-10 8 -10 20q0 11 7 18.5t18 7.5t18 -7l90 -87v0z" />
    <glyph glyph-name="a" unicode="a" 
d="M236 35q62 0 96.5 39.5t34.5 97.5v144q0 58 -34.5 97.5t-96.5 39.5q-31 0 -54 -10t-38.5 -27t-23.5 -40t-8 -50v-164q0 -27 8 -50t23.5 -40t38.5 -27t54 -10zM372 61q-23 -34 -58.5 -52.5t-80.5 -18.5q-79 0 -125 47t-46 129v156q0 82 46 129t125 47q45 0 80.5 -18
t58.5 -52l7 45q2 12 7 16t12 4q19 0 19 -20v-458q0 -20 -19 -20q-7 0 -12 4t-7 16z" />
    <glyph glyph-name="b" unicode="b" 
d="M258 35q31 0 54 10t38.5 27t23.5 40t8 50v164q0 27 -8 50t-23.5 40t-38.5 27t-54 10q-62 0 -96.5 -39.5t-34.5 -97.5v-144q0 -58 34.5 -97.5t96.5 -39.5zM77 657q0 25 25 25t25 -25v-224q23 32 57.5 48.5t76.5 16.5q79 0 125 -47t46 -129v-156q0 -82 -46 -129t-125 -47
q-45 0 -80.5 18.5t-58.5 52.5l-7 -46q-2 -12 -7 -16t-12 -4q-19 0 -19 20v642z" />
    <glyph glyph-name="c" unicode="c" horiz-adv-x="472" 
d="M394 166q10 0 17 -6.5t7 -16.5q-3 -72 -51.5 -112.5t-126.5 -40.5q-40 0 -73 13t-57 37t-37 58.5t-13 77.5v136q0 43 13 77.5t37 58.5t57 37t73 13q78 0 126.5 -41t50.5 -110q0 -11 -6.5 -17t-16.5 -6q-11 0 -17.5 6.5t-6.5 16.5q-2 44 -35.5 75.5t-94.5 31.5
q-31 0 -55.5 -10.5t-41 -29t-25 -44t-8.5 -54.5v-144q0 -29 8.5 -54.5t25 -44t41 -29t55.5 -10.5q64 0 96 31t34 77q0 11 6.5 17.5t17.5 6.5z" />
    <glyph glyph-name="d" unicode="d" 
d="M417 15q0 -20 -19 -20q-7 0 -12 4t-7 16l-7 46q-23 -34 -58.5 -52.5t-80.5 -18.5q-79 0 -125 47t-46 129v156q0 82 46 129t125 47q42 0 76.5 -16.5t57.5 -48.5v224q0 25 25 25t25 -25v-642zM236 35q62 0 96.5 39.5t34.5 97.5v144q0 58 -34.5 97.5t-96.5 39.5
q-31 0 -54 -10t-38.5 -27t-23.5 -40t-8 -50v-164q0 -27 8 -50t23.5 -40t38.5 -27t54 -10z" />
    <glyph glyph-name="e" unicode="e" horiz-adv-x="474" 
d="M393 165q11 0 18 -6.5t6 -17.5q-3 -68 -50.5 -109.5t-126.5 -41.5q-40 0 -73 12t-57 35t-37 55.5t-13 73.5v146q0 43 13 77.5t37 58.5t57 37t73 13q39 0 72 -13t56 -37t36 -58.5t13 -77.5v-46q0 -25 -25 -25h-282v-79q0 -55 33.5 -92.5t96.5 -37.5q32 0 56 9t40.5 24
t24.5 34.5t9 41.5q0 11 6 17.5t17 6.5zM110 285h260v31q0 30 -8.5 55.5t-25 44t-41 29.5t-55.5 11t-55.5 -11t-41 -29.5t-25 -44t-8.5 -55.5v-31z" />
    <glyph glyph-name="f" unicode="f" horiz-adv-x="325" 
d="M27 465q0 9 5.5 15t14.5 6h68v29q0 78 39.5 120t115.5 42h23q10 0 15.5 -6.5t5.5 -16.5q0 -21 -21 -21h-24q-30 0 -50 -8.5t-32 -23.5t-17 -36t-5 -46v-33h122q9 0 14.5 -6t5.5 -15t-5.5 -15t-14.5 -6h-122v-424q0 -25 -25 -25t-25 25v424h-68q-9 0 -14.5 6t-5.5 15z" />
    <glyph glyph-name="g" unicode="g" 
d="M379 473q2 12 7 16t12 4q19 0 19 -20v-505q0 -80 -48 -122.5t-126 -42.5t-121 34.5t-50 89.5q-2 12 5 19.5t18 7.5t17 -6.5t7 -17.5q1 -15 9 -30t23 -27t38 -19.5t54 -7.5q60 0 92 32.5t32 84.5v108q-23 -31 -57.5 -47.5t-76.5 -16.5q-79 0 -125 47t-46 129v139
q0 82 46 129t125 47q45 0 80.5 -18t58.5 -52zM236 52q62 0 96.5 39.5t34.5 97.5v127q0 58 -34.5 97.5t-96.5 39.5q-31 0 -54 -10t-38.5 -27t-23.5 -40t-8 -50v-147q0 -27 8 -50t23.5 -40t38.5 -27t54 -10z" />
    <glyph glyph-name="h" unicode="h" horiz-adv-x="505" 
d="M102 -5q-25 0 -25 25v637q0 25 25 25t25 -25v-223q23 31 57 47.5t77 16.5q79 0 125 -47t46 -129v-302q0 -25 -25 -25t-25 25v306q0 27 -8 50t-23.5 40t-38.5 27t-54 10q-62 0 -96.5 -39.5t-34.5 -97.5v-296q0 -25 -25 -25z" />
    <glyph glyph-name="i" unicode="i" horiz-adv-x="204" 
d="M102 493q11 0 18 -6.5t7 -17.5v-450q0 -11 -7 -17.5t-18 -6.5t-18 6.5t-7 17.5v450q0 11 7 17.5t18 6.5zM65 630q0 16 10.5 26.5t26.5 10.5t26.5 -10.5t10.5 -26.5t-10.5 -26.5t-26.5 -10.5t-26.5 10.5t-10.5 26.5z" />
    <glyph glyph-name="j" unicode="j" horiz-adv-x="204" 
d="M65 630q0 16 10.5 26.5t26.5 10.5t26.5 -10.5t10.5 -26.5t-10.5 -26.5t-26.5 -10.5t-26.5 10.5t-10.5 26.5zM-43 -153q61 0 90.5 34.5t29.5 93.5v493q0 25 25 25t25 -25v-489q0 -86 -47 -131t-123 -45q-14 0 -21.5 4.5t-7.5 17.5t7.5 17.5t21.5 4.5z" />
    <glyph glyph-name="k" unicode="k" horiz-adv-x="465" 
d="M411 -5q-14 0 -21 12l-166 255l-97 -97v-145q0 -25 -25 -25t-25 25v637q0 25 25 25t25 -25v-429l258 258q7 7 16 7q10 0 16.5 -6.5t6.5 -16.5q0 -9 -6 -15l-157 -157l171 -263q5 -8 5 -15q0 -10 -7.5 -17.5t-18.5 -7.5z" />
    <glyph glyph-name="l" unicode="l" horiz-adv-x="216" 
d="M108 682q25 0 25 -25v-637q0 -25 -25 -25t-25 25v637q0 25 25 25z" />
    <glyph glyph-name="m" unicode="m" horiz-adv-x="798" 
d="M122 427q22 34 56.5 52.5t79.5 18.5q54 0 93 -23.5t58 -67.5q21 44 59.5 67.5t88.5 23.5q78 0 123 -47t45 -129v-302q0 -25 -25 -25t-25 25v306q0 27 -7.5 50t-23 40t-38 27t-52.5 10q-29 0 -53 -10t-40.5 -28t-25.5 -42t-9 -52v-301q0 -25 -25 -25t-25 25v306
q0 27 -7.5 50t-23 40t-38 27t-52.5 10q-29 0 -53 -10t-40.5 -28t-25.5 -42t-9 -52v-301q0 -25 -25 -25t-25 25v453q0 20 19 20q7 0 12 -4t7 -16z" />
    <glyph glyph-name="n" unicode="n" horiz-adv-x="505" 
d="M122 426q23 35 58.5 53.5t80.5 18.5q79 0 125 -47t46 -129v-302q0 -25 -25 -25t-25 25v306q0 27 -8 50t-23.5 40t-38.5 27t-54 10q-62 0 -96.5 -39.5t-34.5 -97.5v-296q0 -25 -25 -25t-25 25v453q0 20 19 20q7 0 12 -4t7 -16z" />
    <glyph glyph-name="o" unicode="o" horiz-adv-x="480" 
d="M110 172q0 -29 8.5 -54.5t25 -44t41 -29t55.5 -10.5t55.5 10.5t41 29t25 44t8.5 54.5v144q0 29 -8.5 54.5t-25 44t-41 29t-55.5 10.5t-55.5 -10.5t-41 -29t-25 -44t-8.5 -54.5v-144zM420 176q0 -43 -13 -77.5t-37 -58.5t-57 -37t-73 -13t-73 13t-57 37t-37 58.5t-13 77.5
v136q0 43 13 77.5t37 58.5t57 37t73 13t73 -13t57 -37t37 -58.5t13 -77.5v-136z" />
    <glyph glyph-name="p" unicode="p" 
d="M258 453q-62 0 -96.5 -39.5t-34.5 -97.5v-144q0 -58 34.5 -97.5t96.5 -39.5q31 0 54 10t38.5 27t23.5 40t8 50v164q0 27 -8 50t-23.5 40t-38.5 27t-54 10zM122 427q23 34 58.5 52.5t80.5 18.5q79 0 125 -47t46 -129v-156q0 -82 -46 -129t-125 -47q-42 0 -76.5 16.5
t-57.5 48.5v-222q0 -25 -25 -25t-25 25v640q0 20 19 20q7 0 12 -4t7 -16z" />
    <glyph glyph-name="q" unicode="q" 
d="M379 473q2 12 7 16t12 4q19 0 19 -20v-640q0 -25 -25 -25t-25 25v222q-23 -32 -57.5 -48.5t-76.5 -16.5q-79 0 -125 47t-46 129v156q0 82 46 129t125 47q45 0 80.5 -18.5t58.5 -52.5zM236 453q-31 0 -54 -10t-38.5 -27t-23.5 -40t-8 -50v-164q0 -27 8 -50t23.5 -40
t38.5 -27t54 -10q62 0 96.5 39.5t34.5 97.5v144q0 58 -34.5 97.5t-96.5 39.5z" />
    <glyph glyph-name="r" unicode="r" horiz-adv-x="304" 
d="M122 423q23 36 58.5 55.5t81.5 19.5q25 0 25 -25q0 -10 -5.5 -16.5t-14.5 -5.5q-33 2 -59 -8.5t-44 -29.5t-27.5 -45t-9.5 -56v-292q0 -25 -25 -25t-25 25v453q0 20 19 20q7 0 12 -4t7 -16z" />
    <glyph glyph-name="s" unicode="s" horiz-adv-x="447" 
d="M174 244q-20 6 -40 15.5t-36 24t-25.5 34.5t-9.5 48q0 27 12 51t33 42t50 28.5t64 10.5q75 0 119.5 -35.5t48.5 -92.5q1 -11 -5.5 -17.5t-17.5 -6.5t-16.5 6.5t-7.5 17.5q-4 33 -33.5 59.5t-87.5 26.5q-19 0 -38.5 -5t-35.5 -15.5t-26.5 -27t-10.5 -38.5
q0 -29 16.5 -46.5t47.5 -27.5l90 -28q27 -9 51 -19t41 -25t27 -36.5t10 -51.5q0 -33 -12 -59.5t-34 -46t-53 -30t-69 -10.5q-39 0 -71 9.5t-56 27.5t-37.5 44t-14.5 59q0 10 6 17t17 7q10 0 17 -6t7 -16q0 -42 34 -70t97 -28q58 0 88.5 26.5t30.5 68.5q0 35 -17 54.5
t-55 30.5z" />
    <glyph glyph-name="t" unicode="t" horiz-adv-x="306" 
d="M20 464q0 9 5.5 15.5t14.5 6.5h88v113q0 25 25 25t25 -25v-113h88q20 0 20 -20q0 -9 -5.5 -15.5t-14.5 -6.5h-88v-424q0 -25 -25 -25t-25 25v424h-88q-20 0 -20 20z" />
    <glyph glyph-name="u" unicode="u" horiz-adv-x="499" 
d="M377 61q-23 -34 -58 -52.5t-80 -18.5q-77 0 -121.5 47t-44.5 129v302q0 25 25 25t25 -25v-306q0 -27 7.5 -50t22.5 -40t37 -27t52 -10t54.5 10.5t41 29t25.5 43.5t9 54v296q0 25 25 25t25 -25v-453q0 -20 -19 -20q-7 0 -12 4t-7 16z" />
    <glyph glyph-name="v" unicode="v" horiz-adv-x="454" 
d="M63 493q17 0 24 -17l142 -403l141 403q6 17 23 17q14 0 20.5 -11.5t1.5 -24.5l-160 -440q-8 -22 -28 -22t-28 22l-160 440q-5 13 2 24.5t22 11.5z" />
    <glyph glyph-name="w" unicode="w" horiz-adv-x="645" 
d="M480 16q-6 -21 -26 -21q-19 0 -25 21l-106 384l-105 -384q-6 -21 -27 -21t-27 21l-120 440q-2 6 -2 10q0 12 7 19.5t18 7.5q20 0 25 -17l101 -390l101 384q7 23 29 23q23 0 30 -23l101 -384l101 390q5 17 24 17q11 0 17.5 -7.5t6.5 -19.5q0 -4 -2 -10z" />
    <glyph glyph-name="x" unicode="x" horiz-adv-x="432" 
d="M372 -5q-12 0 -20 11l-138 203l-139 -203q-7 -11 -20 -11q-10 0 -16.5 6.5t-6.5 16.5q0 6 5 13l150 212l-145 210q-2 2 -3.5 6t-1.5 9q0 10 7 17.5t18 7.5q12 0 20 -11l136 -198l134 198q7 11 20 11q10 0 16.5 -6.5t6.5 -16.5q0 -6 -5 -13l-146 -208l148 -214
q2 -2 3.5 -6t1.5 -9q0 -10 -7 -17.5t-18 -7.5z" />
    <glyph glyph-name="y" unicode="y" horiz-adv-x="454" 
d="M185 -177q-2 -6 -8 -10.5t-13 -4.5q-13 0 -19 10t-1 21l61 164l-166 455q-3 8 1.5 21.5t21.5 13.5q19 0 25 -16l142 -405l142 406q4 15 21 15q14 0 21 -10.5t2 -23.5z" />
    <glyph glyph-name="z" unicode="z" horiz-adv-x="425" 
d="M98 43h271q9 0 14.5 -7t5.5 -16q0 -20 -20 -20h-305q-25 0 -25 23q0 9 8 22l273 400h-257q-9 0 -14.5 6t-5.5 15t5.5 15.5t14.5 6.5h291q25 0 25 -23q0 -9 -8 -22z" />
    <glyph glyph-name="braceleft" unicode="{" horiz-adv-x="322" 
d="M114 219q0 17 -3 33.5t-11 29t-21.5 20.5t-33.5 8q-8 0 -13 6t-5 15t4.5 15t12.5 6q39 1 54.5 26.5t15.5 64.5v162q0 75 38 116.5t110 43.5q22 0 22 -22q0 -9 -5.5 -16t-13.5 -7q-57 -2 -78 -32.5t-21 -78.5v-162q0 -87 -59 -116q59 -30 59 -116v-170q0 -48 21 -78.5
t78 -32.5q8 0 13.5 -6.5t5.5 -15.5t-5.5 -16t-13.5 -7q-75 2 -113 43.5t-38 116.5v170z" />
    <glyph glyph-name="bar" unicode="|" horiz-adv-x="219" 
d="M133 -94q0 -10 -6.5 -16t-16.5 -6t-17 6t-7 16v842q0 10 7 16t17 6t16.5 -6t6.5 -16v-842z" />
    <glyph glyph-name="braceright" unicode="}" horiz-adv-x="322" 
d="M208 49q0 -75 -38 -116.5t-113 -43.5q-8 0 -13.5 7t-5.5 16t5.5 15.5t13.5 6.5q57 2 78 32.5t21 78.5v170q0 86 59 116q-59 29 -59 116v162q0 48 -21 78.5t-78 32.5q-8 0 -13.5 7t-5.5 16q0 22 22 22q72 -2 110 -43.5t38 -116.5v-162q0 -39 15.5 -64.5t54.5 -26.5
q8 0 12.5 -6t4.5 -15t-5 -15t-13 -6q-20 0 -33.5 -8t-21.5 -20.5t-11 -29t-3 -33.5v-170z" />
    <glyph glyph-name="asciitilde" unicode="~" horiz-adv-x="502" 
d="M442 370q-15 -31 -37 -53.5t-58 -22.5q-26 0 -45.5 10.5t-38.5 24.5q-17 11 -34 21.5t-38 10.5q-29 0 -49.5 -20t-37.5 -52q-6 -11 -20 -11q-9 0 -15 6t-6 15q0 6 3 12q22 43 51 68.5t74 25.5q30 0 53 -12.5t44 -26.5q15 -10 29.5 -19t29.5 -9q20 0 33.5 15.5t24.5 35.5
q6 11 18 11q9 0 15 -6t6 -15q0 -3 -2 -9z" />
    <glyph glyph-name="uni00A0" unicode="&#xa0;" horiz-adv-x="220" 
 />
    <glyph glyph-name="exclamdown" unicode="&#xa1;" horiz-adv-x="214" 
d="M134 0v-148q0 -12 -7.5 -19t-19.5 -7t-19.5 7t-7.5 19v148l10 319q0 16 17 16t17 -16zM67 458q0 17 11.5 28.5t28.5 11.5t29 -11.5t12 -28.5t-12 -29t-29 -12t-28.5 12t-11.5 29z" />
    <glyph glyph-name="cent" unicode="&#xa2;" horiz-adv-x="472" 
d="M237 672q11 0 17.5 -6t6.5 -17v-67q68 -7 110 -48t44 -110q0 -11 -7 -17t-17 -6t-17 6t-7 14q-1 52 -35 85t-95 33q-31 0 -55.5 -10.5t-41 -29t-25 -44t-8.5 -54.5v-144q0 -29 8.5 -54.5t25 -44t41 -29t55.5 -10.5q65 0 97 33.5t33 82.5q0 9 7 15t17 6t17 -6t7 -15
q-2 -69 -43.5 -110.5t-110.5 -48.5v-68q0 -11 -6.5 -17t-17.5 -6q-23 0 -23 23v68q-72 7 -114.5 55.5t-42.5 129.5v136q0 80 42.5 128.5t114.5 56.5v67q0 23 23 23z" />
    <glyph glyph-name="sterling" unicode="&#xa3;" horiz-adv-x="554" 
d="M48 292q0 22 21 22h49v147q0 48 14 86t39.5 64.5t61 41t78.5 14.5q40 0 73 -13t57 -38t37.5 -60t13.5 -79q0 -9 -7 -14.5t-17 -5.5q-11 0 -18 6.5t-7 17.5q0 29 -9 55t-25.5 45t-41 30t-56.5 11q-35 0 -61.5 -12t-44.5 -33t-27.5 -50t-9.5 -62v-151h179q21 0 21 -22
q0 -21 -21 -21h-179v-228h310q21 0 21 -22q0 -21 -21 -21h-409q-21 0 -21 22q0 21 21 21h49v228h-49q-21 0 -21 21z" />
    <glyph glyph-name="currency" unicode="&#xa4;" horiz-adv-x="572" 
d="M69 139q0 9 8 17l73 69q-27 39 -27 99v8q0 58 27 99l-73 69q-8 8 -8 17q0 8 7 16t17 8q9 0 17 -8l67 -72q43 37 109 37t109 -37l67 72q8 8 17 8q10 0 17 -8t7 -16q0 -9 -8 -17l-73 -69q13 -20 20 -45t7 -54v-8q0 -58 -27 -99l73 -69q8 -8 8 -17q0 -8 -7 -16t-17 -8
q-9 0 -17 8l-67 71q-44 -36 -109 -36t-109 36l-67 -71q-8 -8 -17 -8q-10 0 -17 8t-7 16zM168 320q0 -51 30.5 -86t87.5 -35t87.5 35t30.5 86v16q0 51 -30.5 86t-87.5 35t-87.5 -35t-30.5 -86v-16z" />
    <glyph glyph-name="yen" unicode="&#xa5;" horiz-adv-x="522" 
d="M84 294q-21 0 -21 22q0 21 21 21h126l-146 287q-3 6 -3 12q0 11 7 18.5t18 7.5q16 0 23 -14l153 -311h1l155 312q4 8 9.5 10.5t11.5 2.5q11 0 17 -6t7 -13q1 -5 -1 -9.5t-4 -9.5l-147 -287h127q21 0 21 -22q0 -21 -21 -21h-149l-2 -5l-1 -83h152q21 0 21 -22
q0 -21 -21 -21h-152v-143q0 -11 -7.5 -18t-18.5 -7t-18.5 7t-7.5 18v143h-150q-21 0 -21 21q0 22 21 22h150l1 83l-3 5h-148v0z" />
    <glyph glyph-name="brokenbar" unicode="&#xa6;" horiz-adv-x="225" 
d="M87 746q0 11 7.5 17.5t18.5 6.5t18 -6.5t7 -17.5v-322q0 -11 -7 -17.5t-18 -6.5t-18.5 6.5t-7.5 17.5v322zM87 230q0 11 7 17.5t18 6.5t18.5 -6.5t7.5 -17.5v-322q0 -11 -7 -17.5t-18 -6.5t-18.5 6.5t-7.5 17.5v322z" />
    <glyph glyph-name="section" unicode="&#xa7;" horiz-adv-x="512" 
d="M196 339q-24 11 -48 25t-42.5 33.5t-30 45t-11.5 58.5q0 38 14.5 68.5t40 52.5t61 33.5t77.5 11.5q41 0 76 -12.5t60 -35.5t39.5 -57t15.5 -76q0 -11 -7 -17t-18 -6t-18 6t-7 17q0 28 -9 53t-27 43.5t-44.5 29t-60.5 10.5q-69 0 -106 -33t-37 -84q0 -21 7 -38.5t19 -31.5
t27 -24.5t31 -17.5l164 -73q36 -16 60.5 -32.5t24.5 -39.5q0 -6 -6.5 -10.5t-14.5 -0.5zM316 131q24 -11 48 -25t42.5 -33.5t30 -45t11.5 -58.5q0 -38 -14.5 -68.5t-40 -52.5t-61 -33.5t-77.5 -11.5q-41 0 -76 12.5t-60 35.5t-39.5 57t-15.5 76q0 11 7 17t18 6t18 -6t7 -17
q0 -29 9 -53.5t27 -43t44.5 -29t60.5 -10.5q69 0 106 33t37 84q0 21 -7 38.5t-19 31.5t-27 24.5t-31 17.5l-164 73q-36 16 -60.5 32.5t-24.5 39.5q0 6 6.5 10.5t14.5 0.5z" />
    <glyph glyph-name="dieresis" unicode="&#xa8;" horiz-adv-x="213" 
d="M20 604q0 15 11 25.5t26 10.5t25 -10.5t10 -25.5t-10 -26t-25 -11t-26 11t-11 26zM121 604q0 15 11 25.5t26 10.5q14 0 24.5 -10.5t10.5 -25.5t-10.5 -26t-24.5 -11q-15 0 -26 11t-11 26z" />
    <glyph glyph-name="copyright" unicode="&#xa9;" horiz-adv-x="776" 
d="M48 327q0 70 26.5 132t73 108.5t108 73t132.5 26.5q70 0 132 -26.5t108.5 -73t73 -108.5t26.5 -132q0 -71 -27 -132.5t-73 -107t-108.5 -72t-132.5 -26.5q-71 0 -132.5 26.5t-107.5 72t-72.5 107t-26.5 132.5zM96 327q0 -61 22.5 -114.5t62 -93t92.5 -62.5t114 -23
t114 23t92.5 62.5t62.5 93t23 114.5t-22.5 114.5t-62 93.5t-92.5 63.5t-114 23.5t-114 -23.5t-92.5 -63.5t-62.5 -93.5t-23 -114.5zM503 273q11 0 17.5 -6t5.5 -17q-4 -51 -41.5 -84t-101.5 -33t-104 38.5t-40 104.5v104q0 67 40 105t104 38t102 -32.5t41 -82.5
q1 -11 -5.5 -17t-17.5 -6q-21 0 -23 23q-2 27 -26 50.5t-71 23.5q-46 0 -71.5 -28.5t-25.5 -70.5v-110q0 -42 25.5 -70.5t71.5 -28.5q49 0 72 23.5t25 52.5q2 23 23 23z" />
    <glyph glyph-name="ordfeminine" unicode="&#xaa;" horiz-adv-x="325" 
d="M212 440q-21 -32 -64 -32q-41 0 -62.5 24.5t-21.5 66.5v72q0 42 21.5 66.5t62.5 24.5q21 0 37.5 -8.5t26.5 -22.5l2 11q3 20 18 20q20 0 20 -20v-214q0 -20 -20 -20q-15 0 -18 20zM157 446q24 0 38 16t14 39v68q0 23 -14 39t-38 16q-25 0 -37.5 -15t-12.5 -37v-74
q0 -22 12.5 -37t37.5 -15z" />
    <glyph glyph-name="guillemotleft" unicode="&#xab;" horiz-adv-x="303" 
d="M192 233l39 -145q2 -7 -2.5 -13.5t-13.5 -6.5q-13 0 -18 13l-42 128q-2 5 -4 11t-2 13q0 6 2 12.5t4 11.5l43 132q5 13 18 13q8 0 13.5 -6t3.5 -13zM104 233l43 -143q2 -8 -3 -15t-14 -7q-13 0 -18 13l-45 128q-2 5 -4 11t-2 13q0 6 2 12.5t4 11.5l46 132q2 6 6 9.5
t12 3.5t13.5 -6.5t3.5 -14.5z" />
    <glyph glyph-name="logicalnot" unicode="&#xac;" horiz-adv-x="522" 
d="M69 329q0 22 21 22h332q21 0 21 -21v-152q0 -11 -6.5 -17t-17.5 -6t-17.5 6t-6.5 17v128h-305q-10 0 -15.5 6.5t-5.5 16.5z" />
    <glyph glyph-name="uni00AD" unicode="&#xad;" horiz-adv-x="378" 
d="M68 263q0 10 5.5 16.5t15.5 6.5h200q10 0 15.5 -6.5t5.5 -16.5q0 -22 -21 -22h-200q-21 0 -21 22z" />
    <glyph glyph-name="registered" unicode="&#xae;" horiz-adv-x="510" 
d="M54 465q0 42 15.5 79t42.5 64t63.5 43t78.5 16t79 -16t64 -43t43 -64t16 -79t-16 -78.5t-43 -63.5t-64 -42.5t-79 -15.5t-78.5 15.5t-63.5 42.5t-42.5 63.5t-15.5 78.5zM94 465q0 -34 12.5 -64t34 -52t51 -34.5t62.5 -12.5t62.5 12.5t51.5 34.5t34.5 52t12.5 64t-12.5 64
t-34.5 52t-51.5 35t-62.5 13t-62.5 -13t-51 -35t-34 -52t-12.5 -64zM217 543v-71h45q20 0 30.5 9.5t10.5 26.5q0 35 -41 35h-45zM332 377q2 -4 2 -9q0 -18 -19 -18q-12 0 -15 8l-35 81h-48v-70q0 -19 -18 -19t-18 19v188q0 19 19 19h65q34 0 55.5 -17.5t21.5 -49.5
q0 -22 -11 -38.5t-29 -24.5z" />
    <glyph glyph-name="macron" unicode="&#xaf;" horiz-adv-x="272" 
d="M15 597q0 8 5.5 14t13.5 6h204q8 0 13.5 -6t5.5 -14q0 -20 -19 -20h-204q-8 0 -13.5 6t-5.5 14z" />
    <glyph glyph-name="degree" unicode="&#xb0;" horiz-adv-x="398" 
d="M54 522q0 30 11.5 56.5t31 46t45.5 31t56 11.5t57 -11.5t46.5 -31t31 -46t11.5 -56.5t-11.5 -56.5t-31 -46t-46.5 -31t-57 -11.5t-56 11.5t-45.5 31t-31 46t-11.5 56.5zM100 522q0 -21 7.5 -40t21 -33.5t31 -22.5t38.5 -8t39 8t31.5 22.5t21 33.5t7.5 40t-7.5 40
t-21 33.5t-31.5 22.5t-39 8t-38.5 -8t-31 -22.5t-21 -33.5t-7.5 -40z" />
    <glyph glyph-name="plusminus" unicode="&#xb1;" horiz-adv-x="521" 
d="M284 391h145q10 0 15.5 -6.5t5.5 -16.5q0 -22 -21 -22h-145v-118q0 -11 -7 -17t-18 -6q-23 0 -23 23v118h-144q-21 0 -21 22q0 10 5.5 16.5t15.5 6.5h144v118q0 23 23 23q11 0 18 -6t7 -17v-118zM71 137q0 10 5.5 16.5t15.5 6.5h337q10 0 15.5 -6.5t5.5 -16.5
q0 -22 -21 -22h-337q-21 0 -21 22z" />
    <glyph glyph-name="uni00B2" unicode="&#xb2;" horiz-adv-x="274" 
d="M34 506q0 32 13.5 61.5t51.5 54.5l54 36q18 12 29 28t11 38t-14 35.5t-42 13.5t-41.5 -14t-15.5 -31q-2 -22 -22 -22q-10 0 -16.5 6t-5.5 16q3 37 30 61t72 24q46 0 73.5 -23t27.5 -65q0 -31 -14.5 -54t-41.5 -42l-61 -42q-25 -17 -31.5 -34.5t-8.5 -31.5h142
q9 0 14.5 -6t5.5 -15q0 -20 -20 -20h-165q-25 0 -25 25v1z" />
    <glyph glyph-name="uni00B3" unicode="&#xb3;" horiz-adv-x="276" 
d="M103 650q0 18 18 18h12q32 0 44.5 15t12.5 38t-14 37.5t-41 14.5q-26 0 -40 -13t-17 -33q-3 -18 -22 -18q-9 0 -15.5 5.5t-5.5 14.5q2 38 29.5 61t71.5 23q45 0 72 -24t27 -63q0 -55 -41 -75q47 -22 47 -82q0 -44 -28.5 -69t-76.5 -25q-47 0 -73.5 23.5t-29.5 58.5
q-1 10 5 16t16 6q17 0 22 -22q4 -15 17 -29t42 -14t44.5 16t15.5 44q0 23 -14.5 40.5t-47.5 17.5h-12q-18 0 -18 18z" />
    <glyph glyph-name="acute" unicode="&#xb4;" horiz-adv-x="192" 
d="M120 672q7 7 18 7t18 -7.5t7 -18.5q0 -12 -10 -20l-101 -76q-5 -3 -10 -3q-8 0 -13 4.5t-5 12.5t6 14z" />
    <glyph glyph-name="mu" unicode="&#xb5;" horiz-adv-x="496" 
d="M384 61q-23 -34 -58 -52.5t-80 -18.5q-77 0 -122 48l6 -191v-14q0 -25 -25 -25t-25 25v635q0 25 25 25t25 -25v-306q0 -27 7.5 -50t22.5 -40t37 -27t52 -10t54.5 10.5t41 29t25.5 43.5t9 54v296q0 25 25 25t25 -25v-453q0 -20 -17 -20q-13 0 -18 20z" />
    <glyph glyph-name="paragraph" unicode="&#xb6;" horiz-adv-x="490" 
d="M302 264q0 -25 -25 -25q-110 0 -174.5 54t-64.5 155q0 48 18 86.5t50.5 66t77.5 42t99 14.5h96q25 0 25 -25v-723q0 -11 -7.5 -18t-18.5 -7q-25 0 -25 25v705h-51v-350z" />
    <glyph glyph-name="periodcentered" unicode="&#xb7;" horiz-adv-x="225" 
d="M72 272q0 17 11.5 29t28.5 12t29 -12t12 -29t-12 -28.5t-29 -11.5t-28.5 11.5t-11.5 28.5z" />
    <glyph glyph-name="cedilla" unicode="&#xb8;" horiz-adv-x="238" 
d="M140 -48q39 0 60 -18.5t21 -50.5q0 -33 -22 -51.5t-59 -18.5h-75q-19 0 -19 19t19 19h79q15 0 25 7.5t10 24.5q0 16 -10 24t-25 8h-46q-10 0 -14 6.5t-1 15.5l27 89l36 -15l-18 -59h12z" />
    <glyph glyph-name="uni00B9" unicode="&#xb9;" horiz-adv-x="212" 
d="M26 788q0 20 20 20h68q20 0 20 -20v-269h45q8 0 13.5 -6t5.5 -14q0 -19 -19 -19h-134q-19 0 -19 19q0 8 5.5 14t13.5 6h44v249h-43q-20 0 -20 20z" />
    <glyph glyph-name="ordmasculine" unicode="&#xba;" horiz-adv-x="314" 
d="M105 500q0 -23 13.5 -39t38.5 -16t38.5 16t13.5 39v70q0 23 -13.5 39t-38.5 16t-38.5 -16t-13.5 -39v-70zM252 504q0 -45 -26.5 -70.5t-68.5 -25.5q-43 0 -69 25.5t-26 70.5v62q0 45 26 70.5t69 25.5q42 0 68.5 -25.5t26.5 -70.5v-62z" />
    <glyph glyph-name="guillemotright" unicode="&#xbb;" horiz-adv-x="303" 
d="M70 383q-2 7 3.5 13t13.5 6q13 0 18 -13l43 -132q2 -5 4 -11.5t2 -12.5q0 -7 -2 -13t-4 -11l-42 -128q-5 -13 -18 -13q-9 0 -13.5 6.5t-2.5 13.5l39 145zM155 381q-2 8 3.5 14.5t13.5 6.5t12 -3.5t6 -9.5l46 -132q2 -5 4 -11.5t2 -12.5q0 -7 -2 -13t-4 -11l-45 -128
q-5 -13 -18 -13q-9 0 -14 7t-3 15l43 143z" />
    <glyph glyph-name="onequarter" unicode="&#xbc;" horiz-adv-x="598" 
d="M334 328l-194 -323q-7 -10 -19 -10q-9 0 -15.5 6.5t-6.5 15.5q0 6 4 12l183 299l194 324q7 10 19 10q9 0 15.5 -6.5t6.5 -15.5q0 -6 -4 -12zM52 637q0 20 20 20h68q20 0 20 -20v-269h45q8 0 13.5 -6t5.5 -14q0 -19 -19 -19h-134q-19 0 -19 19q0 8 5.5 14t13.5 6h44v249
h-43q-20 0 -20 20zM481 333q14 0 22.5 -8t8.5 -20v-191h22q19 0 19 -19q0 -8 -5.5 -14t-13.5 -6h-22v-57q0 -23 -23 -23q-22 0 -22 23v57h-120q-17 0 -25 9.5t-8 20.5t3.5 17.5t11.5 17.5l113 168q8 11 16 18t23 7zM467 114v162l-111 -162h111z" />
    <glyph glyph-name="onehalf" unicode="&#xbd;" horiz-adv-x="613" 
d="M334 328l-194 -323q-7 -10 -19 -10q-9 0 -15.5 6.5t-6.5 15.5q0 6 4 12l183 299l194 324q7 10 19 10q9 0 15.5 -6.5t6.5 -15.5q0 -6 -4 -12zM52 637q0 20 20 20h68q20 0 20 -20v-269h45q8 0 13.5 -6t5.5 -14q0 -19 -19 -19h-134q-19 0 -19 19q0 8 5.5 14t13.5 6h44v249
h-43q-20 0 -20 20zM351 26q0 32 13.5 61.5t51.5 54.5l54 36q18 12 29 28t11 38t-14 35.5t-42 13.5t-41.5 -14t-15.5 -31q-2 -22 -22 -22q-10 0 -16.5 6t-5.5 16q3 37 30 61t72 24q46 0 73.5 -23t27.5 -65q0 -31 -14.5 -54t-41.5 -42l-61 -42q-25 -17 -31.5 -34.5t-8.5 -31.5
h142q9 0 14.5 -6t5.5 -15q0 -20 -20 -20h-165q-25 0 -25 25v1z" />
    <glyph glyph-name="threequarters" unicode="&#xbe;" horiz-adv-x="603" 
d="M339 328l-194 -323q-7 -10 -19 -10q-9 0 -15.5 6.5t-6.5 15.5q0 6 4 12l183 299l194 324q7 10 19 10q9 0 15.5 -6.5t6.5 -15.5q0 -6 -4 -12zM486 333q14 0 22.5 -8t8.5 -20v-191h22q19 0 19 -19q0 -8 -5.5 -14t-13.5 -6h-22v-57q0 -23 -23 -23q-22 0 -22 23v57h-120
q-17 0 -25 9.5t-8 20.5t3.5 17.5t11.5 17.5l113 168q8 11 16 18t23 7zM472 114v162l-111 -162h111zM124 504q0 18 18 18h12q32 0 44.5 15t12.5 38t-14 37.5t-41 14.5q-26 0 -40 -13t-17 -33q-3 -18 -22 -18q-9 0 -15.5 5.5t-5.5 14.5q2 38 29.5 61t71.5 23q45 0 72 -24
t27 -63q0 -55 -41 -75q47 -22 47 -82q0 -44 -28.5 -69t-76.5 -25q-47 0 -73.5 23.5t-29.5 58.5q-1 10 5 16t16 6q17 0 22 -22q4 -15 17 -29t42 -14t44.5 16t15.5 44q0 23 -14.5 40.5t-47.5 17.5h-12q-18 0 -18 18z" />
    <glyph glyph-name="questiondown" unicode="&#xbf;" horiz-adv-x="462" 
d="M247 330q17 0 20 -19q6 -35 -0.5 -62t-21 -50.5t-34 -43.5t-38.5 -40l-28 -28t-26 -30.5t-19.5 -35.5t-7.5 -43q0 -50 35 -80t100 -30q72 0 109 36t37 91q0 25 25 25t25 -25q0 -40 -14.5 -72t-40.5 -54.5t-62.5 -35t-79.5 -12.5q-41 0 -75.5 11t-59.5 31.5t-38.5 49.5
t-13.5 66q0 28 9 51t24 44t34 40.5t39 39.5q16 16 30.5 30t25.5 31t18 40t7 56q0 8 6.5 13.5t14.5 5.5zM287 458q0 -17 -11.5 -29t-28.5 -12t-29 12t-12 29t12 28.5t29 11.5t28.5 -11.5t11.5 -28.5z" />
    <glyph glyph-name="Agrave" unicode="&#xc0;" horiz-adv-x="544" 
d="M151 214h240l-121 366zM506 31q2 -6 2 -11q0 -11 -7.5 -18t-19.5 -7q-18 0 -25 20l-50 152h-271l-50 -156q-5 -16 -24 -16q-10 0 -17 7t-7 17q0 5 1 8l202 611q8 24 32 24q22 0 30 -24zM285 729q6 -6 6 -14t-5 -12.5t-13 -4.5q-6 0 -10 3l-101 76q-10 8 -10 20
q0 11 7 18.5t18 7.5t18 -7z" />
    <glyph glyph-name="Aacute" unicode="&#xc1;" horiz-adv-x="544" 
d="M151 214h240l-121 366zM506 31q2 -6 2 -11q0 -11 -7.5 -18t-19.5 -7q-18 0 -25 20l-50 152h-271l-50 -156q-5 -16 -24 -16q-10 0 -17 7t-7 17q0 5 1 8l202 611q8 24 32 24q22 0 30 -24zM348 816q7 7 18 7t18 -7.5t7 -18.5q0 -12 -10 -20l-101 -76q-5 -3 -10 -3
q-8 0 -13 4.5t-5 12.5t6 14z" />
    <glyph glyph-name="Acircumflex" unicode="&#xc2;" horiz-adv-x="544" 
d="M151 214h240l-121 366zM506 31q2 -6 2 -11q0 -11 -7.5 -18t-19.5 -7q-18 0 -25 20l-50 152h-271l-50 -156q-5 -16 -24 -16q-10 0 -17 7t-7 17q0 5 1 8l202 611q8 24 32 24q22 0 30 -24zM383 722q4 -5 4 -10q0 -6 -4.5 -10.5t-10.5 -4.5t-11 5l-90 82l-90 -83
q-4 -4 -10 -4q-14 0 -14 14q0 4 3 9l86 103q10 14 26 14t27 -14z" />
    <glyph glyph-name="Atilde" unicode="&#xc3;" horiz-adv-x="544" 
d="M151 214h240l-121 366zM506 31q2 -6 2 -11q0 -11 -7.5 -18t-19.5 -7q-18 0 -25 20l-50 152h-271l-50 -156q-5 -16 -24 -16q-10 0 -17 7t-7 17q0 5 1 8l202 611q8 24 32 24q22 0 30 -24zM387 783q0 14 15 14q16 0 16 -27q0 -14 -3 -27t-10.5 -23.5t-20 -17t-31.5 -6.5
q-17 0 -33 7t-33 17l-39 22q-10 5 -21.5 10.5t-22.5 5.5q-15 0 -24 -7t-13.5 -16.5t-5.5 -19t-2 -13.5q-2 -12 -15 -12q-17 0 -17 25q0 32 20 56t58 24q15 0 29.5 -5t30.5 -14l41 -24q13 -8 25 -13.5t23 -5.5q20 0 26 16t7 34z" />
    <glyph glyph-name="Adieresis" unicode="&#xc4;" horiz-adv-x="544" 
d="M151 214h240l-121 366zM506 31q2 -6 2 -11q0 -11 -7.5 -18t-19.5 -7q-18 0 -25 20l-50 152h-271l-50 -156q-5 -16 -24 -16q-10 0 -17 7t-7 17q0 5 1 8l202 611q8 24 32 24q22 0 30 -24zM186 760q0 15 11 25.5t26 10.5t25 -10.5t10 -25.5t-10 -26t-25 -11t-26 11t-11 26z
M287 760q0 15 11 25.5t26 10.5q14 0 24.5 -10.5t10.5 -25.5t-10.5 -26t-24.5 -11q-15 0 -26 11t-11 26z" />
    <glyph glyph-name="Aring" unicode="&#xc5;" horiz-adv-x="544" 
d="M506 31q2 -6 2 -11q0 -11 -7.5 -18t-19.5 -7q-18 0 -25 20l-50 152h-271l-50 -156q-5 -16 -24 -16q-10 0 -17 7t-7 17q0 5 1 8l200 604q-26 11 -42.5 34t-16.5 52q0 38 26.5 65t66.5 27t66.5 -27t26.5 -65q0 -29 -17 -53t-44 -34zM151 214h240l-121 366zM272 658
q24 0 39.5 17t15.5 42t-15.5 42t-39.5 17t-39.5 -17t-15.5 -42t15.5 -42t39.5 -17z" />
    <glyph glyph-name="AE" unicode="&#xc6;" horiz-adv-x="790" 
d="M369 207v401l-199 -401h199zM369 160h-223l-75 -152q-7 -13 -23 -13q-10 0 -16.5 6.5t-6.5 16.5q0 7 3 13l303 604q5 10 15 16t21 6h348q10 0 15.5 -6.5t5.5 -16.5t-5.5 -17t-15.5 -7h-294v-250h272q10 0 15.5 -7t5.5 -17t-5.5 -16.5t-15.5 -6.5h-272v-266h300
q11 0 17 -6.5t6 -17.5q0 -23 -23 -23h-327q-25 0 -25 25v135z" />
    <glyph glyph-name="Ccedilla" unicode="&#xc7;" horiz-adv-x="545" 
d="M284 -48q39 0 60 -18.5t21 -50.5q0 -33 -22 -51.5t-59 -18.5h-75q-19 0 -19 19t19 19h79q15 0 25 7.5t10 24.5q0 16 -10 24t-25 8h-46q-10 0 -14 6.5t-1 15.5l17 56q-78 11 -124.5 64t-46.5 139v265q0 48 15 86t42.5 64.5t66 41t84.5 14.5t83.5 -13t64.5 -38t42.5 -60
t15.5 -78q0 -11 -7 -17t-18 -6q-25 0 -25 25q0 30 -10.5 55.5t-30 44t-49 29.5t-66.5 11q-38 0 -67 -12t-48.5 -32.5t-30 -49t-10.5 -61.5v-273q0 -33 10.5 -61.5t30 -49t48.5 -32.5t67 -12q75 0 115.5 40t40.5 105q0 25 25 25t25 -25q0 -44 -15 -79.5t-42 -60.5
t-64.5 -38.5t-82.5 -13.5l-11 -38h12z" />
    <glyph glyph-name="Egrave" unicode="&#xc8;" horiz-adv-x="509" 
d="M140 313v-266h300q11 0 17 -6.5t6 -17.5q0 -23 -23 -23h-327q-25 0 -25 25v607q0 25 25 25h319q11 0 17 -6.5t6 -17.5q0 -23 -23 -23h-292v-250h270q11 0 17 -6.5t6 -17.5q0 -23 -23 -23h-270zM286 729q6 -6 6 -14t-5 -12.5t-13 -4.5q-6 0 -10 3l-101 76q-10 8 -10 20
q0 11 7 18.5t18 7.5t18 -7z" />
    <glyph glyph-name="Eacute" unicode="&#xc9;" horiz-adv-x="509" 
d="M140 313v-266h300q11 0 17 -6.5t6 -17.5q0 -23 -23 -23h-327q-25 0 -25 25v607q0 25 25 25h319q11 0 17 -6.5t6 -17.5q0 -23 -23 -23h-292v-250h270q11 0 17 -6.5t6 -17.5q0 -23 -23 -23h-270zM349 816q7 7 18 7t18 -7.5t7 -18.5q0 -12 -10 -20l-101 -76q-5 -3 -10 -3
q-8 0 -13 4.5t-5 12.5t6 14z" />
    <glyph glyph-name="Ecircumflex" unicode="&#xca;" horiz-adv-x="509" 
d="M140 313v-266h300q11 0 17 -6.5t6 -17.5q0 -23 -23 -23h-327q-25 0 -25 25v607q0 25 25 25h319q11 0 17 -6.5t6 -17.5q0 -23 -23 -23h-292v-250h270q11 0 17 -6.5t6 -17.5q0 -23 -23 -23h-270zM384 722q4 -5 4 -10q0 -6 -4.5 -10.5t-10.5 -4.5t-11 5l-90 82l-90 -83
q-4 -4 -10 -4q-14 0 -14 14q0 4 3 9l86 103q10 14 26 14t27 -14z" />
    <glyph glyph-name="Edieresis" unicode="&#xcb;" horiz-adv-x="509" 
d="M140 313v-266h300q11 0 17 -6.5t6 -17.5q0 -23 -23 -23h-327q-25 0 -25 25v607q0 25 25 25h319q11 0 17 -6.5t6 -17.5q0 -23 -23 -23h-292v-250h270q11 0 17 -6.5t6 -17.5q0 -23 -23 -23h-270zM187 760q0 15 11 25.5t26 10.5t25 -10.5t10 -25.5t-10 -26t-25 -11t-26 11
t-11 26zM288 760q0 15 11 25.5t26 10.5q14 0 24.5 -10.5t10.5 -25.5t-10.5 -26t-24.5 -11q-15 0 -26 11t-11 26z" />
    <glyph glyph-name="Igrave" unicode="&#xcc;" horiz-adv-x="228" 
d="M140 20q0 -11 -7.5 -18t-18.5 -7t-18.5 7t-7.5 18v617q0 11 7.5 18t18.5 7t18.5 -7t7.5 -18v-617zM129 729q6 -6 6 -14t-5 -12.5t-13 -4.5q-6 0 -10 3l-101 76q-10 8 -10 20q0 11 7 18.5t18 7.5t18 -7z" />
    <glyph glyph-name="Iacute" unicode="&#xcd;" horiz-adv-x="228" 
d="M140 20q0 -11 -7.5 -18t-18.5 -7t-18.5 7t-7.5 18v617q0 11 7.5 18t18.5 7t18.5 -7t7.5 -18v-617zM190 816q7 7 18 7t18 -7.5t7 -18.5q0 -12 -10 -20l-101 -76q-5 -3 -10 -3q-8 0 -13 4.5t-5 12.5t6 14z" />
    <glyph glyph-name="Icircumflex" unicode="&#xce;" horiz-adv-x="228" 
d="M140 20q0 -11 -7.5 -18t-18.5 -7t-18.5 7t-7.5 18v617q0 11 7.5 18t18.5 7t18.5 -7t7.5 -18v-617zM225 722q4 -5 4 -10q0 -6 -4.5 -10.5t-10.5 -4.5t-11 5l-90 82l-90 -83q-4 -4 -10 -4q-14 0 -14 14q0 4 3 9l86 103q10 14 26 14t27 -14z" />
    <glyph glyph-name="Idieresis" unicode="&#xcf;" horiz-adv-x="228" 
d="M140 20q0 -11 -7.5 -18t-18.5 -7t-18.5 7t-7.5 18v617q0 11 7.5 18t18.5 7t18.5 -7t7.5 -18v-617zM27 760q0 15 11 25.5t26 10.5t25 -10.5t10 -25.5t-10 -26t-25 -11t-26 11t-11 26zM128 760q0 15 11 25.5t26 10.5q14 0 24.5 -10.5t10.5 -25.5t-10.5 -26t-24.5 -11
q-15 0 -26 11t-11 26z" />
    <glyph glyph-name="Eth" unicode="&#xd0;" horiz-adv-x="571" 
d="M289 657q47 0 86.5 -14.5t67.5 -42t43.5 -66.5t15.5 -88v-235q0 -49 -15.5 -88t-43.5 -66.5t-67.5 -42t-86.5 -14.5h-174q-25 0 -25 25v289h-60q-21 0 -21 21q0 10 5.5 16.5t15.5 6.5h60v274q0 25 25 25h174zM142 610v-252h130q10 0 15.5 -6.5t5.5 -16.5q0 -21 -21 -21
h-130v-267h147q39 0 69 12t50.5 33.5t31 51t10.5 63.5v243q0 34 -10.5 63.5t-31 51t-50.5 33.5t-69 12h-147z" />
    <glyph glyph-name="Ntilde" unicode="&#xd1;" horiz-adv-x="580" 
d="M492 20q0 -25 -25 -25q-13 0 -17.5 6t-9.5 14l-303 540v-536q0 -11 -7 -17.5t-18 -6.5t-17.5 6.5t-6.5 17.5v618q0 11 8 18t19 7q13 0 18 -4.5t12 -17.5l298 -530v528q0 11 6.5 17.5t17.5 6.5t18 -6.5t7 -17.5v-618zM405 783q0 14 15 14q16 0 16 -27q0 -14 -3 -27
t-10.5 -23.5t-20 -17t-31.5 -6.5q-17 0 -33 7t-33 17l-39 22q-10 5 -21.5 10.5t-22.5 5.5q-15 0 -24 -7t-13.5 -16.5t-5.5 -19t-2 -13.5q-2 -12 -15 -12q-17 0 -17 25q0 32 20 56t58 24q15 0 29.5 -5t30.5 -14l41 -24q13 -8 25 -13.5t23 -5.5q20 0 26 16t7 34z" />
    <glyph glyph-name="Ograve" unicode="&#xd2;" horiz-adv-x="556" 
d="M122 192q0 -33 10.5 -61.5t30 -49t48.5 -32.5t67 -12q37 0 66.5 12t49 32.5t30 49t10.5 61.5v273q0 33 -10.5 61.5t-30 49t-49 32.5t-66.5 12q-38 0 -67 -12t-48.5 -32.5t-30 -49t-10.5 -61.5v-273zM486 196q0 -48 -15 -86t-42.5 -64.5t-66 -41t-84.5 -14.5t-84.5 14.5
t-66 41t-42.5 64.5t-15 86v265q0 48 15 86t42.5 64.5t66 41t84.5 14.5t84.5 -14.5t66 -41t42.5 -64.5t15 -86v-265zM291 729q6 -6 6 -14t-5 -12.5t-13 -4.5q-6 0 -10 3l-101 76q-10 8 -10 20q0 11 7 18.5t18 7.5t18 -7z" />
    <glyph glyph-name="Oacute" unicode="&#xd3;" horiz-adv-x="556" 
d="M122 192q0 -33 10.5 -61.5t30 -49t48.5 -32.5t67 -12q37 0 66.5 12t49 32.5t30 49t10.5 61.5v273q0 33 -10.5 61.5t-30 49t-49 32.5t-66.5 12q-38 0 -67 -12t-48.5 -32.5t-30 -49t-10.5 -61.5v-273zM486 196q0 -48 -15 -86t-42.5 -64.5t-66 -41t-84.5 -14.5t-84.5 14.5
t-66 41t-42.5 64.5t-15 86v265q0 48 15 86t42.5 64.5t66 41t84.5 14.5t84.5 -14.5t66 -41t42.5 -64.5t15 -86v-265zM354 816q7 7 18 7t18 -7.5t7 -18.5q0 -12 -10 -20l-101 -76q-5 -3 -10 -3q-8 0 -13 4.5t-5 12.5t6 14z" />
    <glyph glyph-name="Ocircumflex" unicode="&#xd4;" horiz-adv-x="556" 
d="M122 192q0 -33 10.5 -61.5t30 -49t48.5 -32.5t67 -12q37 0 66.5 12t49 32.5t30 49t10.5 61.5v273q0 33 -10.5 61.5t-30 49t-49 32.5t-66.5 12q-38 0 -67 -12t-48.5 -32.5t-30 -49t-10.5 -61.5v-273zM486 196q0 -48 -15 -86t-42.5 -64.5t-66 -41t-84.5 -14.5t-84.5 14.5
t-66 41t-42.5 64.5t-15 86v265q0 48 15 86t42.5 64.5t66 41t84.5 14.5t84.5 -14.5t66 -41t42.5 -64.5t15 -86v-265zM389 722q4 -5 4 -10q0 -6 -4.5 -10.5t-10.5 -4.5t-11 5l-90 82l-90 -83q-4 -4 -10 -4q-14 0 -14 14q0 4 3 9l86 103q10 14 26 14t27 -14z" />
    <glyph glyph-name="Otilde" unicode="&#xd5;" horiz-adv-x="556" 
d="M122 192q0 -33 10.5 -61.5t30 -49t48.5 -32.5t67 -12q37 0 66.5 12t49 32.5t30 49t10.5 61.5v273q0 33 -10.5 61.5t-30 49t-49 32.5t-66.5 12q-38 0 -67 -12t-48.5 -32.5t-30 -49t-10.5 -61.5v-273zM486 196q0 -48 -15 -86t-42.5 -64.5t-66 -41t-84.5 -14.5t-84.5 14.5
t-66 41t-42.5 64.5t-15 86v265q0 48 15 86t42.5 64.5t66 41t84.5 14.5t84.5 -14.5t66 -41t42.5 -64.5t15 -86v-265zM393 783q0 14 15 14q16 0 16 -27q0 -14 -3 -27t-10.5 -23.5t-20 -17t-31.5 -6.5q-17 0 -33 7t-33 17l-39 22q-10 5 -21.5 10.5t-22.5 5.5q-15 0 -24 -7
t-13.5 -16.5t-5.5 -19t-2 -13.5q-2 -12 -15 -12q-17 0 -17 25q0 32 20 56t58 24q15 0 29.5 -5t30.5 -14l41 -24q13 -8 25 -13.5t23 -5.5q20 0 26 16t7 34z" />
    <glyph glyph-name="Odieresis" unicode="&#xd6;" horiz-adv-x="556" 
d="M122 192q0 -33 10.5 -61.5t30 -49t48.5 -32.5t67 -12q37 0 66.5 12t49 32.5t30 49t10.5 61.5v273q0 33 -10.5 61.5t-30 49t-49 32.5t-66.5 12q-38 0 -67 -12t-48.5 -32.5t-30 -49t-10.5 -61.5v-273zM486 196q0 -48 -15 -86t-42.5 -64.5t-66 -41t-84.5 -14.5t-84.5 14.5
t-66 41t-42.5 64.5t-15 86v265q0 48 15 86t42.5 64.5t66 41t84.5 14.5t84.5 -14.5t66 -41t42.5 -64.5t15 -86v-265zM192 760q0 15 11 25.5t26 10.5t25 -10.5t10 -25.5t-10 -26t-25 -11t-26 11t-11 26zM293 760q0 15 11 25.5t26 10.5q14 0 24.5 -10.5t10.5 -25.5t-10.5 -26
t-24.5 -11q-15 0 -26 11t-11 26z" />
    <glyph glyph-name="multiply" unicode="&#xd7;" horiz-adv-x="407" 
d="M172 328l-93 93q-8 8 -7.5 16.5t8.5 16.5q16 16 32 0l93 -93l92 92q16 16 32 0t0 -32l-92 -92l92 -92q16 -16 -1 -33q-16 -16 -31 -1l-93 93l-93 -93q-16 -16 -31 0q-17 16 -1 32z" />
    <glyph glyph-name="Oslash" unicode="&#xd8;" horiz-adv-x="556" 
d="M434 605q25 -27 38.5 -63t13.5 -81v-265q0 -48 -15 -86t-42.5 -64.5t-66 -41t-84.5 -14.5q-71 0 -121 32l-29 -62q-7 -14 -21 -14q-9 0 -15 7t-6 16q0 6 2 10l34 72q-25 26 -38.5 62.5t-13.5 82.5v265q0 48 15 86t42.5 64.5t66 41t84.5 14.5q71 0 121 -32l30 62
q7 14 21 14q9 0 15 -7t6 -16q0 -6 -2 -10zM121 191q0 -53 26 -93l233 491q-20 15 -45 23.5t-57 8.5q-38 0 -67 -12t-49 -32.5t-30.5 -49t-10.5 -61.5v-275zM435 466q0 52 -26 92l-232 -491q39 -31 101 -31q38 0 67 12t49 32.5t30.5 49t10.5 61.5v275z" />
    <glyph glyph-name="Ugrave" unicode="&#xd9;" horiz-adv-x="574" 
d="M466 662q11 0 18.5 -7t7.5 -18v-441q0 -48 -15 -86t-42 -64.5t-65 -41t-83 -14.5t-83 14.5t-65 41t-42 64.5t-15 86v441q0 11 8 18t19 7q25 0 25 -25v-445q0 -33 10 -61.5t29.5 -49t48 -32.5t65.5 -12t65.5 12t48 32.5t29.5 49t10 61.5v445q0 11 7.5 18t18.5 7zM301 729
q6 -6 6 -14t-5 -12.5t-13 -4.5q-6 0 -10 3l-101 76q-10 8 -10 20q0 11 7 18.5t18 7.5t18 -7z" />
    <glyph glyph-name="Uacute" unicode="&#xda;" horiz-adv-x="574" 
d="M466 662q11 0 18.5 -7t7.5 -18v-441q0 -48 -15 -86t-42 -64.5t-65 -41t-83 -14.5t-83 14.5t-65 41t-42 64.5t-15 86v441q0 11 8 18t19 7q25 0 25 -25v-445q0 -33 10 -61.5t29.5 -49t48 -32.5t65.5 -12t65.5 12t48 32.5t29.5 49t10 61.5v445q0 11 7.5 18t18.5 7zM363 816
q7 7 18 7t18 -7.5t7 -18.5q0 -12 -10 -20l-101 -76q-5 -3 -10 -3q-8 0 -13 4.5t-5 12.5t6 14z" />
    <glyph glyph-name="Ucircumflex" unicode="&#xdb;" horiz-adv-x="574" 
d="M466 662q11 0 18.5 -7t7.5 -18v-441q0 -48 -15 -86t-42 -64.5t-65 -41t-83 -14.5t-83 14.5t-65 41t-42 64.5t-15 86v441q0 11 8 18t19 7q25 0 25 -25v-445q0 -33 10 -61.5t29.5 -49t48 -32.5t65.5 -12t65.5 12t48 32.5t29.5 49t10 61.5v445q0 11 7.5 18t18.5 7zM397 722
q4 -5 4 -10q0 -6 -4.5 -10.5t-10.5 -4.5t-11 5l-90 82l-90 -83q-4 -4 -10 -4q-14 0 -14 14q0 4 3 9l86 103q10 14 26 14t27 -14z" />
    <glyph glyph-name="Udieresis" unicode="&#xdc;" horiz-adv-x="574" 
d="M466 662q11 0 18.5 -7t7.5 -18v-441q0 -48 -15 -86t-42 -64.5t-65 -41t-83 -14.5t-83 14.5t-65 41t-42 64.5t-15 86v441q0 11 8 18t19 7q25 0 25 -25v-445q0 -33 10 -61.5t29.5 -49t48 -32.5t65.5 -12t65.5 12t48 32.5t29.5 49t10 61.5v445q0 11 7.5 18t18.5 7zM200 760
q0 15 11 25.5t26 10.5t25 -10.5t10 -25.5t-10 -26t-25 -11t-26 11t-11 26zM301 760q0 15 11 25.5t26 10.5q14 0 24.5 -10.5t10.5 -25.5t-10.5 -26t-24.5 -11q-15 0 -26 11t-11 26z" />
    <glyph glyph-name="Yacute" unicode="&#xdd;" horiz-adv-x="478" 
d="M265 261v-241q0 -11 -7.5 -18t-18.5 -7t-18.5 7t-7.5 18v241l-176 363q-3 6 -3 12q0 11 7 18.5t18 7.5q16 0 23 -14l159 -335l160 336q4 8 9.5 10.5t11.5 2.5q11 0 17 -6t7 -13q1 -5 -1 -9.5t-4 -9.5zM316 816q7 7 18 7t18 -7.5t7 -18.5q0 -12 -10 -20l-101 -76
q-5 -3 -10 -3q-8 0 -13 4.5t-5 12.5t6 14z" />
    <glyph glyph-name="Thorn" unicode="&#xde;" horiz-adv-x="540" 
d="M140 536h135q48 0 88.5 -14.5t69.5 -41.5t45.5 -65.5t16.5 -85.5t-16.5 -85.5t-45.5 -66t-69.5 -42.5t-88.5 -15h-135v-100q0 -11 -7.5 -18t-18.5 -7t-18.5 7t-7.5 18v617q0 11 7.5 18t18.5 7t18.5 -7t7.5 -18v-101zM140 490v-324h133q78 0 123 44.5t45 118.5t-45 117.5
t-123 43.5h-133z" />
    <glyph glyph-name="germandbls" unicode="&#xdf;" horiz-adv-x="500" 
d="M208 22q0 22 21 22h16q69 0 109.5 38.5t40.5 102.5q0 32 -9.5 60t-29.5 48.5t-51.5 31.5t-75.5 8q-11 -1 -16 5t-5 16q0 20 21 20q37 -1 65 9t47 27.5t28.5 42t9.5 53.5q0 58 -33.5 92.5t-93.5 34.5q-36 0 -60 -10.5t-38.5 -29t-20.5 -44t-6 -55.5v-475q0 -11 -6.5 -17.5
t-17.5 -6.5t-18.5 6.5t-7.5 17.5v471q0 89 46 138t131 49q38 0 70.5 -12t56 -34t37 -53t13.5 -69q0 -56 -27 -94.5t-74 -57.5v-2q54 -17 85.5 -59t31.5 -111q0 -42 -15 -76t-41.5 -58.5t-63.5 -37.5t-80 -13h-18q-21 0 -21 22z" />
    <glyph glyph-name="agrave" unicode="&#xe0;" 
d="M236 35q62 0 96.5 39.5t34.5 97.5v144q0 58 -34.5 97.5t-96.5 39.5q-31 0 -54 -10t-38.5 -27t-23.5 -40t-8 -50v-164q0 -27 8 -50t23.5 -40t38.5 -27t54 -10zM372 61q-23 -34 -58.5 -52.5t-80.5 -18.5q-79 0 -125 47t-46 129v156q0 82 46 129t125 47q45 0 80.5 -18
t58.5 -52l7 45q2 12 7 16t12 4q19 0 19 -20v-458q0 -20 -19 -20q-7 0 -12 4t-7 16zM254 585q6 -6 6 -14t-5 -12.5t-13 -4.5q-6 0 -10 3l-101 76q-10 8 -10 20q0 11 7 18.5t18 7.5t18 -7z" />
    <glyph glyph-name="aacute" unicode="&#xe1;" 
d="M236 35q62 0 96.5 39.5t34.5 97.5v144q0 58 -34.5 97.5t-96.5 39.5q-31 0 -54 -10t-38.5 -27t-23.5 -40t-8 -50v-164q0 -27 8 -50t23.5 -40t38.5 -27t54 -10zM372 61q-23 -34 -58.5 -52.5t-80.5 -18.5q-79 0 -125 47t-46 129v156q0 82 46 129t125 47q45 0 80.5 -18
t58.5 -52l7 45q2 12 7 16t12 4q19 0 19 -20v-458q0 -20 -19 -20q-7 0 -12 4t-7 16zM314 672q7 7 18 7t18 -7.5t7 -18.5q0 -12 -10 -20l-101 -76q-5 -3 -10 -3q-8 0 -13 4.5t-5 12.5t6 14z" />
    <glyph glyph-name="acircumflex" unicode="&#xe2;" 
d="M236 35q62 0 96.5 39.5t34.5 97.5v144q0 58 -34.5 97.5t-96.5 39.5q-31 0 -54 -10t-38.5 -27t-23.5 -40t-8 -50v-164q0 -27 8 -50t23.5 -40t38.5 -27t54 -10zM372 61q-23 -34 -58.5 -52.5t-80.5 -18.5q-79 0 -125 47t-46 129v156q0 82 46 129t125 47q45 0 80.5 -18
t58.5 -52l7 45q2 12 7 16t12 4q19 0 19 -20v-458q0 -20 -19 -20q-7 0 -12 4t-7 16zM349 578q4 -5 4 -10q0 -6 -4.5 -10.5t-10.5 -4.5t-11 5l-90 82l-90 -83q-4 -4 -10 -4q-14 0 -14 14q0 4 3 9l86 103q10 14 26 14t27 -14z" />
    <glyph glyph-name="atilde" unicode="&#xe3;" 
d="M236 35q62 0 96.5 39.5t34.5 97.5v144q0 58 -34.5 97.5t-96.5 39.5q-31 0 -54 -10t-38.5 -27t-23.5 -40t-8 -50v-164q0 -27 8 -50t23.5 -40t38.5 -27t54 -10zM372 61q-23 -34 -58.5 -52.5t-80.5 -18.5q-79 0 -125 47t-46 129v156q0 82 46 129t125 47q45 0 80.5 -18
t58.5 -52l7 45q2 12 7 16t12 4q19 0 19 -20v-458q0 -20 -19 -20q-7 0 -12 4t-7 16zM354 648q0 14 15 14q16 0 16 -27q0 -14 -3 -27t-10.5 -23.5t-20 -17t-31.5 -6.5q-17 0 -33 7t-33 17l-39 22q-10 5 -21.5 10.5t-22.5 5.5q-15 0 -24 -7t-13.5 -16.5t-5.5 -19t-2 -13.5
q-2 -12 -15 -12q-17 0 -17 25q0 32 20 56t58 24q15 0 29.5 -5t30.5 -14l41 -24q13 -8 25 -13.5t23 -5.5q20 0 26 16t7 34z" />
    <glyph glyph-name="adieresis" unicode="&#xe4;" 
d="M236 35q62 0 96.5 39.5t34.5 97.5v144q0 58 -34.5 97.5t-96.5 39.5q-31 0 -54 -10t-38.5 -27t-23.5 -40t-8 -50v-164q0 -27 8 -50t23.5 -40t38.5 -27t54 -10zM372 61q-23 -34 -58.5 -52.5t-80.5 -18.5q-79 0 -125 47t-46 129v156q0 82 46 129t125 47q45 0 80.5 -18
t58.5 -52l7 45q2 12 7 16t12 4q19 0 19 -20v-458q0 -20 -19 -20q-7 0 -12 4t-7 16zM153 604q0 15 11 25.5t26 10.5t25 -10.5t10 -25.5t-10 -26t-25 -11t-26 11t-11 26zM254 604q0 15 11 25.5t26 10.5q14 0 24.5 -10.5t10.5 -25.5t-10.5 -26t-24.5 -11q-15 0 -26 11t-11 26z
" />
    <glyph glyph-name="aring" unicode="&#xe5;" 
d="M236 35q62 0 96.5 39.5t34.5 97.5v144q0 58 -34.5 97.5t-96.5 39.5q-31 0 -54 -10t-38.5 -27t-23.5 -40t-8 -50v-164q0 -27 8 -50t23.5 -40t38.5 -27t54 -10zM372 61q-23 -34 -58.5 -52.5t-80.5 -18.5q-79 0 -125 47t-46 129v156q0 82 46 129t125 47q45 0 80.5 -18
t58.5 -52l7 45q2 12 7 16t12 4q19 0 19 -20v-458q0 -20 -19 -20q-7 0 -12 4t-7 16zM239 562q24 0 39.5 17t15.5 42t-15.5 42t-39.5 17t-39.5 -17t-15.5 -42t15.5 -42t39.5 -17zM239 529q-40 0 -66.5 27t-26.5 65t26.5 65t66.5 27t66.5 -27t26.5 -65t-26.5 -65t-66.5 -27z
" />
    <glyph glyph-name="ae" unicode="&#xe6;" horiz-adv-x="771" 
d="M218 35q32 0 57.5 10.5t43.5 29t28 43.5t10 54v47h-138q-18 0 -38 -3t-37 -12.5t-28.5 -28t-11.5 -49.5q0 -38 27 -64.5t87 -26.5zM407 285h260v31q0 30 -8.5 55.5t-25 44t-41 29.5t-55.5 11t-55.5 -11t-41 -29.5t-25 -44t-8.5 -55.5v-31zM537 -10q-57 0 -98 24.5
t-61 69.5q-23 -45 -65.5 -69.5t-97.5 -24.5q-77 0 -120 37t-43 103t44.5 99.5t126.5 33.5h134v68q0 52 -32.5 87.5t-92.5 35.5t-91 -31.5t-34 -73.5q-1 -11 -7 -17.5t-17 -6.5t-18 6.5t-6 17.5q4 66 50.5 107.5t124.5 41.5q53 0 91.5 -22.5t58.5 -63.5q22 42 61.5 64
t91.5 22q39 0 72 -13t56 -37t36 -58.5t13 -77.5v-46q0 -25 -25 -25h-282v-79q0 -55 33.5 -92.5t96.5 -37.5q33 0 57 9t40.5 24t24.5 34.5t9 41.5q0 11 6 17.5t17 6.5t18 -6.5t6 -17.5q-3 -68 -50.5 -109.5t-127.5 -41.5z" />
    <glyph glyph-name="ccedilla" unicode="&#xe7;" horiz-adv-x="472" 
d="M244 -48q39 0 60 -18.5t21 -50.5q0 -33 -22 -51.5t-59 -18.5h-75q-19 0 -19 19t19 19h79q15 0 25 7.5t10 24.5q0 16 -10 24t-25 8h-46q-10 0 -14 6.5t-1 15.5l17 56q-66 11 -105 58.5t-39 124.5v136q0 43 13 77.5t37 58.5t57 37t73 13q78 0 126.5 -41t50.5 -110
q0 -11 -6.5 -17t-16.5 -6q-11 0 -17.5 6.5t-6.5 16.5q-2 44 -35.5 75.5t-94.5 31.5q-31 0 -55.5 -10.5t-41 -29t-25 -44t-8.5 -54.5v-144q0 -29 8.5 -54.5t25 -44t41 -29t55.5 -10.5q64 0 96 31t34 77q0 11 6.5 17.5t17.5 6.5q10 0 17 -6.5t7 -16.5q-3 -71 -51 -111
t-124 -42l-11 -38h12z" />
    <glyph glyph-name="egrave" unicode="&#xe8;" horiz-adv-x="474" 
d="M393 165q11 0 18 -6.5t6 -17.5q-3 -68 -50.5 -109.5t-126.5 -41.5q-40 0 -73 12t-57 35t-37 55.5t-13 73.5v146q0 43 13 77.5t37 58.5t57 37t73 13q39 0 72 -13t56 -37t36 -58.5t13 -77.5v-46q0 -25 -25 -25h-282v-79q0 -55 33.5 -92.5t96.5 -37.5q32 0 56 9t40.5 24
t24.5 34.5t9 41.5q0 11 6 17.5t17 6.5zM110 285h260v31q0 30 -8.5 55.5t-25 44t-41 29.5t-55.5 11t-55.5 -11t-41 -29.5t-25 -44t-8.5 -55.5v-31zM253 585q6 -6 6 -14t-5 -12.5t-13 -4.5q-6 0 -10 3l-101 76q-10 8 -10 20q0 11 7 18.5t18 7.5t18 -7z" />
    <glyph glyph-name="eacute" unicode="&#xe9;" horiz-adv-x="474" 
d="M393 165q11 0 18 -6.5t6 -17.5q-3 -68 -50.5 -109.5t-126.5 -41.5q-40 0 -73 12t-57 35t-37 55.5t-13 73.5v146q0 43 13 77.5t37 58.5t57 37t73 13q39 0 72 -13t56 -37t36 -58.5t13 -77.5v-46q0 -25 -25 -25h-282v-79q0 -55 33.5 -92.5t96.5 -37.5q32 0 56 9t40.5 24
t24.5 34.5t9 41.5q0 11 6 17.5t17 6.5zM110 285h260v31q0 30 -8.5 55.5t-25 44t-41 29.5t-55.5 11t-55.5 -11t-41 -29.5t-25 -44t-8.5 -55.5v-31zM313 672q7 7 18 7t18 -7.5t7 -18.5q0 -12 -10 -20l-101 -76q-5 -3 -10 -3q-8 0 -13 4.5t-5 12.5t6 14z" />
    <glyph glyph-name="ecircumflex" unicode="&#xea;" horiz-adv-x="474" 
d="M393 165q11 0 18 -6.5t6 -17.5q-3 -68 -50.5 -109.5t-126.5 -41.5q-40 0 -73 12t-57 35t-37 55.5t-13 73.5v146q0 43 13 77.5t37 58.5t57 37t73 13q39 0 72 -13t56 -37t36 -58.5t13 -77.5v-46q0 -25 -25 -25h-282v-79q0 -55 33.5 -92.5t96.5 -37.5q32 0 56 9t40.5 24
t24.5 34.5t9 41.5q0 11 6 17.5t17 6.5zM110 285h260v31q0 30 -8.5 55.5t-25 44t-41 29.5t-55.5 11t-55.5 -11t-41 -29.5t-25 -44t-8.5 -55.5v-31zM349 578q4 -5 4 -10q0 -6 -4.5 -10.5t-10.5 -4.5t-11 5l-90 82l-90 -83q-4 -4 -10 -4q-14 0 -14 14q0 4 3 9l86 103
q10 14 26 14t27 -14z" />
    <glyph glyph-name="edieresis" unicode="&#xeb;" horiz-adv-x="474" 
d="M393 165q11 0 18 -6.5t6 -17.5q-3 -68 -50.5 -109.5t-126.5 -41.5q-40 0 -73 12t-57 35t-37 55.5t-13 73.5v146q0 43 13 77.5t37 58.5t57 37t73 13q39 0 72 -13t56 -37t36 -58.5t13 -77.5v-46q0 -25 -25 -25h-282v-79q0 -55 33.5 -92.5t96.5 -37.5q32 0 56 9t40.5 24
t24.5 34.5t9 41.5q0 11 6 17.5t17 6.5zM110 285h260v31q0 30 -8.5 55.5t-25 44t-41 29.5t-55.5 11t-55.5 -11t-41 -29.5t-25 -44t-8.5 -55.5v-31zM152 604q0 15 11 25.5t26 10.5t25 -10.5t10 -25.5t-10 -26t-25 -11t-26 11t-11 26zM253 604q0 15 11 25.5t26 10.5
q14 0 24.5 -10.5t10.5 -25.5t-10.5 -26t-24.5 -11q-15 0 -26 11t-11 26z" />
    <glyph glyph-name="igrave" unicode="&#xec;" horiz-adv-x="204" 
d="M102 493q11 0 18 -6.5t7 -17.5v-450q0 -11 -7 -17.5t-18 -6.5t-18 6.5t-7 17.5v450q0 11 7 17.5t18 6.5zM117 585q6 -6 6 -14t-5 -12.5t-13 -4.5q-6 0 -10 3l-101 76q-10 8 -10 20q0 11 7 18.5t18 7.5t18 -7z" />
    <glyph glyph-name="iacute" unicode="&#xed;" horiz-adv-x="204" 
d="M102 493q11 0 18 -6.5t7 -17.5v-450q0 -11 -7 -17.5t-18 -6.5t-18 6.5t-7 17.5v450q0 11 7 17.5t18 6.5zM178 672q7 7 18 7t18 -7.5t7 -18.5q0 -12 -10 -20l-101 -76q-5 -3 -10 -3q-8 0 -13 4.5t-5 12.5t6 14z" />
    <glyph glyph-name="icircumflex" unicode="&#xee;" horiz-adv-x="204" 
d="M102 493q11 0 18 -6.5t7 -17.5v-450q0 -11 -7 -17.5t-18 -6.5t-18 6.5t-7 17.5v450q0 11 7 17.5t18 6.5zM213 578q4 -5 4 -10q0 -6 -4.5 -10.5t-10.5 -4.5t-11 5l-90 82l-90 -83q-4 -4 -10 -4q-14 0 -14 14q0 4 3 9l86 103q10 14 26 14t27 -14z" />
    <glyph glyph-name="idieresis" unicode="&#xef;" horiz-adv-x="204" 
d="M102 493q11 0 18 -6.5t7 -17.5v-450q0 -11 -7 -17.5t-18 -6.5t-18 6.5t-7 17.5v450q0 11 7 17.5t18 6.5zM16 604q0 15 11 25.5t26 10.5t25 -10.5t10 -25.5t-10 -26t-25 -11t-26 11t-11 26zM117 604q0 15 11 25.5t26 10.5q14 0 24.5 -10.5t10.5 -25.5t-10.5 -26t-24.5 -11
q-15 0 -26 11t-11 26z" />
    <glyph glyph-name="eth" unicode="&#xf0;" horiz-adv-x="491" 
d="M358 592q16 -22 27.5 -44.5t19 -48.5t11.5 -56.5t4 -67.5v-199q0 -43 -13 -77.5t-37 -58.5t-57 -37t-73 -13t-73 13t-57 37t-37 58.5t-13 77.5v136q0 43 13 77.5t37 58.5t57 37t73 13q89 0 132 -73q-3 28 -8 50.5t-12.5 40.5t-17 33t-20.5 29l-81 -26q-6 -2 -9 -2
q-8 0 -13 5t-5 13q0 15 15 20l66 21q-8 9 -16.5 18.5t-18.5 20.5q-6 6 -6 13q0 9 6 15t14 6q9 0 16 -7l49 -52l68 22q6 2 9 2q8 0 13 -5t5 -13q0 -16 -15 -20zM110 172q0 -29 8.5 -54.5t25 -44t41 -29t55.5 -10.5t55.5 10.5t41 29t25 44t8.5 54.5v144q0 29 -8.5 54.5t-25 44
t-41 29t-55.5 10.5t-55.5 -10.5t-41 -29t-25 -44t-8.5 -54.5v-144z" />
    <glyph glyph-name="ntilde" unicode="&#xf1;" horiz-adv-x="505" 
d="M122 426q23 35 58.5 53.5t80.5 18.5q79 0 125 -47t46 -129v-302q0 -25 -25 -25t-25 25v306q0 27 -8 50t-23.5 40t-38.5 27t-54 10q-62 0 -96.5 -39.5t-34.5 -97.5v-296q0 -25 -25 -25t-25 25v453q0 20 19 20q7 0 12 -4t7 -16zM370 648q0 14 15 14q16 0 16 -27
q0 -14 -3 -27t-10.5 -23.5t-20 -17t-31.5 -6.5q-17 0 -33 7t-33 17l-39 22q-10 5 -21.5 10.5t-22.5 5.5q-15 0 -24 -7t-13.5 -16.5t-5.5 -19t-2 -13.5q-2 -12 -15 -12q-17 0 -17 25q0 32 20 56t58 24q15 0 29.5 -5t30.5 -14l41 -24q13 -8 25 -13.5t23 -5.5q20 0 26 16t7 34z
" />
    <glyph glyph-name="ograve" unicode="&#xf2;" horiz-adv-x="480" 
d="M110 172q0 -29 8.5 -54.5t25 -44t41 -29t55.5 -10.5t55.5 10.5t41 29t25 44t8.5 54.5v144q0 29 -8.5 54.5t-25 44t-41 29t-55.5 10.5t-55.5 -10.5t-41 -29t-25 -44t-8.5 -54.5v-144zM420 176q0 -43 -13 -77.5t-37 -58.5t-57 -37t-73 -13t-73 13t-57 37t-37 58.5t-13 77.5
v136q0 43 13 77.5t37 58.5t57 37t73 13t73 -13t57 -37t37 -58.5t13 -77.5v-136zM254 585q6 -6 6 -14t-5 -12.5t-13 -4.5q-6 0 -10 3l-101 76q-10 8 -10 20q0 11 7 18.5t18 7.5t18 -7z" />
    <glyph glyph-name="oacute" unicode="&#xf3;" horiz-adv-x="480" 
d="M110 172q0 -29 8.5 -54.5t25 -44t41 -29t55.5 -10.5t55.5 10.5t41 29t25 44t8.5 54.5v144q0 29 -8.5 54.5t-25 44t-41 29t-55.5 10.5t-55.5 -10.5t-41 -29t-25 -44t-8.5 -54.5v-144zM420 176q0 -43 -13 -77.5t-37 -58.5t-57 -37t-73 -13t-73 13t-57 37t-37 58.5t-13 77.5
v136q0 43 13 77.5t37 58.5t57 37t73 13t73 -13t57 -37t37 -58.5t13 -77.5v-136zM315 672q7 7 18 7t18 -7.5t7 -18.5q0 -12 -10 -20l-101 -76q-5 -3 -10 -3q-8 0 -13 4.5t-5 12.5t6 14z" />
    <glyph glyph-name="ocircumflex" unicode="&#xf4;" horiz-adv-x="480" 
d="M110 172q0 -29 8.5 -54.5t25 -44t41 -29t55.5 -10.5t55.5 10.5t41 29t25 44t8.5 54.5v144q0 29 -8.5 54.5t-25 44t-41 29t-55.5 10.5t-55.5 -10.5t-41 -29t-25 -44t-8.5 -54.5v-144zM420 176q0 -43 -13 -77.5t-37 -58.5t-57 -37t-73 -13t-73 13t-57 37t-37 58.5t-13 77.5
v136q0 43 13 77.5t37 58.5t57 37t73 13t73 -13t57 -37t37 -58.5t13 -77.5v-136zM350 578q4 -5 4 -10q0 -6 -4.5 -10.5t-10.5 -4.5t-11 5l-90 82l-90 -83q-4 -4 -10 -4q-14 0 -14 14q0 4 3 9l86 103q10 14 26 14t27 -14z" />
    <glyph glyph-name="otilde" unicode="&#xf5;" horiz-adv-x="480" 
d="M110 172q0 -29 8.5 -54.5t25 -44t41 -29t55.5 -10.5t55.5 10.5t41 29t25 44t8.5 54.5v144q0 29 -8.5 54.5t-25 44t-41 29t-55.5 10.5t-55.5 -10.5t-41 -29t-25 -44t-8.5 -54.5v-144zM420 176q0 -43 -13 -77.5t-37 -58.5t-57 -37t-73 -13t-73 13t-57 37t-37 58.5t-13 77.5
v136q0 43 13 77.5t37 58.5t57 37t73 13t73 -13t57 -37t37 -58.5t13 -77.5v-136zM354 648q0 14 15 14q16 0 16 -27q0 -14 -3 -27t-10.5 -23.5t-20 -17t-31.5 -6.5q-17 0 -33 7t-33 17l-39 22q-10 5 -21.5 10.5t-22.5 5.5q-15 0 -24 -7t-13.5 -16.5t-5.5 -19t-2 -13.5
q-2 -12 -15 -12q-17 0 -17 25q0 32 20 56t58 24q15 0 29.5 -5t30.5 -14l41 -24q13 -8 25 -13.5t23 -5.5q20 0 26 16t7 34z" />
    <glyph glyph-name="odieresis" unicode="&#xf6;" horiz-adv-x="480" 
d="M110 172q0 -29 8.5 -54.5t25 -44t41 -29t55.5 -10.5t55.5 10.5t41 29t25 44t8.5 54.5v144q0 29 -8.5 54.5t-25 44t-41 29t-55.5 10.5t-55.5 -10.5t-41 -29t-25 -44t-8.5 -54.5v-144zM420 176q0 -43 -13 -77.5t-37 -58.5t-57 -37t-73 -13t-73 13t-57 37t-37 58.5t-13 77.5
v136q0 43 13 77.5t37 58.5t57 37t73 13t73 -13t57 -37t37 -58.5t13 -77.5v-136zM153 604q0 15 11 25.5t26 10.5t25 -10.5t10 -25.5t-10 -26t-25 -11t-26 11t-11 26zM254 604q0 15 11 25.5t26 10.5q14 0 24.5 -10.5t10.5 -25.5t-10.5 -26t-24.5 -11q-15 0 -26 11t-11 26z" />
    <glyph glyph-name="divide" unicode="&#xf7;" horiz-adv-x="509" 
d="M65 328q0 23 21 23h337q10 0 15.5 -6.5t5.5 -16.5q0 -22 -21 -22h-337q-21 0 -21 22zM213 173q0 17 12 28.5t29 11.5t28.5 -11.5t11.5 -28.5t-11.5 -29t-28.5 -12t-29 12t-12 29zM213 485q0 17 12 28.5t29 11.5t28.5 -11.5t11.5 -28.5t-11.5 -29t-28.5 -12t-29 12t-12 29
z" />
    <glyph glyph-name="oslash" unicode="&#xf8;" horiz-adv-x="480" 
d="M420 176q0 -43 -13 -77.5t-37 -58.5t-57 -37t-73 -13q-28 0 -52 6.5t-44 17.5l-29 -55q-3 -5 -7.5 -9t-12.5 -4q-9 0 -14.5 5.5t-5.5 12.5t4 14l32 60q-51 49 -51 138v136q0 43 13 77.5t37 58.5t57 37t73 13q28 0 52 -6.5t44 -17.5l30 56q3 5 7.5 9t12.5 4q9 0 14.5 -5.5
t5.5 -12.5q0 -4 -4 -14l-32 -63q24 -24 37 -58.5t13 -77.5v-136zM109 171q0 -53 26 -90l182 351q-31 23 -77 23q-32 0 -56 -10.5t-41 -29t-25.5 -44t-8.5 -54.5v-146zM371 317q0 51 -26 88l-182 -350q33 -22 77 -22q31 0 55.5 10.5t41.5 29t25.5 44t8.5 54.5v146z" />
    <glyph glyph-name="ugrave" unicode="&#xf9;" horiz-adv-x="499" 
d="M377 61q-23 -34 -58 -52.5t-80 -18.5q-77 0 -121.5 47t-44.5 129v302q0 25 25 25t25 -25v-306q0 -27 7.5 -50t22.5 -40t37 -27t52 -10t54.5 10.5t41 29t25.5 43.5t9 54v296q0 25 25 25t25 -25v-453q0 -20 -19 -20q-7 0 -12 4t-7 16zM263 585q6 -6 6 -14t-5 -12.5
t-13 -4.5q-6 0 -10 3l-101 76q-10 8 -10 20q0 11 7 18.5t18 7.5t18 -7z" />
    <glyph glyph-name="uacute" unicode="&#xfa;" horiz-adv-x="499" 
d="M377 61q-23 -34 -58 -52.5t-80 -18.5q-77 0 -121.5 47t-44.5 129v302q0 25 25 25t25 -25v-306q0 -27 7.5 -50t22.5 -40t37 -27t52 -10t54.5 10.5t41 29t25.5 43.5t9 54v296q0 25 25 25t25 -25v-453q0 -20 -19 -20q-7 0 -12 4t-7 16zM323 672q7 7 18 7t18 -7.5t7 -18.5
q0 -12 -10 -20l-101 -76q-5 -3 -10 -3q-8 0 -13 4.5t-5 12.5t6 14z" />
    <glyph glyph-name="ucircumflex" unicode="&#xfb;" horiz-adv-x="499" 
d="M377 61q-23 -34 -58 -52.5t-80 -18.5q-77 0 -121.5 47t-44.5 129v302q0 25 25 25t25 -25v-306q0 -27 7.5 -50t22.5 -40t37 -27t52 -10t54.5 10.5t41 29t25.5 43.5t9 54v296q0 25 25 25t25 -25v-453q0 -20 -19 -20q-7 0 -12 4t-7 16zM358 578q4 -5 4 -10q0 -6 -4.5 -10.5
t-10.5 -4.5t-11 5l-90 82l-90 -83q-4 -4 -10 -4q-14 0 -14 14q0 4 3 9l86 103q10 14 26 14t27 -14z" />
    <glyph glyph-name="udieresis" unicode="&#xfc;" horiz-adv-x="499" 
d="M377 61q-23 -34 -58 -52.5t-80 -18.5q-77 0 -121.5 47t-44.5 129v302q0 25 25 25t25 -25v-306q0 -27 7.5 -50t22.5 -40t37 -27t52 -10t54.5 10.5t41 29t25.5 43.5t9 54v296q0 25 25 25t25 -25v-453q0 -20 -19 -20q-7 0 -12 4t-7 16zM161 604q0 15 11 25.5t26 10.5
t25 -10.5t10 -25.5t-10 -26t-25 -11t-26 11t-11 26zM262 604q0 15 11 25.5t26 10.5q14 0 24.5 -10.5t10.5 -25.5t-10.5 -26t-24.5 -11q-15 0 -26 11t-11 26z" />
    <glyph glyph-name="yacute" unicode="&#xfd;" horiz-adv-x="454" 
d="M185 -177q-2 -6 -8 -10.5t-13 -4.5q-13 0 -19 10t-1 21l61 164l-166 455q-3 8 1.5 21.5t21.5 13.5q19 0 25 -16l142 -405l142 406q4 15 21 15q14 0 21 -10.5t2 -23.5zM304 672q7 7 18 7t18 -7.5t7 -18.5q0 -12 -10 -20l-101 -76q-5 -3 -10 -3q-8 0 -13 4.5t-5 12.5t6 14z
" />
    <glyph glyph-name="thorn" unicode="&#xfe;" 
d="M127 434q23 31 57 47.5t77 16.5q79 0 125 -47t46 -129v-156q0 -82 -46 -129t-125 -47q-43 0 -77 16.5t-57 47.5v-222q0 -11 -7 -17.5t-18 -6.5t-18 6.5t-7 17.5v826q0 11 7 17.5t18 6.5t18 -6.5t7 -17.5v-224zM258 453q-62 0 -96.5 -39.5t-34.5 -97.5v-144
q0 -58 34.5 -97.5t96.5 -39.5q31 0 54 10t38.5 27t23.5 40t8 50v164q0 27 -8 50t-23.5 40t-38.5 27t-54 10z" />
    <glyph glyph-name="ydieresis" unicode="&#xff;" horiz-adv-x="454" 
d="M185 -177q-2 -6 -8 -10.5t-13 -4.5q-13 0 -19 10t-1 21l61 164l-166 455q-3 8 1.5 21.5t21.5 13.5q19 0 25 -16l142 -405l142 406q4 15 21 15q14 0 21 -10.5t2 -23.5zM141 604q0 15 11 25.5t26 10.5t25 -10.5t10 -25.5t-10 -26t-25 -11t-26 11t-11 26zM242 604
q0 15 11 25.5t26 10.5q14 0 24.5 -10.5t10.5 -25.5t-10.5 -26t-24.5 -11q-15 0 -26 11t-11 26z" />
    <glyph glyph-name="dotlessi" unicode="&#x131;" horiz-adv-x="204" 
d="M102 493q11 0 18 -6.5t7 -17.5v-450q0 -11 -7 -17.5t-18 -6.5t-18 6.5t-7 17.5v450q0 11 7 17.5t18 6.5z" />
    <glyph glyph-name="OE" unicode="&#x152;" horiz-adv-x="855" 
d="M486 360h270q11 0 17 -6.5t6 -17.5q0 -23 -23 -23h-270v-266h300q11 0 17 -6.5t6 -17.5q0 -23 -23 -23h-327q-25 0 -25 25v30q-27 -32 -67 -48.5t-89 -16.5q-46 0 -84.5 14.5t-66 41t-42.5 64.5t-15 86v265q0 48 15 86t42.5 64.5t66 41t84.5 14.5q49 0 89 -17t67 -49v31
q0 25 25 25h319q11 0 17 -6.5t6 -17.5q0 -23 -23 -23h-292v-250zM122 192q0 -33 10.5 -61.5t30 -49t48.5 -32.5t67 -12q36 0 65 11.5t49.5 31t31 46.5t10.5 59v280q0 33 -10.5 61.5t-30 49t-49 32.5t-66.5 12q-38 0 -67 -12t-48.5 -32.5t-30 -49t-10.5 -61.5v-273z" />
    <glyph glyph-name="oe" unicode="&#x153;" horiz-adv-x="784" 
d="M550 -10q-56 0 -96.5 25.5t-59.5 72.5q-20 -47 -60 -72.5t-94 -25.5q-40 0 -73 13t-57 37t-37 58.5t-13 77.5v136q0 43 13 77.5t37 58.5t57 37t73 13q55 0 95 -26.5t60 -75.5q19 49 59.5 75.5t95.5 26.5q39 0 72 -13t56 -37t36 -58.5t13 -77.5v-46q0 -25 -25 -25h-282
v-79q0 -55 33.5 -92.5t96.5 -37.5q32 0 56 9t40.5 24t24.5 34.5t9 41.5q0 11 6 17.5t17 6.5t18 -6.5t6 -17.5q-3 -68 -50.5 -109.5t-126.5 -41.5zM110 172q0 -29 8.5 -54.5t25 -44t41 -29t55.5 -10.5t55.5 10.5t41 29t25 44t8.5 54.5v144q0 29 -8.5 54.5t-25 44t-41 29
t-55.5 10.5t-55.5 -10.5t-41 -29t-25 -44t-8.5 -54.5v-144zM420 285h260v31q0 30 -8.5 55.5t-25 44t-41 29.5t-55.5 11t-55.5 -11t-41 -29.5t-25 -44t-8.5 -55.5v-31z" />
    <glyph glyph-name="Scaron" unicode="&#x160;" horiz-adv-x="521" 
d="M431 466q-11 0 -18 7t-7 17q0 57 -38.5 94.5t-107.5 37.5t-107.5 -31t-38.5 -81q0 -41 25.5 -67t56.5 -39l116 -49q27 -11 54.5 -25t50 -34.5t36.5 -49.5t14 -70q0 -43 -15 -77.5t-42.5 -58.5t-66 -37t-84.5 -13q-45 0 -83 12t-65 34.5t-42.5 54.5t-16.5 73q0 25 25 25
q11 0 18 -6t7 -16q0 -28 10.5 -52t31 -42t49.5 -28t66 -10q75 0 116 38.5t41 96.5q0 32 -11 54t-29.5 38t-42.5 27t-49 22l-90 38q-24 10 -47 24t-41.5 32.5t-29.5 43.5t-11 57q0 37 14.5 66.5t40.5 50.5t61.5 32.5t78.5 11.5q42 0 78 -12.5t62.5 -35t41 -55.5t14.5 -73
q0 -11 -7 -18t-18 -7zM149 800q-4 5 -4 10q0 6 4.5 10.5t10.5 4.5t11 -5l90 -82l90 83q4 4 10 4q14 0 14 -14q0 -5 -3 -9l-86 -103q-5 -6 -11 -10t-15 -4q-17 0 -27 14z" />
    <glyph glyph-name="scaron" unicode="&#x161;" horiz-adv-x="447" 
d="M174 244q-20 6 -40 15.5t-36 24t-25.5 34.5t-9.5 48q0 27 12 51t33 42t50 28.5t64 10.5q75 0 119.5 -35.5t48.5 -92.5q1 -11 -5.5 -17.5t-17.5 -6.5t-16.5 6.5t-7.5 17.5q-4 33 -33.5 59.5t-87.5 26.5q-19 0 -38.5 -5t-35.5 -15.5t-26.5 -27t-10.5 -38.5
q0 -29 16.5 -46.5t47.5 -27.5l90 -28q27 -9 51 -19t41 -25t27 -36.5t10 -51.5q0 -33 -12 -59.5t-34 -46t-53 -30t-69 -10.5q-39 0 -71 9.5t-56 27.5t-37.5 44t-14.5 59q0 10 6 17t17 7q10 0 17 -6t7 -16q0 -42 34 -70t97 -28q58 0 88.5 26.5t30.5 68.5q0 35 -17 54.5
t-55 30.5zM110 661q-4 5 -4 10q0 6 4.5 10.5t10.5 4.5t11 -5l90 -82l90 83q4 4 10 4q14 0 14 -14q0 -5 -3 -9l-86 -103q-5 -6 -11 -10t-15 -4q-17 0 -27 14z" />
    <glyph glyph-name="Ydieresis" unicode="&#x178;" horiz-adv-x="478" 
d="M265 261v-241q0 -11 -7.5 -18t-18.5 -7t-18.5 7t-7.5 18v241l-176 363q-3 6 -3 12q0 11 7 18.5t18 7.5q16 0 23 -14l159 -335l160 336q4 8 9.5 10.5t11.5 2.5q11 0 17 -6t7 -13q1 -5 -1 -9.5t-4 -9.5zM153 760q0 15 11 25.5t26 10.5t25 -10.5t10 -25.5t-10 -26t-25 -11
t-26 11t-11 26zM254 760q0 15 11 25.5t26 10.5q14 0 24.5 -10.5t10.5 -25.5t-10.5 -26t-24.5 -11q-15 0 -26 11t-11 26z" />
    <glyph glyph-name="Zcaron" unicode="&#x17d;" horiz-adv-x="457" 
d="M386 657q11 0 18 -6.5t7 -16.5q0 -5 -1 -10t-6 -13l-304 -564h303q11 0 17 -6.5t6 -17.5q0 -23 -23 -23h-342q-11 0 -18 6.5t-7 16.5q0 5 1 10t6 13l304 564h-279q-23 0 -23 23q0 11 6 17.5t17 6.5h318zM124 800q-4 5 -4 10q0 6 4.5 10.5t10.5 4.5t11 -5l90 -82l90 83
q4 4 10 4q14 0 14 -14q0 -5 -3 -9l-86 -103q-5 -6 -11 -10t-15 -4q-17 0 -27 14z" />
    <glyph glyph-name="zcaron" unicode="&#x17e;" horiz-adv-x="425" 
d="M98 43h271q9 0 14.5 -7t5.5 -16q0 -20 -20 -20h-305q-25 0 -25 23q0 9 8 22l273 400h-257q-9 0 -14.5 6t-5.5 15t5.5 15.5t14.5 6.5h291q25 0 25 -23q0 -9 -8 -22zM101 661q-4 5 -4 10q0 6 4.5 10.5t10.5 4.5t11 -5l90 -82l90 83q4 4 10 4q14 0 14 -14q0 -5 -3 -9
l-86 -103q-5 -6 -11 -10t-15 -4q-17 0 -27 14z" />
    <glyph glyph-name="florin" unicode="&#x192;" horiz-adv-x="412" 
d="M87 341q0 9 5.5 15t14.5 6h68v153q0 78 39.5 120t115.5 42h23q21 0 21 -22t-21 -22h-24q-30 0 -50 -8.5t-32 -23.5t-17 -36t-5 -46v-157h122q9 0 14.5 -6t5.5 -15t-5.5 -15t-14.5 -6h-122v-345q0 -78 -39.5 -120t-115.5 -42h-23q-21 0 -21 22t21 22h24q59 0 81.5 32
t22.5 82v349h-68q-9 0 -14.5 6t-5.5 15z" />
    <glyph glyph-name="uni0237" unicode="&#x237;" horiz-adv-x="204" 
d="M-43 -153q61 0 90.5 34.5t29.5 93.5v493q0 25 25 25t25 -25v-489q0 -86 -47 -131t-123 -45q-14 0 -21.5 4.5t-7.5 17.5t7.5 17.5t21.5 4.5z" />
    <glyph glyph-name="circumflex" unicode="&#x2c6;" horiz-adv-x="275" 
d="M248 578q4 -5 4 -10q0 -6 -4.5 -10.5t-10.5 -4.5t-11 5l-90 82l-90 -83q-4 -4 -10 -4q-14 0 -14 14q0 4 3 9l86 103q10 14 26 14t27 -14l84 -101v0z" />
    <glyph glyph-name="tilde" unicode="&#x2dc;" horiz-adv-x="331" 
d="M280 648q0 14 15 14q16 0 16 -27q0 -14 -3 -27t-10.5 -23.5t-20 -17t-31.5 -6.5q-17 0 -33 7t-33 17l-39 22q-10 5 -21.5 10.5t-22.5 5.5q-15 0 -24 -7t-13.5 -16.5t-5.5 -19t-2 -13.5q-2 -12 -15 -12q-17 0 -17 25q0 32 20 56t58 24q15 0 29.5 -5t30.5 -14l41 -24
q13 -8 25 -13.5t23 -5.5q20 0 26 16t7 34z" />
    <glyph glyph-name="endash" unicode="&#x2013;" horiz-adv-x="501" 
d="M68 264q0 21 20 21h325q9 0 14.5 -6t5.5 -15t-5.5 -15t-14.5 -6h-325q-9 0 -14.5 6t-5.5 15z" />
    <glyph glyph-name="emdash" unicode="&#x2014;" horiz-adv-x="794" 
d="M68 264q0 9 5.5 15t14.5 6h618q9 0 14.5 -6t5.5 -15t-5.5 -15t-14.5 -6h-618q-9 0 -14.5 6t-5.5 15z" />
    <glyph glyph-name="quoteleft" unicode="&#x2018;" horiz-adv-x="210" 
d="M108 642q4 9 8.5 14.5t14.5 5.5q11 0 17 -7t4 -18l-26 -111q-4 -15 -11 -24.5t-22 -9.5q-14 0 -25.5 11t-2.5 33z" />
    <glyph glyph-name="quoteright" unicode="&#x2019;" horiz-adv-x="208" 
d="M106 512q-4 -9 -8.5 -14.5t-14.5 -5.5q-11 0 -17 7t-4 18l26 111q4 15 11 24.5t22 9.5q14 0 25.5 -11t2.5 -33z" />
    <glyph glyph-name="quotesinglbase" unicode="&#x201a;" horiz-adv-x="213" 
d="M92 -79q-4 -9 -8.5 -14.5t-14.5 -5.5q-11 0 -17 7t-4 18l26 111q4 15 11 24.5t22 9.5q14 0 25.5 -11t2.5 -33z" />
    <glyph glyph-name="quotedblleft" unicode="&#x201c;" horiz-adv-x="315" 
d="M213 642q4 9 8.5 14.5t14.5 5.5q11 0 17 -7t4 -18l-26 -111q-4 -15 -11 -24.5t-22 -9.5q-14 0 -25.5 11t-2.5 33zM108 642q4 9 8.5 14.5t14.5 5.5q11 0 17 -7t4 -18l-26 -111q-4 -15 -11 -24.5t-22 -9.5q-14 0 -25.5 11t-2.5 33z" />
    <glyph glyph-name="quotedblright" unicode="&#x201d;" horiz-adv-x="313" 
d="M106 512q-4 -9 -8.5 -14.5t-14.5 -5.5q-11 0 -17 7t-4 18l26 111q4 15 11 24.5t22 9.5q14 0 25.5 -11t2.5 -33zM211 512q-4 -9 -8.5 -14.5t-14.5 -5.5q-11 0 -17 7t-4 18l26 111q4 15 11 24.5t22 9.5q14 0 25.5 -11t2.5 -33z" />
    <glyph glyph-name="quotedblbase" unicode="&#x201e;" horiz-adv-x="318" 
d="M92 -79q-4 -9 -8.5 -14.5t-14.5 -5.5q-11 0 -17 7t-4 18l26 111q4 15 11 24.5t22 9.5q14 0 25.5 -11t2.5 -33zM198 -79q-4 -9 -8.5 -14.5t-14.5 -5.5q-11 0 -17 7t-4 18l26 111q4 15 11 24.5t22 9.5q14 0 25.5 -11t2.5 -33z" />
    <glyph glyph-name="dagger" unicode="&#x2020;" horiz-adv-x="362" 
d="M197 488h117q18 0 18 -19q0 -18 -18 -18h-119l11 -453v-90q0 -11 -7 -17.5t-18 -6.5t-18 6.5t-7 17.5v90l10 453h-118q-18 0 -18 18q0 19 18 19h116l-8 60v90q0 11 7 17.5t18 6.5t18 -6.5t7 -17.5v-90z" />
    <glyph glyph-name="daggerdbl" unicode="&#x2021;" horiz-adv-x="402" 
d="M223 488h111q18 0 18 -18q0 -19 -18 -19h-112l-7 -178l7 -178h112q18 0 18 -19q0 -18 -18 -18h-111l3 -60v-90q0 -11 -7 -17.5t-18 -6.5t-18 6.5t-7 17.5v90l2 60h-110q-18 0 -18 19q0 18 18 18h112l7 178l-7 178h-112q-18 0 -18 19q0 18 18 18h110l-2 60v90q0 11 7 17.5
t18 6.5t18 -6.5t7 -17.5v-90z" />
    <glyph glyph-name="bullet" unicode="&#x2022;" horiz-adv-x="332" 
d="M84 274q0 35 24 59t57 24q35 0 59 -24t24 -59q0 -33 -24 -57t-59 -24q-33 0 -57 24t-24 57z" />
    <glyph glyph-name="ellipsis" unicode="&#x2026;" horiz-adv-x="565" 
d="M67 28q0 17 11 28t27 11q17 0 28 -11t11 -28q0 -16 -11 -27t-28 -11q-16 0 -27 11t-11 27zM244 28q0 17 11 28t27 11q17 0 28 -11t11 -28q0 -16 -11 -27t-28 -11q-16 0 -27 11t-11 27zM421 28q0 17 11 28t27 11q17 0 28 -11t11 -28q0 -16 -11 -27t-28 -11q-16 0 -27 11
t-11 27z" />
    <glyph glyph-name="perthousand" unicode="&#x2030;" horiz-adv-x="884" 
d="M98 432q0 -29 17.5 -48.5t49.5 -19.5t49.5 19.5t17.5 48.5v131q0 29 -17.5 48.5t-49.5 19.5t-49.5 -19.5t-17.5 -48.5v-131zM274 434q0 -49 -30.5 -77.5t-78.5 -28.5q-49 0 -79 28.5t-30 77.5v127q0 49 30 77.5t79 28.5q48 0 78.5 -28.5t30.5 -77.5v-127zM387 94
q0 -29 17.5 -48.5t49.5 -19.5t49.5 19.5t17.5 48.5v131q0 29 -17.5 48.5t-49.5 19.5t-49.5 -19.5t-17.5 -48.5v-131zM563 96q0 -49 -30.5 -77.5t-78.5 -28.5q-49 0 -79 28.5t-30 77.5v127q0 49 30 77.5t79 28.5q48 0 78.5 -28.5t30.5 -77.5v-127zM658 94q0 -29 17.5 -48.5
t49.5 -19.5t49.5 19.5t17.5 48.5v131q0 29 -17.5 48.5t-49.5 19.5t-49.5 -19.5t-17.5 -48.5v-131zM834 96q0 -49 -30.5 -77.5t-78.5 -28.5q-49 0 -79 28.5t-30 77.5v127q0 49 30 77.5t79 28.5q48 0 78.5 -28.5t30.5 -77.5v-127zM334 328l-194 -323q-7 -10 -19 -10
q-9 0 -15.5 6.5t-6.5 15.5q0 6 4 12l183 299l194 324q7 10 19 10q9 0 15.5 -6.5t6.5 -15.5q0 -6 -4 -12z" />
    <glyph glyph-name="guilsinglleft" unicode="&#x2039;" horiz-adv-x="240" 
d="M167 93q5 -13 -1 -21.5t-17 -8.5q-14 0 -19 11l-62 136q-2 5 -4.5 11t-2.5 12t2.5 12t4.5 11l62 136q5 11 19 11q11 0 17 -9.5t1 -20.5l-55 -140z" />
    <glyph glyph-name="guilsinglright" unicode="&#x203a;" horiz-adv-x="240" 
d="M128 233l-55 140q-5 11 1 20.5t17 9.5q14 0 19 -11l62 -136q2 -5 4.5 -11t2.5 -12t-2.5 -12t-4.5 -11l-62 -136q-5 -11 -19 -11q-11 0 -17 8.5t-1 21.5z" />
    <glyph glyph-name="Euro" unicode="&#x20ac;" horiz-adv-x="577" 
d="M121 461q0 48 15 86t41.5 64.5t64 41t82.5 14.5q42 0 77.5 -13.5t60.5 -38t39 -58.5t14 -75q0 -25 -25 -25q-11 0 -17.5 6.5t-6.5 16.5q0 60 -36.5 101t-105.5 41q-37 0 -65.5 -12t-48 -33t-29.5 -50t-10 -62v-44h138q9 0 14.5 -6.5t5.5 -15.5t-5.5 -15t-14.5 -6h-138
v-88h138q9 0 14.5 -6.5t5.5 -15.5t-5.5 -15t-14.5 -6h-138v-55q0 -33 10 -62t29.5 -50t48 -33t65.5 -12q69 0 105.5 41.5t36.5 105.5q0 25 25 25q24 0 24 -25q0 -45 -14 -80.5t-39 -60t-60.5 -38t-77.5 -13.5q-45 0 -82.5 14.5t-64 41t-41.5 64.5t-15 86v51h-57
q-9 0 -14.5 6t-5.5 15t5.5 15.5t14.5 6.5h57v88h-57q-9 0 -14.5 6t-5.5 15t5.5 15.5t14.5 6.5h57v40z" />
    <glyph glyph-name="trademark" unicode="&#x2122;" horiz-adv-x="768" 
d="M55 638q0 19 18 19h228q18 0 18 -19t-18 -19h-91v-315q0 -9 -7 -14.5t-16 -5.5t-16 5.5t-7 14.5v315h-91q-18 0 -18 19zM634 643q5 10 12 13.5t18 3.5t17.5 -6.5t6.5 -15.5v-334q0 -9 -7 -14.5t-16 -5.5t-16 5.5t-7 14.5v265l-103 -181q-6 -11 -19 -11t-18 11l-103 181
v-265q0 -9 -7 -14.5t-16 -5.5t-16 5.5t-7 14.5v334q0 9 6.5 15.5t17.5 6.5t18 -3.5t12 -13.5l113 -200z" />
    </font>
</defs>
</svg>
