<?xml version="1.0" standalone="no"?>
<!DOCTYPE svg PUBLIC "-//W3C//DTD SVG 1.1//EN" "http://www.w3.org/Graphics/SVG/1.1/DTD/svg11.dtd" >
<svg>
<metadata>
Created by FontForge 20120731 at Sat Jun 29 14:32:31 2019
 By www
Copyright (c) 2012 by Eduardo Manso. All rights reserved.
</metadata>
<defs>
<font id="CiutadellaW04-Bold" horiz-adv-x="509" >
  <font-face 
    font-family="CiutadellaW04-Bold"
    font-weight="700"
    font-stretch="normal"
    units-per-em="1000"
    panose-1="0 0 0 0 0 0 0 0 0 0"
    ascent="750"
    descent="-250"
    x-height="490"
    cap-height="657"
    bbox="-155 -246 1370 906"
    underline-thickness="50"
    underline-position="-100"
    unicode-range="U+000D-FB05"
  />
<missing-glyph horiz-adv-x="841" 
d="M421 236l-92 -92q-12 -12 -21 -12q-11 0 -21 12l-51 52q-11 11 -11 19q0 10 12 21l92 92l-92 92q-13 12 -13 22q0 8 11 19l51 52q13 11 21 11q10 0 22 -12l92 -92l92 92q13 13 22 13q8 0 19 -11l52 -51q11 -13 11 -22q0 -11 -12 -21l-92 -92l92 -92q12 -14 12 -21
q0 -11 -12 -21l-52 -51q-11 -11 -19 -11q-11 0 -21 12zM80 328q0 70 26.5 132t73 108t108 72.5t132.5 26.5q70 0 132 -26.5t108.5 -72.5t73 -108t26.5 -132q0 -71 -27 -132.5t-73 -107t-108.5 -72t-132.5 -26.5q-71 0 -132.5 26.5t-107.5 72t-72.5 107t-26.5 132.5zM128 328
q0 -61 22.5 -114.5t62 -93t92.5 -62.5t114 -23t114 23t92.5 62.5t62.5 93t23 114.5t-22.5 114.5t-62 93.5t-92.5 63t-114 23t-114 -23t-92.5 -63t-62.5 -93.5t-23 -114.5z" />
    <glyph glyph-name=".notdef" horiz-adv-x="841" 
d="M421 236l-92 -92q-12 -12 -21 -12q-11 0 -21 12l-51 52q-11 11 -11 19q0 10 12 21l92 92l-92 92q-13 12 -13 22q0 8 11 19l51 52q13 11 21 11q10 0 22 -12l92 -92l92 92q13 13 22 13q8 0 19 -11l52 -51q11 -13 11 -22q0 -11 -12 -21l-92 -92l92 -92q12 -14 12 -21
q0 -11 -12 -21l-52 -51q-11 -11 -19 -11q-11 0 -21 12zM80 328q0 70 26.5 132t73 108t108 72.5t132.5 26.5q70 0 132 -26.5t108.5 -72.5t73 -108t26.5 -132q0 -71 -27 -132.5t-73 -107t-108.5 -72t-132.5 -26.5q-71 0 -132.5 26.5t-107.5 72t-72.5 107t-26.5 132.5zM128 328
q0 -61 22.5 -114.5t62 -93t92.5 -62.5t114 -23t114 23t92.5 62.5t62.5 93t23 114.5t-22.5 114.5t-62 93.5t-92.5 63t-114 23t-114 -23t-92.5 -63t-62.5 -93.5t-23 -114.5z" />
    <glyph glyph-name="glyph1" horiz-adv-x="0" 
 />
    <glyph glyph-name="glyph1" horiz-adv-x="0" 
 />
    <glyph glyph-name="uni000D" unicode="&#xd;" horiz-adv-x="0" 
 />
    <glyph glyph-name="space" unicode=" " horiz-adv-x="190" 
 />
    <glyph glyph-name="exclam" unicode="!" horiz-adv-x="262" 
d="M173 195h-84l-30 295v167h144v-167zM52 69q0 33 23 56t56 23t56 -23t23 -56t-23 -56t-56 -23t-56 23t-23 56z" />
    <glyph glyph-name="quotedbl" unicode="&#x22;" horiz-adv-x="410" 
d="M180 657v-71q0 -11 -1.5 -28.5t-4 -35.5t-5 -33.5t-3.5 -24.5l-6 -37h-92l-6 37q-2 9 -4 24.5t-4.5 33.5t-4 35.5t-1.5 28.5v71h132zM362 657v-71q0 -11 -1.5 -28.5t-4 -35.5t-5 -33.5t-3.5 -24.5l-6 -37h-92l-6 37q-2 9 -4 24.5t-4.5 33.5t-4 35.5t-1.5 28.5v71h132z
" />
    <glyph glyph-name="numbersign" unicode="#" horiz-adv-x="663" 
d="M516 490h109v-85h-125l-28 -153h123v-85h-139l-31 -167h-100l31 167h-109l-31 -167h-100l31 167h-109v85h125l28 153h-123v85h139l31 167h100l-31 -167h109l31 167h100zM263 252h109l28 153h-109z" />
    <glyph glyph-name="dollar" unicode="$" horiz-adv-x="520" 
d="M326 454v20q0 34 -19.5 53.5t-50.5 19.5t-47.5 -17.5t-16.5 -44.5q0 -6 1.5 -14.5t6.5 -17.5t14 -17t25 -14l78 -30q30 -12 60 -27t53.5 -37.5t38 -55t14.5 -78.5q0 -40 -12.5 -74t-35 -60.5t-55.5 -43.5t-73 -23v-101h-103v104q-76 14 -121.5 64t-45.5 128v24h143v-29
q0 -36 21 -54.5t59 -18.5q40 0 60.5 19.5t20.5 49.5q0 21 -9.5 39.5t-35.5 29.5l-96 37q-70 27 -109.5 72.5t-39.5 117.5q0 33 10 63.5t29.5 55t48 42.5t65.5 26v103h103v-103q74 -14 118 -64.5t44 -128.5v-15h-143z" />
    <glyph glyph-name="percent" unicode="%" horiz-adv-x="648" 
d="M131 451q0 -18 8.5 -29t25.5 -11t25.5 11t8.5 29v93q0 18 -8.5 29t-25.5 11t-25.5 -11t-8.5 -29v-93zM292 448q0 -50 -32.5 -85t-94.5 -35t-94.5 35t-32.5 85v99q0 50 32.5 85t94.5 35t94.5 -35t32.5 -85v-99zM456 657h105l-189 -329l-179 -328h-105l190 330zM449 113
q0 -18 8.5 -29t25.5 -11t25.5 11t8.5 29v93q0 18 -8.5 29t-25.5 11t-25.5 -11t-8.5 -29v-93zM610 110q0 -50 -32.5 -85t-94.5 -35t-94.5 35t-32.5 85v99q0 50 32.5 85t94.5 35t94.5 -35t32.5 -85v-99z" />
    <glyph glyph-name="ampersand" unicode="&#x26;" horiz-adv-x="593" 
d="M567 280h-69v-89q0 -44 -16 -80.5t-45 -63.5t-71 -42t-93 -15q-53 0 -95.5 13.5t-72.5 38.5t-46.5 61t-16.5 80q0 61 28.5 100.5t73.5 59.5q-37 19 -60 53.5t-23 85.5q0 40 14.5 74t41.5 59t65.5 38.5t86.5 13.5q49 0 88 -15.5t66.5 -42.5t42 -64t14.5 -79v-15h-138v14
q0 36 -18 56.5t-50 20.5t-51 -17.5t-19 -54.5q0 -79 88 -79h275v-111zM277 110q40 0 62.5 22t22.5 60v88h-70q-50 0 -76.5 -20t-26.5 -65q0 -85 88 -85z" />
    <glyph glyph-name="quotesingle" unicode="'" horiz-adv-x="233" 
d="M185 657v-71q0 -11 -1.5 -28.5t-4 -35.5t-5 -33.5t-3.5 -24.5l-6 -37h-97l-6 37q-2 9 -4 24.5t-4.5 33.5t-4 35.5t-1.5 28.5v71h137z" />
    <glyph glyph-name="parenleft" unicode="(" horiz-adv-x="327" 
d="M291 19v-130h-10q-112 0 -170 60t-58 163v430q0 103 58 163t170 60h10v-130h-10q-39 0 -61 -23t-22 -63v-444q0 -40 22 -63t61 -23h10z" />
    <glyph glyph-name="parenright" unicode=")" horiz-adv-x="327" 
d="M46 19q39 0 61 23t22 63v444q0 40 -22 63t-61 23h-10v130h10q112 0 170 -60t58 -163v-430q0 -103 -58 -163t-170 -60h-10v130h10z" />
    <glyph glyph-name="asterisk" unicode="*" horiz-adv-x="390" 
d="M180 477l-63 -73l-31 -18l-47 81l31 18l95 19l-95 19l-31 18l46 80l32 -18l63 -75l-31 93v36h93v-36l-30 -90l61 72l32 18l46 -80l-31 -18l-96 -19l96 -19l31 -18l-47 -81l-31 18l-62 71l31 -89v-36h-93v36z" />
    <glyph glyph-name="plus" unicode="+" horiz-adv-x="490" 
d="M315 389h138v-125h-138v-142h-140v142h-138v125h138v141h140v-141z" />
    <glyph glyph-name="comma" unicode="," horiz-adv-x="249" 
d="M209 134l-106 -228h-83l49 228h140z" />
    <glyph glyph-name="hyphen" unicode="-" horiz-adv-x="350" 
d="M54 321h242v-125h-242v125z" />
    <glyph glyph-name="period" unicode="." horiz-adv-x="240" 
d="M41 69q0 33 23 56t56 23t56 -23t23 -56t-23 -56t-56 -23t-56 23t-23 56z" />
    <glyph glyph-name="slash" unicode="/" horiz-adv-x="482" 
d="M456 765l-295 -876h-135l295 876h135z" />
    <glyph glyph-name="zero" unicode="0" horiz-adv-x="552" 
d="M198 206q0 -40 20.5 -63t57.5 -23t57.5 23t20.5 63v245q0 40 -20.5 63t-57.5 23t-57.5 -23t-20.5 -63v-245zM499 203q0 -49 -16 -88.5t-45.5 -67t-70.5 -42.5t-91 -15t-91 15t-70.5 42.5t-45.5 67t-16 88.5v251q0 99 56.5 156t166.5 57q50 0 91 -15t70.5 -42.5t45.5 -67
t16 -88.5v-251z" />
    <glyph glyph-name="one" unicode="1" horiz-adv-x="443" 
d="M46 657h256v-530h115v-127h-371v127h111v401h-111v129z" />
    <glyph glyph-name="two" unicode="2" horiz-adv-x="535" 
d="M42 55q0 32 2.5 62t12.5 58.5t30.5 54t55.5 48.5l122 79q29 19 50.5 45.5t21.5 68.5q0 30 -17.5 48t-53.5 18t-56.5 -19.5t-20.5 -54.5v-17h-140v20q0 43 16 80t45 64t70 42t91 15q49 0 89 -13t68.5 -37.5t44 -59.5t15.5 -78q0 -75 -33 -125.5t-95 -90.5l-115 -75
q-22 -14 -30.5 -28.5t-10.5 -27.5h284v-132h-446v55z" />
    <glyph glyph-name="three" unicode="3" horiz-adv-x="528" 
d="M204 391h42q45 0 63.5 17.5t18.5 56.5q0 35 -19 53.5t-52 18.5q-34 0 -53.5 -19.5t-19.5 -54.5v-12h-140v15q0 42 15.5 79t43.5 64t68 42.5t90 15.5q49 0 88.5 -13.5t67 -38.5t42 -59t14.5 -74q0 -52 -19.5 -86t-50.5 -54q36 -20 58.5 -58t22.5 -98q0 -44 -16 -80.5
t-45 -62t-71 -39.5t-93 -14q-50 0 -90.5 14.5t-69 41t-44 63.5t-15.5 82v15h140v-12q0 -37 20 -58t56 -21q79 0 79 86q0 45 -22.5 62t-66.5 17h-42v111z" />
    <glyph glyph-name="four" unicode="4" horiz-adv-x="569" 
d="M467 657v-402h70v-122h-70v-133h-144v133h-294v139l269 385h169zM323 255v234l-163 -234h163z" />
    <glyph glyph-name="five" unicode="5" horiz-adv-x="526" 
d="M458 530h-267v-143q17 15 43 24.5t63 9.5q43 0 78.5 -14t61 -41t39.5 -66t14 -89q0 -52 -16 -93t-45.5 -69.5t-70.5 -43.5t-91 -15q-49 0 -89.5 12.5t-70 35.5t-45.5 56t-16 75v16h140v-13q0 -28 19 -44t56 -16q39 0 59.5 25t20.5 70t-18 71t-58 26q-31 0 -48.5 -11
t-30.5 -22h-125v386h397v-127z" />
    <glyph glyph-name="six" unicode="6" horiz-adv-x="539" 
d="M498 198q0 -51 -16 -90t-45.5 -65t-70.5 -39.5t-90 -13.5q-50 0 -91 13.5t-70 39.5t-45.5 65.5t-16.5 90.5v245q0 103 57.5 163t166.5 60q48 0 87.5 -13t67.5 -37.5t43 -59.5t15 -78v-9h-140v6q0 29 -19 47.5t-52 18.5q-39 0 -60 -22t-21 -64v-86q20 14 46.5 22.5
t59.5 8.5q89 0 141.5 -53t52.5 -150zM275 284q-29 0 -47 -10t-30 -21v-51q0 -48 20.5 -69t55.5 -21q75 0 75 82q0 41 -18 65.5t-56 24.5z" />
    <glyph glyph-name="seven" unicode="7" horiz-adv-x="468" 
d="M29 657h414v-110l-212 -547h-155l208 530h-255v127z" />
    <glyph glyph-name="eight" unicode="8" horiz-adv-x="531" 
d="M475 482q0 -55 -20 -89.5t-52 -51.5q37 -17 61 -54t24 -101q0 -44 -15.5 -80.5t-44.5 -62t-70 -39.5t-92 -14t-92 14t-70 39.5t-44.5 62t-15.5 80.5q0 64 23.5 100.5t60.5 53.5q-32 18 -52.5 52.5t-20.5 89.5q0 40 14.5 74t42 59t66.5 38.5t88 13.5t87.5 -13.5
t65.5 -38.5t41.5 -59t14.5 -74zM191 195q0 -44 19.5 -65t55.5 -21t55.5 21t19.5 65q0 87 -76 87q-74 0 -74 -87zM198 470q0 -39 16.5 -60t51.5 -21t50.5 21t15.5 60q0 37 -17.5 55t-49.5 18q-67 0 -67 -73z" />
    <glyph glyph-name="nine" unicode="9" horiz-adv-x="538" 
d="M41 459q0 50 16.5 88.5t46 65t70.5 40.5t91 14q49 0 89.5 -14.5t70 -43t45.5 -71.5t16 -100v-225q0 -103 -57.5 -163t-166.5 -60q-48 0 -87.5 13t-67.5 37.5t-43 59t-15 78.5v9h140v-6q0 -29 19 -47.5t52 -18.5q39 0 60 22t21 64v86q-20 -14 -47 -22.5t-59 -8.5
q-89 0 -141.5 53t-52.5 150zM264 373q29 0 46.5 10t30.5 21v31q0 59 -19.5 84.5t-54.5 25.5q-77 0 -77 -82q0 -41 18 -65.5t56 -24.5z" />
    <glyph glyph-name="colon" unicode=":" horiz-adv-x="264" 
d="M53 69q0 33 23 56t56 23t56 -23t23 -56t-23 -56t-56 -23t-56 23t-23 56zM53 421q0 33 23 56t56 23t56 -23t23 -56t-23 -56t-56 -23t-56 23t-23 56z" />
    <glyph glyph-name="semicolon" unicode=";" horiz-adv-x="270" 
d="M213 134l-106 -228h-83l49 228h140zM62 421q0 33 23 56t56 23t56 -23t23 -56t-23 -56t-56 -23t-56 23t-23 56z" />
    <glyph glyph-name="less" unicode="&#x3c;" horiz-adv-x="500" 
d="M38 392l406 140v-126l-246 -76l246 -78v-134l-406 140v134z" />
    <glyph glyph-name="equal" unicode="=" horiz-adv-x="520" 
d="M57 517h406v-125h-406v125zM57 267h406v-125h-406v125z" />
    <glyph glyph-name="greater" unicode="&#x3e;" horiz-adv-x="500" 
d="M462 258l-406 -140v126l246 76l-246 78v134l406 -140v-134z" />
    <glyph glyph-name="question" unicode="?" horiz-adv-x="502" 
d="M188 195l-5 38q-4 29 2.5 51.5t19.5 41t31.5 36t39.5 37.5q18 17 30 34t12 38q0 30 -18 48t-53 18t-54 -19.5t-19 -54.5v-29h-140v32q0 43 15.5 80t43.5 64t68 42t90 15q49 0 89 -13.5t68.5 -38.5t43.5 -59.5t15 -77.5q0 -45 -18.5 -80t-49.5 -64q-34 -31 -59.5 -56
t-30.5 -55l-4 -28h-117zM170 67q0 32 22.5 54.5t54.5 22.5t54.5 -22.5t22.5 -54.5t-22.5 -54.5t-54.5 -22.5t-54.5 22.5t-22.5 54.5z" />
    <glyph glyph-name="at" unicode="@" horiz-adv-x="801" 
d="M242 277q14 72 45 109t90 37q34 0 56.5 -14t33.5 -36l17 42h100l-46 -257q-8 -41 5 -55.5t43 -14.5q28 0 44.5 19.5t16.5 65.5v147q0 47 -17 85t-48.5 65t-76.5 41.5t-101 14.5t-101 -14.5t-76.5 -41.5t-48.5 -65t-17 -85v-177q0 -47 17 -85t48.5 -65t76.5 -41.5
t101 -14.5h94v-105h-94q-80 0 -146 23t-113 65t-73 101.5t-26 133.5v153q0 74 22.5 133.5t67.5 101.5t112 65t156 23q80 0 146 -23t113 -65t73 -101.5t26 -133.5v-123q0 -55 -17 -92.5t-43 -60t-58.5 -32.5t-63.5 -10q-29 0 -55.5 5.5t-47.5 17.5t-35 31t-18 45
q-17 -20 -41.5 -35t-53.5 -15q-32 0 -54 12.5t-35 33.5t-16 50t3 62zM378 131q20 0 32.5 15t17.5 39l17 88q5 24 -6.5 39t-34.5 15q-20 0 -31 -15t-16 -39l-16 -88q-5 -24 4.5 -39t32.5 -15z" />
    <glyph glyph-name="A" unicode="A" horiz-adv-x="560" 
d="M12 0l190 657h156l189 -657h-149l-27 104h-191l-26 -104h-142zM211 227h129l-65 254z" />
    <glyph glyph-name="B" unicode="B" horiz-adv-x="579" 
d="M69 657h251q46 0 84 -12.5t65.5 -35t43 -55t15.5 -71.5q0 -54 -24 -89.5t-69 -54.5v-1q53 -19 81 -58.5t28 -96.5q0 -42 -15.5 -76t-43 -58t-65.5 -36.5t-84 -12.5h-267v657zM213 274v-157h97q42 0 63.5 21t21.5 58q0 35 -22.5 56.5t-62.5 21.5h-97zM213 540v-147h87
q37 0 58.5 19t21.5 56q0 36 -21.5 54t-58.5 18h-87z" />
    <glyph glyph-name="C" unicode="C" horiz-adv-x="557" 
d="M516 231v-18q0 -51 -16.5 -92.5t-46.5 -70.5t-72.5 -44.5t-93.5 -15.5q-53 0 -96 15.5t-74.5 44.5t-48.5 70.5t-17 92.5v231q0 103 60 163t176 60q51 0 93.5 -15.5t72.5 -44.5t46.5 -70.5t16.5 -92.5v-17h-140v14q0 45 -24 70.5t-68 25.5q-41 0 -64.5 -25.5t-23.5 -70.5
v-225q0 -45 23.5 -70.5t64.5 -25.5q44 0 68 25.5t24 70.5v15h140z" />
    <glyph glyph-name="D" unicode="D" horiz-adv-x="597" 
d="M304 657q117 0 180 -61t63 -167v-201q0 -106 -63 -167t-180 -61h-235v657h235zM214 527v-397h90q48 0 73 26.5t25 74.5v195q0 48 -25 74.5t-73 26.5h-90z" />
    <glyph glyph-name="E" unicode="E" horiz-adv-x="529" 
d="M214 269v-139h275v-130h-420v657h410v-130h-265v-130h235v-128h-235z" />
    <glyph glyph-name="F" unicode="F" horiz-adv-x="512" 
d="M214 251v-251h-145v657h410v-130h-265v-146h235v-130h-235z" />
    <glyph glyph-name="G" unicode="G" horiz-adv-x="561" 
d="M296 339h220v-126q0 -51 -16.5 -92.5t-46.5 -70.5t-72.5 -44.5t-93.5 -15.5q-53 0 -96 15.5t-74.5 44.5t-48.5 70.5t-17 92.5v231q0 103 62 163t177 60q51 0 93 -15t71.5 -42.5t45.5 -67t16 -88.5v-17h-140v14q0 40 -22 63t-66 23q-43 0 -67.5 -25.5t-24.5 -70.5v-225
q0 -45 24 -70.5t66 -25.5q46 0 70.5 25.5t24.5 70.5v11h-85v112z" />
    <glyph glyph-name="H" unicode="H" horiz-adv-x="604" 
d="M535 0h-145v268h-176v-268h-145v657h145v-259h176v259h145v-657z" />
    <glyph glyph-name="I" unicode="I" horiz-adv-x="283" 
d="M214 0h-145v657h145v-657z" />
    <glyph glyph-name="J" unicode="J" horiz-adv-x="504" 
d="M158 219v-23q0 -35 18 -55.5t50 -20.5t50 20.5t18 55.5v461h145v-464q0 -47 -15.5 -84.5t-43.5 -64t-67 -40.5t-87 -14t-87 14t-67 40.5t-43.5 64t-15.5 84.5v26h145z" />
    <glyph glyph-name="K" unicode="K" horiz-adv-x="562" 
d="M214 366l172 291h161l-163 -275l169 -382h-162l-109 260l-68 -114v-146h-145v657h145v-291z" />
    <glyph glyph-name="L" unicode="L" horiz-adv-x="472" 
d="M214 130h245v-130h-390v657h145v-527z" />
    <glyph glyph-name="M" unicode="M" horiz-adv-x="684" 
d="M204 374v-374h-135v657h124l150 -263l148 263h124v-657h-141v370l-91 -156h-84z" />
    <glyph glyph-name="N" unicode="N" horiz-adv-x="599" 
d="M530 0h-118l-211 375v-375h-132v657h124l205 -365v365h132v-657z" />
    <glyph glyph-name="O" unicode="O" horiz-adv-x="578" 
d="M196 216q0 -45 24.5 -70.5t68.5 -25.5t68.5 25.5t24.5 70.5v225q0 45 -24.5 70.5t-68.5 25.5t-68.5 -25.5t-24.5 -70.5v-225zM527 213q0 -51 -17 -92.5t-48.5 -70.5t-75.5 -44.5t-97 -15.5t-97 15.5t-75.5 44.5t-48.5 70.5t-17 92.5v231q0 103 60 163t178 60
q53 0 97 -15.5t75.5 -44.5t48.5 -70.5t17 -92.5v-231z" />
    <glyph glyph-name="P" unicode="P" horiz-adv-x="564" 
d="M69 657h240q50 0 92 -15.5t73 -43.5t48 -68t17 -88q0 -51 -17 -92.5t-48 -70.5t-73 -44.5t-92 -15.5h-95v-219h-145v657zM214 530v-184h82q45 0 70 25t25 68q0 42 -25 66.5t-70 24.5h-82z" />
    <glyph glyph-name="Q" unicode="Q" horiz-adv-x="578" 
d="M527 213q0 -63 -25 -110t-70 -76l95 -160h-166l-71 123h-1q-53 0 -97 15.5t-75.5 44.5t-48.5 70.5t-17 92.5v231q0 103 60 163t178 60q53 0 97 -15.5t75.5 -44.5t48.5 -70.5t17 -92.5v-231zM196 216q0 -45 24.5 -70.5t68.5 -25.5t68.5 25.5t24.5 70.5v225
q0 45 -24.5 70.5t-68.5 25.5t-68.5 -25.5t-24.5 -70.5v-225z" />
    <glyph glyph-name="R" unicode="R" horiz-adv-x="581" 
d="M386 0l-86 233h-86v-233h-145v657h243q49 0 90.5 -15t72 -42t47.5 -65.5t17 -85.5q0 -63 -26 -109t-71 -73l103 -267h-159zM214 530v-170h82q45 0 70 23t25 63q0 38 -25 61t-70 23h-82z" />
    <glyph glyph-name="S" unicode="S" horiz-adv-x="536" 
d="M343 454v20q0 34 -22.5 53.5t-57.5 19.5t-54.5 -17.5t-19.5 -44.5q0 -6 2 -14.5t8 -17.5t17 -17.5t30 -14.5l86 -30q32 -11 62.5 -25.5t54 -37t37.5 -55t14 -78.5q0 -45 -16 -82.5t-46 -65t-72.5 -42.5t-94.5 -15t-95.5 14t-75 39.5t-49 62t-17.5 82.5v24h143v-29
q0 -36 24 -54.5t66 -18.5q45 0 68 19.5t23 49.5q0 21 -11.5 40.5t-43.5 30.5l-103 37q-75 27 -113.5 71.5t-38.5 116.5q0 38 14.5 73t42 61.5t67.5 42t91 15.5q50 0 91 -14t70.5 -39.5t45.5 -62t16 -82.5v-15h-143z" />
    <glyph glyph-name="T" unicode="T" horiz-adv-x="482" 
d="M18 657h446v-130h-150v-527h-145v527h-151v130z" />
    <glyph glyph-name="U" unicode="U" horiz-adv-x="592" 
d="M527 657v-444q0 -51 -16.5 -92.5t-47 -70.5t-73 -44.5t-94.5 -15.5t-94.5 15.5t-73 44.5t-47 70.5t-16.5 92.5v444h145v-441q0 -45 22.5 -70.5t63.5 -25.5q40 0 63 25.5t23 70.5v441h145z" />
    <glyph glyph-name="V" unicode="V" horiz-adv-x="535" 
d="M520 657l-175 -657h-156l-174 657h154l102 -446l102 446h147z" />
    <glyph glyph-name="W" unicode="W" horiz-adv-x="723" 
d="M702 657l-134 -657h-134l-73 414l-72 -414h-134l-134 657h146l62 -408l69 408h134l69 -409l63 409h138z" />
    <glyph glyph-name="X" unicode="X" horiz-adv-x="531" 
d="M176 657l96 -185l94 185h146l-171 -307l188 -350h-156l-116 222l-106 -222h-147l181 348l-165 309h156z" />
    <glyph glyph-name="Y" unicode="Y" horiz-adv-x="517" 
d="M156 657l106 -250l105 250h147l-183 -390v-267h-145v265l-183 392h153z" />
    <glyph glyph-name="Z" unicode="Z" horiz-adv-x="485" 
d="M43 657h399v-92l-230 -437h235v-128h-411v92l230 437h-223v128z" />
    <glyph glyph-name="bracketleft" unicode="[" horiz-adv-x="339" 
d="M210 19h93v-130h-238v876h238v-130h-93v-616z" />
    <glyph glyph-name="backslash" unicode="\" horiz-adv-x="487" 
d="M166 765l295 -876h-140l-295 876h140z" />
    <glyph glyph-name="bracketright" unicode="]" horiz-adv-x="339" 
d="M129 635h-93v130h238v-876h-238v130h93v616z" />
    <glyph glyph-name="asciicircum" unicode="^" horiz-adv-x="494" 
d="M304 657l150 -356h-134l-78 209l-76 -209h-126l150 356h114z" />
    <glyph glyph-name="underscore" unicode="_" horiz-adv-x="689" 
d="M55 -30h579v-101h-579v101z" />
    <glyph glyph-name="grave" unicode="`" horiz-adv-x="238" 
d="M20 654l87 79l111 -138l-65 -55z" />
    <glyph glyph-name="a" unicode="a" 
d="M42 306q0 42 10 77.5t30.5 61.5t51.5 40.5t73 14.5q39 0 67.5 -14.5t46.5 -37.5l8 42h123v-490h-123l-8 42q-18 -23 -46.5 -37.5t-67.5 -14.5q-42 0 -73 14.5t-51.5 40.5t-30.5 61.5t-10 77.5v122zM245 112q31 0 49 20t18 52v122q0 32 -18 52t-49 20t-47 -20t-16 -52
v-122q0 -32 16 -52t47 -20z" />
    <glyph glyph-name="b" unicode="b" 
d="M180 0h-123v677h140v-219q18 19 44 30.5t61 11.5q42 0 73 -14.5t51.5 -40.5t30.5 -61.5t10 -77.5v-122q0 -42 -10 -77.5t-30.5 -61.5t-51.5 -40.5t-73 -14.5q-39 0 -67.5 14.5t-46.5 37.5zM264 112q31 0 47 20t16 52v122q0 32 -16 52t-47 20t-49 -20t-18 -52v-122
q0 -32 18 -52t49 -20z" />
    <glyph glyph-name="c" unicode="c" horiz-adv-x="475" 
d="M441 191v-6q0 -46 -14.5 -82t-40.5 -61t-62.5 -38.5t-80.5 -13.5q-45 0 -82.5 14t-64.5 40t-41.5 63t-14.5 83v110q0 46 14.5 83t41.5 63t64.5 40t82.5 14q44 0 80.5 -13.5t62.5 -38t40.5 -59.5t14.5 -78v-2h-135v11q0 27 -17 44.5t-46 17.5q-30 0 -46.5 -20t-16.5 -52
v-130q0 -32 16.5 -52t46.5 -20q29 0 46 17t17 49v17h135z" />
    <glyph glyph-name="d" unicode="d" 
d="M321 42q-18 -23 -46.5 -37.5t-67.5 -14.5q-42 0 -73 14.5t-51.5 40.5t-30.5 61.5t-10 77.5v122q0 42 10 77.5t30.5 61.5t51.5 40.5t73 14.5q35 0 61 -11.5t44 -30.5v219h140v-677h-123zM245 112q31 0 49 20t18 52v122q0 32 -18 52t-49 20t-47 -20t-16 -52v-122
q0 -32 16 -52t47 -20z" />
    <glyph glyph-name="e" unicode="e" horiz-adv-x="475" 
d="M438 173v-3q0 -41 -14.5 -74.5t-40 -57t-62 -36t-79.5 -12.5q-45 0 -82 14t-64 40t-41.5 63t-14.5 83v110q0 46 14.5 83t41.5 63t64 40t82 14q43 0 79.5 -14t62 -40t40 -63t14.5 -83v-83h-261v-42q0 -32 18 -53t49 -21q29 0 45 18.5t16 48.5v5h133zM177 310h128v7
q0 32 -17 52t-46 20q-31 0 -48 -20t-17 -52v-7z" />
    <glyph glyph-name="f" unicode="f" horiz-adv-x="345" 
d="M24 485h65v12q0 91 48 135.5t140 44.5h52v-118h-35q-33 0 -49 -14t-16 -40v-20h95v-118h-95v-367h-140v367h-65v118z" />
    <glyph glyph-name="g" unicode="g" 
d="M42 306q0 42 10 77.5t30.5 61.5t51.5 40.5t73 14.5q39 0 67.5 -14.5t46.5 -37.5l8 42h123v-502q0 -42 -14.5 -76.5t-41.5 -58.5t-64.5 -37t-82.5 -13t-82 12t-64 33.5t-41.5 51t-14.5 65.5v3h135v-8q0 -20 16 -33.5t49 -13.5q35 0 50 19.5t15 52.5v66q-18 -19 -44 -30
t-61 -11q-42 0 -73 14.5t-51.5 40.5t-30.5 61.5t-10 77.5v102zM245 132q31 0 49 20t18 52v102q0 32 -18 52t-49 20t-47 -20t-16 -52v-102q0 -32 16 -52t47 -20z" />
    <glyph glyph-name="h" unicode="h" horiz-adv-x="520" 
d="M57 0v677h140v-221q19 20 46.5 32t63.5 12q42 0 72 -14t49.5 -38.5t29 -58t9.5 -73.5v-316h-140v306q0 32 -16 52t-47 20t-49 -20t-18 -52v-306h-140z" />
    <glyph glyph-name="i" unicode="i" horiz-adv-x="254" 
d="M50 620q0 32 22.5 54.5t54.5 22.5t54.5 -22.5t22.5 -54.5t-22.5 -54.5t-54.5 -22.5t-54.5 22.5t-22.5 54.5zM197 490v-490h-140v490h140z" />
    <glyph glyph-name="j" unicode="j" horiz-adv-x="254" 
d="M-8 -79q33 0 49 14t16 40v515h140v-507q0 -91 -48 -135.5t-140 -44.5h-37v118h20zM49 620q0 32 22.5 54.5t54.5 22.5t54.5 -22.5t22.5 -54.5t-22.5 -54.5t-54.5 -22.5t-54.5 22.5t-22.5 54.5z" />
    <glyph glyph-name="k" unicode="k" horiz-adv-x="489" 
d="M197 677v-359l125 172h151l-142 -188l150 -302h-154l-90 192l-40 -57v-135h-140v677h140z" />
    <glyph glyph-name="l" unicode="l" horiz-adv-x="254" 
d="M197 677v-677h-140v677h140z" />
    <glyph glyph-name="m" unicode="m" horiz-adv-x="780" 
d="M57 0v490h123l8 -44q18 24 47.5 39t69.5 15q50 0 83 -20.5t51 -55.5q16 32 49 54t82 22q41 0 70.5 -14t49 -38.5t28.5 -58t9 -73.5v-316h-140v306q0 32 -15.5 52t-44.5 20t-46 -18.5t-19 -47.5v-312h-140v306q0 32 -15.5 52t-44.5 20q-30 0 -47.5 -20t-17.5 -52v-306
h-140z" />
    <glyph glyph-name="n" unicode="n" horiz-adv-x="520" 
d="M57 0v490h123l8 -44q19 24 49 39t70 15q42 0 72 -14t49.5 -38.5t29 -58t9.5 -73.5v-316h-140v306q0 32 -16 52t-47 20t-49 -20t-18 -52v-306h-140z" />
    <glyph glyph-name="o" unicode="o" horiz-adv-x="490" 
d="M180 180q0 -32 17 -52t48 -20t48 20t17 52v130q0 32 -17 52t-48 20t-48 -20t-17 -52v-130zM450 190q0 -46 -15 -83t-42 -63t-64.5 -40t-83.5 -14t-83.5 14t-64.5 40t-42 63t-15 83v110q0 46 15 83t42 63t64.5 40t83.5 14t83.5 -14t64.5 -40t42 -63t15 -83v-110z" />
    <glyph glyph-name="p" unicode="p" 
d="M188 448q18 23 46.5 37.5t67.5 14.5q42 0 73 -14.5t51.5 -40.5t30.5 -61.5t10 -77.5v-122q0 -42 -10 -77.5t-30.5 -61.5t-51.5 -40.5t-73 -14.5q-35 0 -61 11.5t-44 30.5v-219h-140v677h123zM264 378q-31 0 -49 -20t-18 -52v-122q0 -32 18 -52t49 -20t47 20t16 52v122
q0 32 -16 52t-47 20z" />
    <glyph glyph-name="q" unicode="q" 
d="M329 490h123v-677h-140v219q-18 -19 -44 -30.5t-61 -11.5q-42 0 -73 14.5t-51.5 40.5t-30.5 61.5t-10 77.5v122q0 42 10 77.5t30.5 61.5t51.5 40.5t73 14.5q39 0 67.5 -14.5t46.5 -37.5zM245 378q-31 0 -47 -20t-16 -52v-122q0 -32 16 -52t47 -20t49 20t18 52v122
q0 32 -18 52t-49 20z" />
    <glyph glyph-name="r" unicode="r" horiz-adv-x="345" 
d="M57 0v490h123l10 -53q16 26 42.5 44.5t62.5 18.5q17 0 32 -4v-132q-23 5 -46 5q-16 0 -31 -3.5t-27 -12t-19 -22.5t-7 -36v-295h-140z" />
    <glyph glyph-name="s" unicode="s" horiz-adv-x="452" 
d="M161 158v-19q0 -23 17 -34.5t46 -11.5q63 0 63 43q0 15 -10 24.5t-35 17.5l-83 26q-51 16 -84.5 51t-33.5 95q0 29 12 56.5t35.5 48.5t57 33.5t75.5 12.5q88 0 139.5 -39.5t51.5 -109.5v-12h-130v14q0 20 -15 32t-44 12q-25 0 -39 -10t-14 -27q0 -10 7 -20.5t36 -18.5
l65 -20q27 -9 52.5 -20.5t45 -29t31 -42.5t11.5 -61q0 -71 -50.5 -115.5t-141.5 -44.5q-43 0 -78.5 10.5t-61.5 30.5t-40.5 48.5t-14.5 63.5v16h130z" />
    <glyph glyph-name="t" unicode="t" horiz-adv-x="338" 
d="M23 485h75v134h140v-134h77v-118h-77v-367h-140v367h-75v118z" />
    <glyph glyph-name="u" unicode="u" horiz-adv-x="515" 
d="M53 490h140v-316q0 -28 14.5 -45t43.5 -17q31 0 49 20t18 52v306h140v-490h-123l-9 43q-18 -23 -48 -38t-70 -15q-41 0 -70 13t-48 36.5t-28 55t-9 69.5v326z" />
    <glyph glyph-name="v" unicode="v" horiz-adv-x="468" 
d="M160 0l-147 490h150l75 -312l74 312h143l-147 -490h-148z" />
    <glyph glyph-name="w" unicode="w" horiz-adv-x="693" 
d="M223 190l68 300h115l68 -300l60 300h144l-137 -490h-128l-67 267l-66 -267h-128l-137 490h148z" />
    <glyph glyph-name="x" unicode="x" horiz-adv-x="467" 
d="M166 490l71 -132l70 132h147l-149 -235l154 -255h-152l-79 141l-72 -141h-147l149 243l-144 247h152z" />
    <glyph glyph-name="y" unicode="y" horiz-adv-x="467" 
d="M114 -187l56 168l-157 509h149l75 -303l75 303h143l-210 -677h-131z" />
    <glyph glyph-name="z" unicode="z" horiz-adv-x="441" 
d="M41 490h359v-80l-191 -296h196v-114h-371v80l191 296h-184v114z" />
    <glyph glyph-name="braceleft" unicode="{" horiz-adv-x="368" 
d="M94 206q0 31 -16.5 48.5t-46.5 17.5h-11v110h11q30 0 46.5 17.5t16.5 48.5v114q0 94 55.5 148.5t162.5 54.5h20v-130h-20q-35 0 -54 -20.5t-19 -55.5v-114q0 -78 -62 -118q62 -42 62 -118v-114q0 -35 19 -55.5t54 -20.5h20v-130h-20q-107 0 -162.5 54.5t-55.5 148.5v114z
" />
    <glyph glyph-name="bar" unicode="|" horiz-adv-x="265" 
d="M200 -111h-135v876h135v-876z" />
    <glyph glyph-name="braceright" unicode="}" horiz-adv-x="368" 
d="M274 92q0 -94 -55.5 -148.5t-162.5 -54.5h-20v130h20q35 0 54 20.5t19 55.5v114q0 76 62 118q-62 40 -62 118v114q0 35 -19 55.5t-54 20.5h-20v130h20q107 0 162.5 -54.5t55.5 -148.5v-114q0 -31 16.5 -48.5t46.5 -17.5h11v-110h-11q-30 0 -46.5 -17.5t-16.5 -48.5v-114z
" />
    <glyph glyph-name="asciitilde" unicode="~" horiz-adv-x="537" 
d="M506 330q-29 -54 -68 -85.5t-83 -31.5q-32 0 -55 10.5t-55 30.5q-16 10 -31 18.5t-34 8.5q-22 0 -40.5 -20t-39.5 -49l-69 60q12 24 29 45t37 37t42 25t45 9q35 0 59.5 -12t43.5 -24q22 -15 36 -22.5t31 -7.5q20 0 37 15.5t39 50.5z" />
    <glyph glyph-name="uni00A0" unicode="&#xa0;" horiz-adv-x="190" 
 />
    <glyph glyph-name="exclamdown" unicode="&#xa1;" horiz-adv-x="252" 
d="M198 0v-167h-144v167l30 295h84zM47 421q0 33 23 56t56 23t56 -23t23 -56t-23 -56t-56 -23t-56 23t-23 56z" />
    <glyph glyph-name="cent" unicode="&#xa2;" horiz-adv-x="483" 
d="M297 667v-89q67 -14 106.5 -62t39.5 -121v-2h-135v11q0 27 -17 44.5t-46 17.5q-32 0 -47.5 -20t-15.5 -52v-130q0 -32 15.5 -52t47.5 -20q29 0 46 17t17 49v17h135v-6q0 -78 -39.5 -127t-106.5 -63v-89h-103v89q-70 14 -111 65.5t-41 129.5v110q0 78 41 129.5t111 65.5
v88h103z" />
    <glyph glyph-name="sterling" unicode="&#xa3;" horiz-adv-x="565" 
d="M43 342h59v120q0 47 15.5 85t43 64.5t65.5 41t84 14.5t84 -14.5t65.5 -41t42.5 -64.5t15 -85v-35h-140v32q0 36 -17 57t-49 21t-48 -21t-16 -57v-117h152v-113h-152v-101h274v-128h-478v128h59v101h-59v113z" />
    <glyph glyph-name="currency" unicode="&#xa4;" horiz-adv-x="621" 
d="M582 512l-78 -73q11 -21 17.5 -45.5t6.5 -52.5v-13q0 -28 -6.5 -53t-17.5 -46l78 -72l-88 -87l-74 79q-48 -24 -110 -24t-110 24l-73 -79l-88 87l77 72q-24 42 -24 99v13q0 56 22 100l-75 71l88 87l71 -78q49 23 112 23q60 0 110 -25l74 80zM232 331q0 -35 21.5 -55.5
t56.5 -20.5t56.5 20.5t21.5 55.5v7q0 35 -21.5 55.5t-56.5 20.5t-56.5 -20.5t-21.5 -55.5v-7z" />
    <glyph glyph-name="yen" unicode="&#xa5;" horiz-adv-x="565" 
d="M533 657l-120 -255h75v-83h-114l-22 -48h136v-83h-138v-188h-135v188h-138v83h135l-23 48h-112v83h74l-119 255h147l107 -253l105 253h142z" />
    <glyph glyph-name="brokenbar" unicode="&#xa6;" horiz-adv-x="277" 
d="M66 765h145v-360h-145v360zM66 249h145v-360h-145v360z" />
    <glyph glyph-name="section" unicode="&#xa7;" horiz-adv-x="513" 
d="M188 292q-70 26 -106 70t-36 113q0 38 13.5 73t39.5 61.5t64 42t87 15.5q48 0 87 -13.5t67.5 -38.5t44 -60.5t15.5 -80.5v-15h-135v25q0 32 -20.5 50t-57.5 18t-54.5 -17.5t-17.5 -44.5q0 -8 1.5 -17.5t7.5 -20t17 -20t29 -16.5l106 -40q29 -11 52.5 -23.5t40.5 -31
t26 -45t9 -64.5v-22zM326 177q70 -26 106 -70t36 -113q0 -38 -13.5 -73t-39.5 -61.5t-64 -42t-87 -15.5q-48 0 -87 13.5t-67.5 38.5t-44 60.5t-15.5 80.5v15h135v-25q0 -32 20.5 -50t57.5 -18t54.5 17.5t17.5 44.5q0 7 -1.5 17t-7.5 20.5t-17 20t-29 16.5l-106 40
q-29 11 -52.5 23.5t-40.5 31t-26 45t-9 64.5v22z" />
    <glyph glyph-name="dieresis" unicode="&#xa8;" horiz-adv-x="322" 
d="M20 614q0 28 19.5 46.5t47.5 18.5q27 0 45.5 -18.5t18.5 -46.5t-18.5 -47.5t-45.5 -19.5q-28 0 -47.5 19.5t-19.5 47.5zM171 614q0 28 19 46.5t46 18.5q28 0 47 -18.5t19 -46.5t-19 -47.5t-47 -19.5q-27 0 -46 19.5t-19 47.5z" />
    <glyph glyph-name="copyright" unicode="&#xa9;" horiz-adv-x="757" 
d="M544 294v-5q0 -73 -45 -114t-118 -41q-37 0 -68 11.5t-53 33t-34 51.5t-12 68v61q0 38 12 68.5t34 52t53 33t68 11.5q73 0 118 -41t45 -110v-1h-111v9q0 20 -13 32.5t-37 12.5q-25 0 -39.5 -16t-14.5 -42v-77q0 -26 14.5 -43t39.5 -17q50 0 50 50v13h111zM39 327
q0 70 26.5 132t72.5 108.5t107.5 73t132.5 26.5q70 0 132 -26.5t108.5 -73t73 -108.5t26.5 -132q0 -71 -26.5 -132.5t-73 -107t-108.5 -72t-132 -26.5q-71 0 -132.5 26.5t-107.5 72t-72.5 107t-26.5 132.5zM112 327q0 -57 21 -106t57 -85.5t84.5 -57.5t103.5 -21t103.5 21
t85 57.5t57.5 85.5t21 106q0 56 -21 105.5t-57.5 86.5t-85 58.5t-103.5 21.5t-103.5 -21.5t-84.5 -58.5t-57 -86.5t-21 -105.5z" />
    <glyph glyph-name="ordfeminine" unicode="&#xaa;" horiz-adv-x="314" 
d="M44 562q0 42 19 71t62 29q19 0 31.5 -6.5t20.5 -16.5l3 18h80v-245h-80l-3 17q-8 -9 -21 -15.5t-31 -6.5q-43 0 -62 29t-19 71v55zM151 482q9 0 15 6.5t6 17.5v57q0 11 -6 17.5t-15 6.5t-14 -7.5t-5 -18.5v-53q0 -26 19 -26z" />
    <glyph glyph-name="guillemotleft" unicode="&#xab;" horiz-adv-x="403" 
d="M252 398h104l-45 -165l45 -165h-104l-59 165zM103 398h104l-49 -165l49 -165h-104l-63 165z" />
    <glyph glyph-name="logicalnot" unicode="&#xac;" horiz-adv-x="524" 
d="M48 389h416v-267h-140v142h-276v125z" />
    <glyph glyph-name="uni00AD" unicode="&#xad;" horiz-adv-x="350" 
d="M54 321h242v-125h-242v125z" />
    <glyph glyph-name="registered" unicode="&#xae;" horiz-adv-x="538" 
d="M49 446q0 46 17 86t46.5 70t69.5 47.5t86 17.5t86 -17.5t70 -47.5t47.5 -70t17.5 -86t-17.5 -86t-47.5 -69.5t-70 -46.5t-86 -17t-86 17t-69.5 46.5t-46.5 69.5t-17 86zM107 446q0 -35 12.5 -65t34 -52t51 -35t63.5 -13t63.5 13t51.5 35t34.5 52t12.5 65q0 34 -12.5 64.5
t-34.5 53t-51.5 35.5t-63.5 13t-63.5 -13t-51 -35.5t-34 -53t-12.5 -64.5zM297 335l-25 78h-29v-78h-62v221h101q35 0 59 -19t24 -51q0 -20 -9 -35t-23 -25l33 -91h-69zM243 509v-51h30q14 0 20.5 7.5t6.5 18.5q0 25 -27 25h-30z" />
    <glyph glyph-name="macron" unicode="&#xaf;" horiz-adv-x="282" 
d="M20 657h242v-98h-242v98z" />
    <glyph glyph-name="degree" unicode="&#xb0;" horiz-adv-x="454" 
d="M33 473q0 40 15 75.5t41.5 61.5t61.5 41.5t75 15.5t76 -15.5t62 -41.5t41.5 -61.5t15.5 -75.5q0 -41 -15.5 -76t-41.5 -61.5t-62 -41.5t-76 -15t-75 15t-61.5 41.5t-41.5 61.5t-15 76zM140 473q0 -19 6.5 -36t18.5 -29.5t27.5 -19.5t33.5 -7t34 7t28 19.5t19 29.5t7 36
q0 38 -25.5 64.5t-62.5 26.5q-18 0 -33.5 -7t-27.5 -19.5t-18.5 -29t-6.5 -35.5z" />
    <glyph glyph-name="plusminus" unicode="&#xb1;" horiz-adv-x="521" 
d="M329 419h142v-95h-142v-112h-132v112h-142v95h142v111h132v-111zM55 181h406v-85h-406v85z" />
    <glyph glyph-name="uni00B2" unicode="&#xb2;" horiz-adv-x="292" 
d="M27 525q0 6 0.5 17.5t4.5 25t12 26.5t23 23l66 42q12 8 22.5 19t10.5 31q0 23 -21 23q-26 0 -26 -27v-7h-88v10q0 45 31.5 75t85.5 30q52 0 82.5 -27t30.5 -72q0 -42 -17.5 -67.5t-50.5 -46.5l-48 -30q-2 -2 -3.5 -2.5t-3.5 -2.5t-4 -3h127v-82h-234v45z" />
    <glyph glyph-name="uni00B3" unicode="&#xb3;" horiz-adv-x="285" 
d="M111 683h19q16 0 23 4.5t7 21.5q0 26 -22 26q-10 0 -16.5 -7t-6.5 -21v-4h-88v7q0 44 30.5 75t83.5 31q52 0 81 -26.5t29 -68.5q0 -26 -9 -42.5t-23 -25.5q16 -9 26.5 -27.5t10.5 -47.5q0 -45 -31.5 -72.5t-85.5 -27.5t-84 29t-30 77v8h88v-5q0 -32 24 -32q26 0 26 32
q0 19 -9.5 23.5t-23.5 4.5h-19v68z" />
    <glyph glyph-name="acute" unicode="&#xb4;" horiz-adv-x="238" 
d="M85 540l-65 55l111 138l87 -79z" />
    <glyph glyph-name="mu" unicode="&#xb5;" horiz-adv-x="516" 
d="M62 490h140v-316q0 -28 14.5 -45t43.5 -17t47 18.5t20 47.5v312h140v-490h-123l-9 43q-18 -23 -48 -38t-70 -15q-5 0 -10 0.5t-10 0.5l5 -131v-47h-140v677z" />
    <glyph glyph-name="paragraph" unicode="&#xb6;" horiz-adv-x="568" 
d="M273 179h-9q-50 0 -92.5 16t-73 47t-47.5 75t-17 101q0 55 18 99t50.5 75t77.5 48t99 17h215v-768h-145v641h-76v-351z" />
    <glyph glyph-name="periodcentered" unicode="&#xb7;" horiz-adv-x="244" 
d="M43 280q0 33 23 56t56 23t56 -23t23 -56t-23 -56t-56 -23t-56 23t-23 56z" />
    <glyph glyph-name="cedilla" unicode="&#xb8;" horiz-adv-x="240" 
d="M41 -82l29 99h74l-17 -55h12q39 0 60 -19t21 -54t-22 -55.5t-59 -20.5h-119v63h103q6 0 10.5 2.5t4.5 9.5t-4.5 9.5t-10.5 2.5h-60z" />
    <glyph glyph-name="uni00B9" unicode="&#xb9;" horiz-adv-x="249" 
d="M31 811h145v-250h56v-78h-201v78h54v170h-54v80z" />
    <glyph glyph-name="ordmasculine" unicode="&#xba;" horiz-adv-x="299" 
d="M130 502q0 -23 19 -23q20 0 20 23v63q0 23 -20 23q-19 0 -19 -23v-63zM257 508q0 -47 -30 -74.5t-78 -27.5t-77.5 27.5t-29.5 74.5v50q0 48 29.5 75.5t77.5 27.5t78 -27.5t30 -75.5v-50z" />
    <glyph glyph-name="guillemotright" unicode="&#xbb;" horiz-adv-x="403" 
d="M210 233l-59 -165h-104l45 165l-45 165h104zM363 233l-63 -165h-104l49 165l-49 165h104z" />
    <glyph glyph-name="onequarter" unicode="&#xbc;" horiz-adv-x="684" 
d="M614 328v-192h34v-75h-34v-61h-91v61h-142v86l129 181h104zM523 136v85l-61 -85h61zM484 657h105l-189 -329l-179 -328h-105l190 330zM44 657h145v-250h56v-78h-201v78h54v170h-54v80z" />
    <glyph glyph-name="onehalf" unicode="&#xbd;" horiz-adv-x="682" 
d="M482 657h105l-189 -329l-179 -328h-105l190 330zM42 657h145v-250h56v-78h-201v78h54v170h-54v80zM408 45q0 6 0.5 17.5t4.5 25t12 26.5t23 23l66 42q12 8 22.5 19t10.5 31q0 23 -21 23q-26 0 -26 -27v-7h-88v10q0 45 31.5 75t85.5 30q52 0 82.5 -27t30.5 -72
q0 -42 -17.5 -67.5t-50.5 -46.5l-48 -30q-2 -2 -3.5 -2.5t-3.5 -2.5t-4 -3h127v-82h-234v45z" />
    <glyph glyph-name="threequarters" unicode="&#xbe;" horiz-adv-x="672" 
d="M602 328v-192h34v-75h-34v-61h-91v61h-142v86l129 181h104zM511 136v85l-61 -85h61zM472 657h105l-189 -329l-179 -328h-105l190 330zM125 534h19q16 0 23 4.5t7 21.5q0 26 -22 26q-10 0 -16.5 -7t-6.5 -21v-4h-88v7q0 44 30.5 75t83.5 31q52 0 81 -26.5t29 -68.5
q0 -26 -9 -42.5t-23 -25.5q16 -9 26.5 -27.5t10.5 -47.5q0 -45 -31.5 -72.5t-85.5 -27.5t-84 29t-30 77v8h88v-5q0 -32 24 -32q26 0 26 32q0 19 -9.5 23.5t-23.5 4.5h-19v68z" />
    <glyph glyph-name="questiondown" unicode="&#xbf;" horiz-adv-x="497" 
d="M311 295l5 -38q4 -29 -2.5 -51.5t-19.5 -41t-31.5 -36t-39.5 -37.5q-18 -17 -30 -34t-12 -38q0 -30 18 -48t53 -18t54 19.5t19 54.5v29h140v-32q0 -44 -15.5 -80.5t-43.5 -63.5t-68.5 -42t-89.5 -15q-50 0 -89.5 13.5t-68 38t-43.5 59.5t-15 78q0 45 18.5 80t49.5 64
q34 31 59.5 56t30.5 55l4 28h117zM329 423q0 -32 -22.5 -54.5t-54.5 -22.5t-54.5 22.5t-22.5 54.5t22.5 54.5t54.5 22.5t54.5 -22.5t22.5 -54.5z" />
    <glyph glyph-name="Agrave" unicode="&#xc0;" horiz-adv-x="560" 
d="M12 0l190 657h156l189 -657h-149l-27 104h-191l-26 -104h-142zM211 227h129l-65 254zM147 808l87 79l111 -138l-65 -55z" />
    <glyph glyph-name="Aacute" unicode="&#xc1;" horiz-adv-x="560" 
d="M12 0l190 657h156l189 -657h-149l-27 104h-191l-26 -104h-142zM211 227h129l-65 254zM276 694l-65 55l111 138l87 -79z" />
    <glyph glyph-name="Acircumflex" unicode="&#xc2;" horiz-adv-x="560" 
d="M12 0l190 657h156l189 -657h-149l-27 104h-191l-26 -104h-142zM211 227h129l-65 254zM308 878l111 -138l-55 -46l-86 74l-85 -73l-53 45l111 138h57z" />
    <glyph glyph-name="Atilde" unicode="&#xc3;" horiz-adv-x="560" 
d="M12 0l190 657h156l189 -657h-149l-27 104h-191l-26 -104h-142zM211 227h129l-65 254zM443 825q1 -7 1 -13v-12q0 -29 -7.5 -49t-20 -32t-28.5 -17.5t-34 -5.5q-31 0 -56 12l-44 21q-7 3 -14 5.5t-15 2.5q-11 0 -18 -6t-11 -13q-4 -8 -6 -18h-72q-2 8 -3 15.5t-1 15.5
q0 45 28 72.5t70 27.5q26 0 51 -11l41 -19q8 -4 18.5 -8.5t18.5 -4.5q10 0 15.5 5.5t9.5 12.5q4 8 6 19h71z" />
    <glyph glyph-name="Adieresis" unicode="&#xc4;" horiz-adv-x="560" 
d="M12 0l190 657h156l189 -657h-149l-27 104h-191l-26 -104h-142zM211 227h129l-65 254zM138 767q0 28 19.5 46.5t47.5 18.5q27 0 45.5 -18.5t18.5 -46.5t-18.5 -47.5t-45.5 -19.5q-28 0 -47.5 19.5t-19.5 47.5zM289 767q0 28 19 46.5t46 18.5q28 0 47 -18.5t19 -46.5
t-19 -47.5t-47 -19.5q-27 0 -46 19.5t-19 47.5z" />
    <glyph glyph-name="Aring" unicode="&#xc5;" horiz-adv-x="560" 
d="M12 0l182 629q-14 14 -20.5 32.5t-6.5 39.5q0 45 30 75.5t81 30.5q25 0 46 -8.5t36 -22.5t23 -33.5t8 -41.5q0 -42 -26 -70l182 -631h-149l-27 104h-191l-26 -104h-142zM211 227h129l-65 254zM278 658q20 0 30 12t10 31q0 18 -10 29.5t-30 11.5q-19 0 -29 -11.5
t-10 -29.5q0 -19 10 -31t29 -12z" />
    <glyph glyph-name="AE" unicode="&#xc6;" horiz-adv-x="850" 
d="M-5 0l315 657h490v-130h-275v-130h245v-128h-245v-139h285v-130h-430v105h-184l-46 -105h-155zM380 228v298l-131 -298h131z" />
    <glyph glyph-name="Ccedilla" unicode="&#xc7;" horiz-adv-x="557" 
d="M203 -82l23 78q-80 16 -127.5 72.5t-47.5 144.5v231q0 103 60 163t176 60q51 0 93.5 -15.5t72.5 -44.5t46.5 -70.5t16.5 -92.5v-17h-140v14q0 45 -24 70.5t-68 25.5q-41 0 -64.5 -25.5t-23.5 -70.5v-225q0 -45 23.5 -70.5t64.5 -25.5q44 0 68 25.5t24 70.5v15h140v-18
q0 -50 -16 -90.5t-44.5 -69.5t-69 -45t-89.5 -18l-8 -28h12q39 0 60 -19t21 -54t-22 -55.5t-59 -20.5h-119v63h103q6 0 10.5 2.5t4.5 9.5t-4.5 9.5t-10.5 2.5h-60z" />
    <glyph glyph-name="Egrave" unicode="&#xc8;" horiz-adv-x="529" 
d="M146 808l87 79l111 -138l-65 -55zM214 269v-139h275v-130h-420v657h410v-130h-265v-130h235v-128h-235z" />
    <glyph glyph-name="Eacute" unicode="&#xc9;" horiz-adv-x="529" 
d="M214 269v-139h275v-130h-420v657h410v-130h-265v-130h235v-128h-235zM277 694l-65 55l111 138l87 -79z" />
    <glyph glyph-name="Ecircumflex" unicode="&#xca;" horiz-adv-x="529" 
d="M307 878l111 -138l-55 -46l-86 74l-85 -73l-53 45l111 138h57zM214 269v-139h275v-130h-420v657h410v-130h-265v-130h235v-128h-235z" />
    <glyph glyph-name="Edieresis" unicode="&#xcb;" horiz-adv-x="529" 
d="M214 269v-139h275v-130h-420v657h410v-130h-265v-130h235v-128h-235zM138 767q0 28 19.5 46.5t47.5 18.5q27 0 45.5 -18.5t18.5 -46.5t-18.5 -47.5t-45.5 -19.5q-28 0 -47.5 19.5t-19.5 47.5zM289 767q0 28 19 46.5t46 18.5q28 0 47 -18.5t19 -46.5t-19 -47.5t-47 -19.5
q-27 0 -46 19.5t-19 47.5z" />
    <glyph glyph-name="Igrave" unicode="&#xcc;" horiz-adv-x="283" 
d="M214 0h-145v657h145v-657zM10 808l87 79l111 -138l-65 -55z" />
    <glyph glyph-name="Iacute" unicode="&#xcd;" horiz-adv-x="283" 
d="M214 0h-145v657h145v-657zM141 694l-65 55l111 138l87 -79z" />
    <glyph glyph-name="Icircumflex" unicode="&#xce;" horiz-adv-x="283" 
d="M214 0h-145v657h145v-657zM170 878l111 -138l-55 -46l-86 74l-85 -73l-53 45l111 138h57z" />
    <glyph glyph-name="Idieresis" unicode="&#xcf;" horiz-adv-x="283" 
d="M214 0h-145v657h145v-657zM1 767q0 28 19.5 46.5t47.5 18.5q27 0 45.5 -18.5t18.5 -46.5t-18.5 -47.5t-45.5 -19.5q-28 0 -47.5 19.5t-19.5 47.5zM152 767q0 28 19 46.5t46 18.5q28 0 47 -18.5t19 -46.5t-19 -47.5t-47 -19.5q-27 0 -46 19.5t-19 47.5z" />
    <glyph glyph-name="Eth" unicode="&#xd0;" horiz-adv-x="603" 
d="M310 657q117 0 180 -61t63 -167v-201q0 -106 -63 -167t-180 -61h-235v273h-65v118h65v266h235zM220 527v-136h90v-118h-90v-143h90q48 0 73 26.5t25 74.5v195q0 48 -25 74.5t-73 26.5h-90z" />
    <glyph glyph-name="Ntilde" unicode="&#xd1;" horiz-adv-x="599" 
d="M463 825q1 -7 1 -13v-12q0 -29 -7.5 -49t-20 -32t-28.5 -17.5t-34 -5.5q-31 0 -56 12l-44 21q-7 3 -14 5.5t-15 2.5q-11 0 -18 -6t-11 -13q-4 -8 -6 -18h-72q-2 8 -3 15.5t-1 15.5q0 45 28 72.5t70 27.5q26 0 51 -11l41 -19q8 -4 18.5 -8.5t18.5 -4.5q10 0 15.5 5.5
t9.5 12.5q4 8 6 19h71zM530 0h-118l-211 375v-375h-132v657h124l205 -365v365h132v-657z" />
    <glyph glyph-name="Ograve" unicode="&#xd2;" horiz-adv-x="578" 
d="M155 808l87 79l111 -138l-65 -55zM196 216q0 -45 24.5 -70.5t68.5 -25.5t68.5 25.5t24.5 70.5v225q0 45 -24.5 70.5t-68.5 25.5t-68.5 -25.5t-24.5 -70.5v-225zM527 213q0 -51 -17 -92.5t-48.5 -70.5t-75.5 -44.5t-97 -15.5t-97 15.5t-75.5 44.5t-48.5 70.5t-17 92.5v231
q0 103 60 163t178 60q53 0 97 -15.5t75.5 -44.5t48.5 -70.5t17 -92.5v-231z" />
    <glyph glyph-name="Oacute" unicode="&#xd3;" horiz-adv-x="578" 
d="M289 694l-65 55l111 138l87 -79zM196 216q0 -45 24.5 -70.5t68.5 -25.5t68.5 25.5t24.5 70.5v225q0 45 -24.5 70.5t-68.5 25.5t-68.5 -25.5t-24.5 -70.5v-225zM527 213q0 -51 -17 -92.5t-48.5 -70.5t-75.5 -44.5t-97 -15.5t-97 15.5t-75.5 44.5t-48.5 70.5t-17 92.5v231
q0 103 60 163t178 60q53 0 97 -15.5t75.5 -44.5t48.5 -70.5t17 -92.5v-231z" />
    <glyph glyph-name="Ocircumflex" unicode="&#xd4;" horiz-adv-x="578" 
d="M317 878l111 -138l-55 -46l-86 74l-85 -73l-53 45l111 138h57zM196 216q0 -45 24.5 -70.5t68.5 -25.5t68.5 25.5t24.5 70.5v225q0 45 -24.5 70.5t-68.5 25.5t-68.5 -25.5t-24.5 -70.5v-225zM527 213q0 -51 -17 -92.5t-48.5 -70.5t-75.5 -44.5t-97 -15.5t-97 15.5
t-75.5 44.5t-48.5 70.5t-17 92.5v231q0 103 60 163t178 60q53 0 97 -15.5t75.5 -44.5t48.5 -70.5t17 -92.5v-231z" />
    <glyph glyph-name="Otilde" unicode="&#xd5;" horiz-adv-x="578" 
d="M196 216q0 -45 24.5 -70.5t68.5 -25.5t68.5 25.5t24.5 70.5v225q0 45 -24.5 70.5t-68.5 25.5t-68.5 -25.5t-24.5 -70.5v-225zM527 213q0 -51 -17 -92.5t-48.5 -70.5t-75.5 -44.5t-97 -15.5t-97 15.5t-75.5 44.5t-48.5 70.5t-17 92.5v231q0 103 60 163t178 60
q53 0 97 -15.5t75.5 -44.5t48.5 -70.5t17 -92.5v-231zM453 825q1 -7 1 -13v-12q0 -29 -7.5 -49t-20 -32t-28.5 -17.5t-34 -5.5q-31 0 -56 12l-44 21q-7 3 -14 5.5t-15 2.5q-11 0 -18 -6t-11 -13q-4 -8 -6 -18h-72q-2 8 -3 15.5t-1 15.5q0 45 28 72.5t70 27.5q26 0 51 -11
l41 -19q8 -4 18.5 -8.5t18.5 -4.5q10 0 15.5 5.5t9.5 12.5q4 8 6 19h71z" />
    <glyph glyph-name="Odieresis" unicode="&#xd6;" horiz-adv-x="578" 
d="M196 216q0 -45 24.5 -70.5t68.5 -25.5t68.5 25.5t24.5 70.5v225q0 45 -24.5 70.5t-68.5 25.5t-68.5 -25.5t-24.5 -70.5v-225zM527 213q0 -51 -17 -92.5t-48.5 -70.5t-75.5 -44.5t-97 -15.5t-97 15.5t-75.5 44.5t-48.5 70.5t-17 92.5v231q0 103 60 163t178 60
q53 0 97 -15.5t75.5 -44.5t48.5 -70.5t17 -92.5v-231zM148 767q0 28 19.5 46.5t47.5 18.5q27 0 45.5 -18.5t18.5 -46.5t-18.5 -47.5t-45.5 -19.5q-28 0 -47.5 19.5t-19.5 47.5zM299 767q0 28 19 46.5t46 18.5q28 0 47 -18.5t19 -46.5t-19 -47.5t-47 -19.5q-27 0 -46 19.5
t-19 47.5z" />
    <glyph glyph-name="multiply" unicode="&#xd7;" horiz-adv-x="471" 
d="M142 327l-103 104l92 92l103 -104l106 106l92 -92l-106 -106l108 -107l-92 -92l-108 107l-104 -104l-92 92z" />
    <glyph glyph-name="Oslash" unicode="&#xd8;" horiz-adv-x="578" 
d="M527 213q0 -51 -17 -92.5t-48.5 -70.5t-75.5 -44.5t-97 -15.5q-33 0 -62.5 6.5t-55.5 17.5l-31 -63h-81l52 104q-29 29 -44.5 68.5t-15.5 89.5v231q0 103 60 163t178 60q66 0 116 -24l32 63h81l-52 -104q29 -29 45 -68.5t16 -89.5v-231zM385 444v1l-156 -311
q23 -17 60 -17q45 0 70.5 25.5t25.5 70.5v231zM193 214l155 309q-25 17 -59 17q-45 0 -70.5 -25.5t-25.5 -70.5v-230z" />
    <glyph glyph-name="Ugrave" unicode="&#xd9;" horiz-adv-x="592" 
d="M163 808l87 79l111 -138l-65 -55zM527 657v-444q0 -51 -16.5 -92.5t-47 -70.5t-73 -44.5t-94.5 -15.5t-94.5 15.5t-73 44.5t-47 70.5t-16.5 92.5v444h145v-441q0 -45 22.5 -70.5t63.5 -25.5q40 0 63 25.5t23 70.5v441h145z" />
    <glyph glyph-name="Uacute" unicode="&#xda;" horiz-adv-x="592" 
d="M527 657v-444q0 -51 -16.5 -92.5t-47 -70.5t-73 -44.5t-94.5 -15.5t-94.5 15.5t-73 44.5t-47 70.5t-16.5 92.5v444h145v-441q0 -45 22.5 -70.5t63.5 -25.5q40 0 63 25.5t23 70.5v441h145zM294 694l-65 55l111 138l87 -79z" />
    <glyph glyph-name="Ucircumflex" unicode="&#xdb;" horiz-adv-x="592" 
d="M325 878l111 -138l-55 -46l-86 74l-85 -73l-53 45l111 138h57zM527 657v-444q0 -51 -16.5 -92.5t-47 -70.5t-73 -44.5t-94.5 -15.5t-94.5 15.5t-73 44.5t-47 70.5t-16.5 92.5v444h145v-441q0 -45 22.5 -70.5t63.5 -25.5q40 0 63 25.5t23 70.5v441h145z" />
    <glyph glyph-name="Udieresis" unicode="&#xdc;" horiz-adv-x="592" 
d="M527 657v-444q0 -51 -16.5 -92.5t-47 -70.5t-73 -44.5t-94.5 -15.5t-94.5 15.5t-73 44.5t-47 70.5t-16.5 92.5v444h145v-441q0 -45 22.5 -70.5t63.5 -25.5q40 0 63 25.5t23 70.5v441h145zM155 767q0 28 19.5 46.5t47.5 18.5q27 0 45.5 -18.5t18.5 -46.5t-18.5 -47.5
t-45.5 -19.5q-28 0 -47.5 19.5t-19.5 47.5zM306 767q0 28 19 46.5t46 18.5q28 0 47 -18.5t19 -46.5t-19 -47.5t-47 -19.5q-27 0 -46 19.5t-19 47.5z" />
    <glyph glyph-name="Yacute" unicode="&#xdd;" horiz-adv-x="517" 
d="M156 657l106 -250l105 250h147l-183 -390v-267h-145v265l-183 392h153zM258 694l-65 55l111 138l87 -79z" />
    <glyph glyph-name="Thorn" unicode="&#xde;" horiz-adv-x="567" 
d="M214 547h95q50 0 92 -15.5t73 -43.5t48 -68t17 -88q0 -51 -17 -92.5t-48 -70.5t-73 -44.5t-92 -15.5h-95v-109h-145v657h145v-110zM214 420v-184h82q45 0 70 25t25 68q0 42 -25 66.5t-70 24.5h-82z" />
    <glyph glyph-name="germandbls" unicode="&#xdf;" horiz-adv-x="516" 
d="M240 115h12q42 0 63.5 24.5t21.5 66.5q0 40 -22.5 65t-62.5 25h-12v115h7q35 0 55 19.5t20 57.5q0 32 -14 52.5t-49 20.5q-38 0 -51 -21.5t-13 -54.5v-485h-138v477q0 97 52.5 148.5t149.5 51.5t151.5 -47.5t54.5 -126.5q0 -54 -25 -90t-70 -54v-1q54 -20 82.5 -62
t28.5 -103q0 -45 -15.5 -80.5t-43 -60.5t-65.5 -38.5t-84 -13.5h-33v115z" />
    <glyph glyph-name="agrave" unicode="&#xe0;" 
d="M42 306q0 42 10 77.5t30.5 61.5t51.5 40.5t73 14.5q39 0 67.5 -14.5t46.5 -37.5l8 42h123v-490h-123l-8 42q-18 -23 -46.5 -37.5t-67.5 -14.5q-42 0 -73 14.5t-51.5 40.5t-30.5 61.5t-10 77.5v122zM245 112q31 0 49 20t18 52v122q0 32 -18 52t-49 20t-47 -20t-16 -52
v-122q0 -32 16 -52t47 -20zM115 654l87 79l111 -138l-65 -55z" />
    <glyph glyph-name="aacute" unicode="&#xe1;" 
d="M42 306q0 42 10 77.5t30.5 61.5t51.5 40.5t73 14.5q39 0 67.5 -14.5t46.5 -37.5l8 42h123v-490h-123l-8 42q-18 -23 -46.5 -37.5t-67.5 -14.5q-42 0 -73 14.5t-51.5 40.5t-30.5 61.5t-10 77.5v122zM245 112q31 0 49 20t18 52v122q0 32 -18 52t-49 20t-47 -20t-16 -52
v-122q0 -32 16 -52t47 -20zM247 540l-65 55l111 138l87 -79z" />
    <glyph glyph-name="acircumflex" unicode="&#xe2;" 
d="M42 306q0 42 10 77.5t30.5 61.5t51.5 40.5t73 14.5q39 0 67.5 -14.5t46.5 -37.5l8 42h123v-490h-123l-8 42q-18 -23 -46.5 -37.5t-67.5 -14.5q-42 0 -73 14.5t-51.5 40.5t-30.5 61.5t-10 77.5v122zM245 112q31 0 49 20t18 52v122q0 32 -18 52t-49 20t-47 -20t-16 -52
v-122q0 -32 16 -52t47 -20zM276 723l111 -138l-55 -46l-86 74l-85 -73l-53 45l111 138h57z" />
    <glyph glyph-name="atilde" unicode="&#xe3;" 
d="M42 306q0 42 10 77.5t30.5 61.5t51.5 40.5t73 14.5q39 0 67.5 -14.5t46.5 -37.5l8 42h123v-490h-123l-8 42q-18 -23 -46.5 -37.5t-67.5 -14.5q-42 0 -73 14.5t-51.5 40.5t-30.5 61.5t-10 77.5v122zM245 112q31 0 49 20t18 52v122q0 32 -18 52t-49 20t-47 -20t-16 -52
v-122q0 -32 16 -52t47 -20zM410 672q1 -8 1 -13.5v-11.5q0 -29 -7.5 -49t-20 -32t-28.5 -17.5t-34 -5.5q-31 0 -56 12l-44 21q-7 3 -14 5.5t-15 2.5q-11 0 -18 -6t-11 -13q-4 -8 -6 -18h-72q-2 5 -3 14t-1 17q0 45 28 72.5t70 27.5q26 0 51 -11l41 -19q8 -4 18.5 -8.5
t18.5 -4.5q10 0 15.5 5.5t9.5 12.5q4 8 6 19h71z" />
    <glyph glyph-name="adieresis" unicode="&#xe4;" 
d="M42 306q0 42 10 77.5t30.5 61.5t51.5 40.5t73 14.5q39 0 67.5 -14.5t46.5 -37.5l8 42h123v-490h-123l-8 42q-18 -23 -46.5 -37.5t-67.5 -14.5q-42 0 -73 14.5t-51.5 40.5t-30.5 61.5t-10 77.5v122zM245 112q31 0 49 20t18 52v122q0 32 -18 52t-49 20t-47 -20t-16 -52
v-122q0 -32 16 -52t47 -20zM106 614q0 28 19.5 46.5t47.5 18.5q27 0 45.5 -18.5t18.5 -46.5t-18.5 -47.5t-45.5 -19.5q-28 0 -47.5 19.5t-19.5 47.5zM257 614q0 28 19 46.5t46 18.5q28 0 47 -18.5t19 -46.5t-19 -47.5t-47 -19.5q-27 0 -46 19.5t-19 47.5z" />
    <glyph glyph-name="aring" unicode="&#xe5;" 
d="M42 306q0 42 10 77.5t30.5 61.5t51.5 40.5t73 14.5q39 0 67.5 -14.5t46.5 -37.5l8 42h123v-490h-123l-8 42q-18 -23 -46.5 -37.5t-67.5 -14.5q-42 0 -73 14.5t-51.5 40.5t-30.5 61.5t-10 77.5v122zM245 112q31 0 49 20t18 52v122q0 32 -18 52t-49 20t-47 -20t-16 -52
v-122q0 -32 16 -52t47 -20zM245 590q20 0 30 12t10 31q0 18 -10 29.5t-30 11.5q-19 0 -29 -11.5t-10 -29.5q0 -19 10 -31t29 -12zM245 527q-51 0 -81 30.5t-30 75.5t30 75.5t81 30.5q25 0 46 -8.5t36 -22.5t23 -33.5t8 -41.5q0 -45 -31 -75.5t-82 -30.5z" />
    <glyph glyph-name="ae" unicode="&#xe6;" horiz-adv-x="727" 
d="M33 137q0 38 13 65t36 44.5t54.5 25.5t69.5 8h86v45q0 28 -14 45t-43 17q-27 0 -42 -17.5t-15 -44.5v-12h-137v5q0 42 14 75.5t38.5 57.5t59 36.5t76.5 12.5q43 0 77 -13.5t58 -39.5q50 53 130 53q43 0 79.5 -14t62 -40t40 -63t14.5 -83v-83h-261v-42q0 -32 18 -53
t49 -21q29 0 45 18.5t16 48.5v5h133v-3q0 -41 -14.5 -74.5t-40 -57t-62 -36t-79.5 -12.5q-51 0 -89.5 21t-62.5 60q-16 -35 -53 -58t-97 -23q-34 0 -63 9t-50.5 27t-33.5 45.5t-12 65.5zM230 99q33 0 47.5 21t14.5 52v13h-55q-26 0 -44.5 -8.5t-18.5 -34.5q0 -23 13.5 -33
t42.5 -10zM429 310h128v7q0 32 -17 52t-46 20q-31 0 -48 -20t-17 -52v-7z" />
    <glyph glyph-name="ccedilla" unicode="&#xe7;" horiz-adv-x="475" 
d="M160 -82l23 79q-66 17 -104.5 67t-38.5 126v110q0 46 14.5 83t41.5 63t64.5 40t82.5 14q44 0 80.5 -13.5t62.5 -38t40.5 -59.5t14.5 -78v-2h-135v11q0 27 -17 44.5t-46 17.5q-30 0 -46.5 -20t-16.5 -52v-130q0 -32 16.5 -52t46.5 -20q29 0 46 17t17 49v17h135v-6
q0 -89 -51.5 -140t-135.5 -55l-8 -28h12q39 0 60 -19t21 -54t-22 -55.5t-59 -20.5h-119v63h103q6 0 10.5 2.5t4.5 9.5t-4.5 9.5t-10.5 2.5h-60z" />
    <glyph glyph-name="egrave" unicode="&#xe8;" horiz-adv-x="475" 
d="M438 173v-3q0 -41 -14.5 -74.5t-40 -57t-62 -36t-79.5 -12.5q-45 0 -82 14t-64 40t-41.5 63t-14.5 83v110q0 46 14.5 83t41.5 63t64 40t82 14q43 0 79.5 -14t62 -40t40 -63t14.5 -83v-83h-261v-42q0 -32 18 -53t49 -21q29 0 45 18.5t16 48.5v5h133zM177 310h128v7
q0 32 -17 52t-46 20q-31 0 -48 -20t-17 -52v-7zM107 654l87 79l111 -138l-65 -55z" />
    <glyph glyph-name="eacute" unicode="&#xe9;" horiz-adv-x="475" 
d="M240 540l-65 55l111 138l87 -79zM438 173v-3q0 -41 -14.5 -74.5t-40 -57t-62 -36t-79.5 -12.5q-45 0 -82 14t-64 40t-41.5 63t-14.5 83v110q0 46 14.5 83t41.5 63t64 40t82 14q43 0 79.5 -14t62 -40t40 -63t14.5 -83v-83h-261v-42q0 -32 18 -53t49 -21q29 0 45 18.5
t16 48.5v5h133zM177 310h128v7q0 32 -17 52t-46 20q-31 0 -48 -20t-17 -52v-7z" />
    <glyph glyph-name="ecircumflex" unicode="&#xea;" horiz-adv-x="475" 
d="M268 723l111 -138l-55 -46l-86 74l-85 -73l-53 45l111 138h57zM438 173v-3q0 -41 -14.5 -74.5t-40 -57t-62 -36t-79.5 -12.5q-45 0 -82 14t-64 40t-41.5 63t-14.5 83v110q0 46 14.5 83t41.5 63t64 40t82 14q43 0 79.5 -14t62 -40t40 -63t14.5 -83v-83h-261v-42
q0 -32 18 -53t49 -21q29 0 45 18.5t16 48.5v5h133zM177 310h128v7q0 32 -17 52t-46 20q-31 0 -48 -20t-17 -52v-7z" />
    <glyph glyph-name="edieresis" unicode="&#xeb;" horiz-adv-x="475" 
d="M99 614q0 28 19.5 46.5t47.5 18.5q27 0 45.5 -18.5t18.5 -46.5t-18.5 -47.5t-45.5 -19.5q-28 0 -47.5 19.5t-19.5 47.5zM250 614q0 28 19 46.5t46 18.5q28 0 47 -18.5t19 -46.5t-19 -47.5t-47 -19.5q-27 0 -46 19.5t-19 47.5zM438 173v-3q0 -41 -14.5 -74.5t-40 -57
t-62 -36t-79.5 -12.5q-45 0 -82 14t-64 40t-41.5 63t-14.5 83v110q0 46 14.5 83t41.5 63t64 40t82 14q43 0 79.5 -14t62 -40t40 -63t14.5 -83v-83h-261v-42q0 -32 18 -53t49 -21q29 0 45 18.5t16 48.5v5h133zM177 310h128v7q0 32 -17 52t-46 20q-31 0 -48 -20t-17 -52v-7z
" />
    <glyph glyph-name="igrave" unicode="&#xec;" horiz-adv-x="254" 
d="M197 490v-490h-140v490h140zM-7 654l87 79l111 -138l-65 -55z" />
    <glyph glyph-name="iacute" unicode="&#xed;" horiz-adv-x="254" 
d="M125 540l-65 55l111 138l87 -79zM197 490v-490h-140v490h140z" />
    <glyph glyph-name="icircumflex" unicode="&#xee;" horiz-adv-x="254" 
d="M156 723l111 -138l-55 -46l-86 74l-85 -73l-53 45l111 138h57zM197 490v-490h-140v490h140z" />
    <glyph glyph-name="idieresis" unicode="&#xef;" horiz-adv-x="254" 
d="M-14 614q0 28 19.5 46.5t47.5 18.5q27 0 45.5 -18.5t18.5 -46.5t-18.5 -47.5t-45.5 -19.5q-28 0 -47.5 19.5t-19.5 47.5zM137 614q0 28 19 46.5t46 18.5q28 0 47 -18.5t19 -46.5t-19 -47.5t-47 -19.5q-27 0 -46 19.5t-19 47.5zM197 490v-490h-140v490h140z" />
    <glyph glyph-name="eth" unicode="&#xf0;" horiz-adv-x="501" 
d="M382 598q32 -41 50.5 -97t18.5 -130v-181q0 -46 -15 -83t-42 -63t-64.5 -40t-83.5 -14t-83.5 14t-64.5 40t-42 63t-15 83v110q0 92 43.5 146t126.5 54q35 0 59 -12t40 -31q-12 63 -40 105l-95 -30v70l48 15l-55 60h141l23 -25l93 30v-70zM181 180q0 -32 17 -52t48 -20
t48 20t17 52v130q0 32 -17 52t-48 20t-48 -20t-17 -52v-130z" />
    <glyph glyph-name="ntilde" unicode="&#xf1;" horiz-adv-x="520" 
d="M57 0v490h123l8 -44q19 24 49 39t70 15q42 0 72 -14t49.5 -38.5t29 -58t9.5 -73.5v-316h-140v306q0 32 -16 52t-47 20t-49 -20t-18 -52v-306h-140zM427 672q1 -8 1 -13.5v-11.5q0 -29 -7.5 -49t-20 -32t-28.5 -17.5t-34 -5.5q-31 0 -56 12l-44 21q-7 3 -14 5.5t-15 2.5
q-11 0 -18 -6t-11 -13q-4 -8 -6 -18h-72q-2 5 -3 14t-1 17q0 45 28 72.5t70 27.5q26 0 51 -11l41 -19q8 -4 18.5 -8.5t18.5 -4.5q10 0 15.5 5.5t9.5 12.5q4 8 6 19h71z" />
    <glyph glyph-name="ograve" unicode="&#xf2;" horiz-adv-x="490" 
d="M180 180q0 -32 17 -52t48 -20t48 20t17 52v130q0 32 -17 52t-48 20t-48 -20t-17 -52v-130zM450 190q0 -46 -15 -83t-42 -63t-64.5 -40t-83.5 -14t-83.5 14t-64.5 40t-42 63t-15 83v110q0 46 15 83t42 63t64.5 40t83.5 14t83.5 -14t64.5 -40t42 -63t15 -83v-110zM111 654
l87 79l111 -138l-65 -55z" />
    <glyph glyph-name="oacute" unicode="&#xf3;" horiz-adv-x="490" 
d="M244 540l-65 55l111 138l87 -79zM180 180q0 -32 17 -52t48 -20t48 20t17 52v130q0 32 -17 52t-48 20t-48 -20t-17 -52v-130zM450 190q0 -46 -15 -83t-42 -63t-64.5 -40t-83.5 -14t-83.5 14t-64.5 40t-42 63t-15 83v110q0 46 15 83t42 63t64.5 40t83.5 14t83.5 -14
t64.5 -40t42 -63t15 -83v-110z" />
    <glyph glyph-name="ocircumflex" unicode="&#xf4;" horiz-adv-x="490" 
d="M273 723l111 -138l-55 -46l-86 74l-85 -73l-53 45l111 138h57zM180 180q0 -32 17 -52t48 -20t48 20t17 52v130q0 32 -17 52t-48 20t-48 -20t-17 -52v-130zM450 190q0 -46 -15 -83t-42 -63t-64.5 -40t-83.5 -14t-83.5 14t-64.5 40t-42 63t-15 83v110q0 46 15 83t42 63
t64.5 40t83.5 14t83.5 -14t64.5 -40t42 -63t15 -83v-110z" />
    <glyph glyph-name="otilde" unicode="&#xf5;" horiz-adv-x="490" 
d="M180 180q0 -32 17 -52t48 -20t48 20t17 52v130q0 32 -17 52t-48 20t-48 -20t-17 -52v-130zM450 190q0 -46 -15 -83t-42 -63t-64.5 -40t-83.5 -14t-83.5 14t-64.5 40t-42 63t-15 83v110q0 46 15 83t42 63t64.5 40t83.5 14t83.5 -14t64.5 -40t42 -63t15 -83v-110zM409 672
q1 -8 1 -13.5v-11.5q0 -29 -7.5 -49t-20 -32t-28.5 -17.5t-34 -5.5q-31 0 -56 12l-44 21q-7 3 -14 5.5t-15 2.5q-11 0 -18 -6t-11 -13q-4 -8 -6 -18h-72q-2 5 -3 14t-1 17q0 45 28 72.5t70 27.5q26 0 51 -11l41 -19q8 -4 18.5 -8.5t18.5 -4.5q10 0 15.5 5.5t9.5 12.5
q4 8 6 19h71z" />
    <glyph glyph-name="odieresis" unicode="&#xf6;" horiz-adv-x="490" 
d="M104 614q0 28 19.5 46.5t47.5 18.5q27 0 45.5 -18.5t18.5 -46.5t-18.5 -47.5t-45.5 -19.5q-28 0 -47.5 19.5t-19.5 47.5zM255 614q0 28 19 46.5t46 18.5q28 0 47 -18.5t19 -46.5t-19 -47.5t-47 -19.5q-27 0 -46 19.5t-19 47.5zM180 180q0 -32 17 -52t48 -20t48 20t17 52
v130q0 32 -17 52t-48 20t-48 -20t-17 -52v-130zM450 190q0 -46 -15 -83t-42 -63t-64.5 -40t-83.5 -14t-83.5 14t-64.5 40t-42 63t-15 83v110q0 46 15 83t42 63t64.5 40t83.5 14t83.5 -14t64.5 -40t42 -63t15 -83v-110z" />
    <glyph glyph-name="divide" unicode="&#xf7;" horiz-adv-x="496" 
d="M40 387h416v-119h-416v119zM181 484q0 27 20 47t47 20t47 -20t20 -47t-20 -47t-47 -20t-47 20t-20 47zM181 171q0 27 20 47t47 20t47 -20t20 -47t-20 -47t-47 -20t-47 20t-20 47z" />
    <glyph glyph-name="oslash" unicode="&#xf8;" horiz-adv-x="490" 
d="M450 190q0 -46 -15 -83t-42 -63t-64.5 -40t-83.5 -14q-25 0 -47.5 4t-42.5 12l-29 -55h-76l49 91q-28 26 -43.5 63.5t-15.5 84.5v110q0 46 15 83t42 63t64.5 40t83.5 14t89 -16l30 56h76l-49 -92q28 -26 43.5 -63.5t15.5 -84.5v-110zM245 105q32 0 50 20t18 52v129
l-103 -193q16 -8 35 -8zM177 184l102 193q-14 8 -34 8q-32 0 -50 -20t-18 -52v-129z" />
    <glyph glyph-name="ugrave" unicode="&#xf9;" horiz-adv-x="515" 
d="M53 490h140v-316q0 -28 14.5 -45t43.5 -17q31 0 49 20t18 52v306h140v-490h-123l-9 43q-18 -23 -48 -38t-70 -15q-41 0 -70 13t-48 36.5t-28 55t-9 69.5v326zM121 654l87 79l111 -138l-65 -55z" />
    <glyph glyph-name="uacute" unicode="&#xfa;" horiz-adv-x="515" 
d="M256 540l-65 55l111 138l87 -79zM53 490h140v-316q0 -28 14.5 -45t43.5 -17q31 0 49 20t18 52v306h140v-490h-123l-9 43q-18 -23 -48 -38t-70 -15q-41 0 -70 13t-48 36.5t-28 55t-9 69.5v326z" />
    <glyph glyph-name="ucircumflex" unicode="&#xfb;" horiz-adv-x="515" 
d="M284 723l111 -138l-55 -46l-86 74l-85 -73l-53 45l111 138h57zM53 490h140v-316q0 -28 14.5 -45t43.5 -17q31 0 49 20t18 52v306h140v-490h-123l-9 43q-18 -23 -48 -38t-70 -15q-41 0 -70 13t-48 36.5t-28 55t-9 69.5v326z" />
    <glyph glyph-name="udieresis" unicode="&#xfc;" horiz-adv-x="515" 
d="M115 614q0 28 19.5 46.5t47.5 18.5q27 0 45.5 -18.5t18.5 -46.5t-18.5 -47.5t-45.5 -19.5q-28 0 -47.5 19.5t-19.5 47.5zM266 614q0 28 19 46.5t46 18.5q28 0 47 -18.5t19 -46.5t-19 -47.5t-47 -19.5q-27 0 -46 19.5t-19 47.5zM53 490h140v-316q0 -28 14.5 -45t43.5 -17
q31 0 49 20t18 52v306h140v-490h-123l-9 43q-18 -23 -48 -38t-70 -15q-41 0 -70 13t-48 36.5t-28 55t-9 69.5v326z" />
    <glyph glyph-name="yacute" unicode="&#xfd;" horiz-adv-x="467" 
d="M114 -187l56 168l-157 509h149l75 -303l75 303h143l-210 -677h-131zM234 540l-65 55l111 138l87 -79z" />
    <glyph glyph-name="thorn" unicode="&#xfe;" 
d="M197 458q17 19 43.5 30.5t61.5 11.5q42 0 73 -14.5t51.5 -40.5t30.5 -61.5t10 -77.5v-122q0 -42 -10 -77.5t-30.5 -61.5t-51.5 -40.5t-73 -14.5q-35 0 -61.5 11t-43.5 30v-218h-140v864h140v-219zM264 378q-31 0 -49 -20t-18 -52v-122q0 -32 18 -52t49 -20t47 20t16 52
v122q0 32 -16 52t-47 20z" />
    <glyph glyph-name="ydieresis" unicode="&#xff;" horiz-adv-x="467" 
d="M114 -187l56 168l-157 509h149l75 -303l75 303h143l-210 -677h-131zM93 614q0 28 19.5 46.5t47.5 18.5q27 0 45.5 -18.5t18.5 -46.5t-18.5 -47.5t-45.5 -19.5q-28 0 -47.5 19.5t-19.5 47.5zM244 614q0 28 19 46.5t46 18.5q28 0 47 -18.5t19 -46.5t-19 -47.5t-47 -19.5
q-27 0 -46 19.5t-19 47.5z" />
    <glyph glyph-name="Amacron" unicode="&#x100;" horiz-adv-x="560" 
d="M12 0l190 657h156l189 -657h-149l-27 104h-191l-26 -104h-142zM211 227h129l-65 254zM158 814h242v-98h-242v98z" />
    <glyph glyph-name="amacron" unicode="&#x101;" 
d="M42 306q0 42 10 77.5t30.5 61.5t51.5 40.5t73 14.5q39 0 67.5 -14.5t46.5 -37.5l8 42h123v-490h-123l-8 42q-18 -23 -46.5 -37.5t-67.5 -14.5q-42 0 -73 14.5t-51.5 40.5t-30.5 61.5t-10 77.5v122zM245 112q31 0 49 20t18 52v122q0 32 -18 52t-49 20t-47 -20t-16 -52
v-122q0 -32 16 -52t47 -20zM126 657h242v-98h-242v98z" />
    <glyph glyph-name="Abreve" unicode="&#x102;" horiz-adv-x="560" 
d="M12 0l190 657h156l189 -657h-149l-27 104h-191l-26 -104h-142zM211 227h129l-65 254zM405 830v-21q0 -24 -9 -45t-26 -36.5t-40.5 -24.5t-51.5 -9t-51 9t-39.5 24.5t-25.5 36.5t-9 45v21h82v-21q0 -19 11 -31.5t32 -12.5q22 0 33.5 12.5t11.5 31.5v21h82z" />
    <glyph glyph-name="abreve" unicode="&#x103;" 
d="M42 306q0 42 10 77.5t30.5 61.5t51.5 40.5t73 14.5q39 0 67.5 -14.5t46.5 -37.5l8 42h123v-490h-123l-8 42q-18 -23 -46.5 -37.5t-67.5 -14.5q-42 0 -73 14.5t-51.5 40.5t-30.5 61.5t-10 77.5v122zM245 112q31 0 49 20t18 52v122q0 32 -18 52t-49 20t-47 -20t-16 -52
v-122q0 -32 16 -52t47 -20zM372 676v-21q0 -24 -9 -45t-26 -36.5t-40.5 -24.5t-51.5 -9t-51 9t-39.5 24.5t-25.5 36.5t-9 45v21h82v-21q0 -19 11 -31.5t32 -12.5q22 0 33.5 12.5t11.5 31.5v21h82z" />
    <glyph glyph-name="Aogonek" unicode="&#x104;" horiz-adv-x="560" 
d="M502 -118v-77h-66q-51 0 -76 23.5t-25 58.5q0 39 18.5 67.5t44.5 45.5l-27 104h-191l-26 -104h-142l190 657h156l189 -657h-75q-24 -18 -40.5 -40.5t-16.5 -47.5q0 -14 9 -22t29 -8h49zM211 227h129l-65 254z" />
    <glyph glyph-name="aogonek" unicode="&#x105;" 
d="M433 -118v-77h-66q-51 0 -76 23.5t-25 58.5q0 39 18.5 67.5t44.5 45.5l-8 42q-18 -23 -46.5 -37.5t-67.5 -14.5q-42 0 -73 14.5t-51.5 40.5t-30.5 61.5t-10 77.5v122q0 42 10 77.5t30.5 61.5t51.5 40.5t73 14.5q39 0 67.5 -14.5t46.5 -37.5l8 42h123v-490h-49
q-24 -18 -40.5 -40.5t-16.5 -47.5q0 -14 9 -22t29 -8h49zM245 112q31 0 49 20t18 52v122q0 32 -18 52t-49 20t-47 -20t-16 -52v-122q0 -32 16 -52t47 -20z" />
    <glyph glyph-name="Cacute" unicode="&#x106;" horiz-adv-x="557" 
d="M516 231v-18q0 -51 -16.5 -92.5t-46.5 -70.5t-72.5 -44.5t-93.5 -15.5q-53 0 -96 15.5t-74.5 44.5t-48.5 70.5t-17 92.5v231q0 103 60 163t176 60q51 0 93.5 -15.5t72.5 -44.5t46.5 -70.5t16.5 -92.5v-17h-140v14q0 45 -24 70.5t-68 25.5q-41 0 -64.5 -25.5t-23.5 -70.5
v-225q0 -45 23.5 -70.5t64.5 -25.5q44 0 68 25.5t24 70.5v15h140zM282 694l-65 55l111 138l87 -79z" />
    <glyph glyph-name="cacute" unicode="&#x107;" horiz-adv-x="475" 
d="M240 540l-65 55l111 138l87 -79zM441 191v-6q0 -46 -14.5 -82t-40.5 -61t-62.5 -38.5t-80.5 -13.5q-45 0 -82.5 14t-64.5 40t-41.5 63t-14.5 83v110q0 46 14.5 83t41.5 63t64.5 40t82.5 14q44 0 80.5 -13.5t62.5 -38t40.5 -59.5t14.5 -78v-2h-135v11q0 27 -17 44.5
t-46 17.5q-30 0 -46.5 -20t-16.5 -52v-130q0 -32 16.5 -52t46.5 -20q29 0 46 17t17 49v17h135z" />
    <glyph glyph-name="Ccircumflex" unicode="&#x108;" horiz-adv-x="557" 
d="M516 231v-18q0 -51 -16.5 -92.5t-46.5 -70.5t-72.5 -44.5t-93.5 -15.5q-53 0 -96 15.5t-74.5 44.5t-48.5 70.5t-17 92.5v231q0 103 60 163t176 60q51 0 93.5 -15.5t72.5 -44.5t46.5 -70.5t16.5 -92.5v-17h-140v14q0 45 -24 70.5t-68 25.5q-41 0 -64.5 -25.5t-23.5 -70.5
v-225q0 -45 23.5 -70.5t64.5 -25.5q44 0 68 25.5t24 70.5v15h140zM311 878l111 -138l-55 -46l-86 74l-85 -73l-53 45l111 138h57z" />
    <glyph glyph-name="ccircumflex" unicode="&#x109;" horiz-adv-x="475" 
d="M269 723l111 -138l-55 -46l-86 74l-85 -73l-53 45l111 138h57zM441 191v-6q0 -46 -14.5 -82t-40.5 -61t-62.5 -38.5t-80.5 -13.5q-45 0 -82.5 14t-64.5 40t-41.5 63t-14.5 83v110q0 46 14.5 83t41.5 63t64.5 40t82.5 14q44 0 80.5 -13.5t62.5 -38t40.5 -59.5t14.5 -78v-2
h-135v11q0 27 -17 44.5t-46 17.5q-30 0 -46.5 -20t-16.5 -52v-130q0 -32 16.5 -52t46.5 -20q29 0 46 17t17 49v17h135z" />
    <glyph glyph-name="Cdotaccent" unicode="&#x10a;" horiz-adv-x="557" 
d="M205 781q0 32 22.5 54.5t54.5 22.5t54.5 -22.5t22.5 -54.5t-22.5 -54.5t-54.5 -22.5t-54.5 22.5t-22.5 54.5zM516 231v-18q0 -51 -16.5 -92.5t-46.5 -70.5t-72.5 -44.5t-93.5 -15.5q-53 0 -96 15.5t-74.5 44.5t-48.5 70.5t-17 92.5v231q0 103 60 163t176 60
q51 0 93.5 -15.5t72.5 -44.5t46.5 -70.5t16.5 -92.5v-17h-140v14q0 45 -24 70.5t-68 25.5q-41 0 -64.5 -25.5t-23.5 -70.5v-225q0 -45 23.5 -70.5t64.5 -25.5q44 0 68 25.5t24 70.5v15h140z" />
    <glyph glyph-name="cdotaccent" unicode="&#x10b;" horiz-adv-x="475" 
d="M441 191v-6q0 -46 -14.5 -82t-40.5 -61t-62.5 -38.5t-80.5 -13.5q-45 0 -82.5 14t-64.5 40t-41.5 63t-14.5 83v110q0 46 14.5 83t41.5 63t64.5 40t82.5 14q44 0 80.5 -13.5t62.5 -38t40.5 -59.5t14.5 -78v-2h-135v11q0 27 -17 44.5t-46 17.5q-30 0 -46.5 -20t-16.5 -52
v-130q0 -32 16.5 -52t46.5 -20q29 0 46 17t17 49v17h135zM162 617q0 32 22.5 54.5t54.5 22.5t54.5 -22.5t22.5 -54.5t-22.5 -54.5t-54.5 -22.5t-54.5 22.5t-22.5 54.5z" />
    <glyph glyph-name="Ccaron" unicode="&#x10c;" horiz-adv-x="557" 
d="M516 231v-18q0 -51 -16.5 -92.5t-46.5 -70.5t-72.5 -44.5t-93.5 -15.5q-53 0 -96 15.5t-74.5 44.5t-48.5 70.5t-17 92.5v231q0 103 60 163t176 60q51 0 93.5 -15.5t72.5 -44.5t46.5 -70.5t16.5 -92.5v-17h-140v14q0 45 -24 70.5t-68 25.5q-41 0 -64.5 -25.5t-23.5 -70.5
v-225q0 -45 23.5 -70.5t64.5 -25.5q44 0 68 25.5t24 70.5v15h140zM254 694l-111 138l55 46l86 -74l85 73l53 -45l-111 -138h-57z" />
    <glyph glyph-name="ccaron" unicode="&#x10d;" horiz-adv-x="475" 
d="M211 540l-111 138l55 46l86 -74l85 73l53 -45l-111 -138h-57zM441 191v-6q0 -46 -14.5 -82t-40.5 -61t-62.5 -38.5t-80.5 -13.5q-45 0 -82.5 14t-64.5 40t-41.5 63t-14.5 83v110q0 46 14.5 83t41.5 63t64.5 40t82.5 14q44 0 80.5 -13.5t62.5 -38t40.5 -59.5t14.5 -78v-2
h-135v11q0 27 -17 44.5t-46 17.5q-30 0 -46.5 -20t-16.5 -52v-130q0 -32 16.5 -52t46.5 -20q29 0 46 17t17 49v17h135z" />
    <glyph glyph-name="Dcaron" unicode="&#x10e;" horiz-adv-x="597" 
d="M304 657q117 0 180 -61t63 -167v-201q0 -106 -63 -167t-180 -61h-235v657h235zM214 527v-397h90q48 0 73 26.5t25 74.5v195q0 48 -25 74.5t-73 26.5h-90zM233 694l-111 138l55 46l86 -74l85 73l53 -45l-111 -138h-57z" />
    <glyph glyph-name="dcaron" unicode="&#x10f;" 
d="M620 677l-71 -163h-70l23 163h118zM321 42q-18 -23 -46.5 -37.5t-67.5 -14.5q-42 0 -73 14.5t-51.5 40.5t-30.5 61.5t-10 77.5v122q0 42 10 77.5t30.5 61.5t51.5 40.5t73 14.5q35 0 61 -11.5t44 -30.5v219h140v-677h-123zM245 112q31 0 49 20t18 52v122q0 32 -18 52
t-49 20t-47 -20t-16 -52v-122q0 -32 16 -52t47 -20z" />
    <glyph glyph-name="Dcroat" unicode="&#x110;" horiz-adv-x="619" 
d="M326 657q117 0 180 -61t63 -167v-201q0 -106 -63 -167t-180 -61h-235v273h-65v118h65v266h235zM236 527v-136h90v-118h-90v-143h90q48 0 73 26.5t25 74.5v195q0 48 -25 74.5t-73 26.5h-90z" />
    <glyph glyph-name="dcroat" unicode="&#x111;" 
d="M321 42q-18 -23 -46.5 -37.5t-67.5 -14.5q-42 0 -73 14.5t-51.5 40.5t-30.5 61.5t-10 77.5v122q0 42 10 77.5t30.5 61.5t51.5 40.5t73 14.5q35 0 61 -11.5t44 -30.5v79h-86v80h86v60h140v-60h61v-80h-61v-537h-123zM245 112q31 0 49 20t18 52v122q0 32 -18 52t-49 20
t-47 -20t-16 -52v-122q0 -32 16 -52t47 -20z" />
    <glyph glyph-name="Emacron" unicode="&#x112;" horiz-adv-x="529" 
d="M214 269v-139h275v-130h-420v657h410v-130h-265v-130h235v-128h-235zM155 814h242v-98h-242v98z" />
    <glyph glyph-name="emacron" unicode="&#x113;" horiz-adv-x="475" 
d="M438 173v-3q0 -41 -14.5 -74.5t-40 -57t-62 -36t-79.5 -12.5q-45 0 -82 14t-64 40t-41.5 63t-14.5 83v110q0 46 14.5 83t41.5 63t64 40t82 14q43 0 79.5 -14t62 -40t40 -63t14.5 -83v-83h-261v-42q0 -32 18 -53t49 -21q29 0 45 18.5t16 48.5v5h133zM177 310h128v7
q0 32 -17 52t-46 20q-31 0 -48 -20t-17 -52v-7zM118 657h242v-98h-242v98z" />
    <glyph glyph-name="Ebreve" unicode="&#x114;" horiz-adv-x="529" 
d="M214 269v-139h275v-130h-420v657h410v-130h-265v-130h235v-128h-235zM405 830v-21q0 -24 -9 -45t-26 -36.5t-40.5 -24.5t-51.5 -9t-51 9t-39.5 24.5t-25.5 36.5t-9 45v21h82v-21q0 -19 11 -31.5t32 -12.5q22 0 33.5 12.5t11.5 31.5v21h82z" />
    <glyph glyph-name="ebreve" unicode="&#x115;" horiz-adv-x="475" 
d="M438 173v-3q0 -41 -14.5 -74.5t-40 -57t-62 -36t-79.5 -12.5q-45 0 -82 14t-64 40t-41.5 63t-14.5 83v110q0 46 14.5 83t41.5 63t64 40t82 14q43 0 79.5 -14t62 -40t40 -63t14.5 -83v-83h-261v-42q0 -32 18 -53t49 -21q29 0 45 18.5t16 48.5v5h133zM177 310h128v7
q0 32 -17 52t-46 20q-31 0 -48 -20t-17 -52v-7zM365 676v-21q0 -24 -9 -45t-26 -36.5t-40.5 -24.5t-51.5 -9t-51 9t-39.5 24.5t-25.5 36.5t-9 45v21h82v-21q0 -19 11 -31.5t32 -12.5q22 0 33.5 12.5t11.5 31.5v21h82z" />
    <glyph glyph-name="Edotaccent" unicode="&#x116;" horiz-adv-x="529" 
d="M202 781q0 32 22.5 54.5t54.5 22.5t54.5 -22.5t22.5 -54.5t-22.5 -54.5t-54.5 -22.5t-54.5 22.5t-22.5 54.5zM214 269v-139h275v-130h-420v657h410v-130h-265v-130h235v-128h-235z" />
    <glyph glyph-name="edotaccent" unicode="&#x117;" horiz-adv-x="475" 
d="M438 173v-3q0 -41 -14.5 -74.5t-40 -57t-62 -36t-79.5 -12.5q-45 0 -82 14t-64 40t-41.5 63t-14.5 83v110q0 46 14.5 83t41.5 63t64 40t82 14q43 0 79.5 -14t62 -40t40 -63t14.5 -83v-83h-261v-42q0 -32 18 -53t49 -21q29 0 45 18.5t16 48.5v5h133zM177 310h128v7
q0 32 -17 52t-46 20q-31 0 -48 -20t-17 -52v-7zM162 617q0 32 22.5 54.5t54.5 22.5t54.5 -22.5t22.5 -54.5t-22.5 -54.5t-54.5 -22.5t-54.5 22.5t-22.5 54.5z" />
    <glyph glyph-name="Eogonek" unicode="&#x118;" horiz-adv-x="529" 
d="M214 269v-139h275v-130h-40q-24 -18 -40.5 -40.5t-16.5 -47.5q0 -14 9 -22t29 -8h49v-77h-66q-51 0 -76 23.5t-25 58.5q0 39 18.5 67.5t43.5 45.5h-305v657h410v-130h-265v-130h235v-128h-235z" />
    <glyph glyph-name="eogonek" unicode="&#x119;" horiz-adv-x="476" 
d="M438 173v-3q0 -45 -16.5 -79t-45.5 -59q-29 -24 -44 -51t-15 -59q0 -18 9 -29t29 -11h49v-77h-66q-51 0 -76 26t-25 66q0 28 7.5 51.5t19.5 42.5q-5 0 -11 -0.5t-11 -0.5q-45 0 -82 14t-64 40t-41.5 63t-14.5 83v110q0 46 14.5 83t41.5 63t64 40t82 14q43 0 79.5 -14
t62 -40t40 -63t14.5 -83v-83h-261v-42q0 -32 18 -53t49 -21q29 0 45 18.5t16 48.5v5h133zM177 310h128v7q0 32 -17 52t-46 20q-31 0 -48 -20t-17 -52v-7z" />
    <glyph glyph-name="Ecaron" unicode="&#x11a;" horiz-adv-x="529" 
d="M214 269v-139h275v-130h-420v657h410v-130h-265v-130h235v-128h-235zM250 694l-111 138l55 46l86 -74l85 73l53 -45l-111 -138h-57z" />
    <glyph glyph-name="ecaron" unicode="&#x11b;" horiz-adv-x="475" 
d="M211 540l-111 138l55 46l86 -74l85 73l53 -45l-111 -138h-57zM438 173v-3q0 -41 -14.5 -74.5t-40 -57t-62 -36t-79.5 -12.5q-45 0 -82 14t-64 40t-41.5 63t-14.5 83v110q0 46 14.5 83t41.5 63t64 40t82 14q43 0 79.5 -14t62 -40t40 -63t14.5 -83v-83h-261v-42
q0 -32 18 -53t49 -21q29 0 45 18.5t16 48.5v5h133zM177 310h128v7q0 32 -17 52t-46 20q-31 0 -48 -20t-17 -52v-7z" />
    <glyph glyph-name="Gcircumflex" unicode="&#x11c;" horiz-adv-x="561" 
d="M312 878l111 -138l-55 -46l-86 74l-85 -73l-53 45l111 138h57zM296 339h220v-126q0 -51 -16.5 -92.5t-46.5 -70.5t-72.5 -44.5t-93.5 -15.5q-53 0 -96 15.5t-74.5 44.5t-48.5 70.5t-17 92.5v231q0 103 62 163t177 60q51 0 93 -15t71.5 -42.5t45.5 -67t16 -88.5v-17h-140
v14q0 40 -22 63t-66 23q-43 0 -67.5 -25.5t-24.5 -70.5v-225q0 -45 24 -70.5t66 -25.5q46 0 70.5 25.5t24.5 70.5v11h-85v112z" />
    <glyph glyph-name="gcircumflex" unicode="&#x11d;" 
d="M278 723l111 -138l-55 -46l-86 74l-85 -73l-53 45l111 138h57zM42 306q0 42 10 77.5t30.5 61.5t51.5 40.5t73 14.5q39 0 67.5 -14.5t46.5 -37.5l8 42h123v-502q0 -42 -14.5 -76.5t-41.5 -58.5t-64.5 -37t-82.5 -13t-82 12t-64 33.5t-41.5 51t-14.5 65.5v3h135v-8
q0 -20 16 -33.5t49 -13.5q35 0 50 19.5t15 52.5v66q-18 -19 -44 -30t-61 -11q-42 0 -73 14.5t-51.5 40.5t-30.5 61.5t-10 77.5v102zM245 132q31 0 49 20t18 52v102q0 32 -18 52t-49 20t-47 -20t-16 -52v-102q0 -32 16 -52t47 -20z" />
    <glyph glyph-name="Gbreve" unicode="&#x11e;" horiz-adv-x="561" 
d="M296 339h220v-126q0 -51 -16.5 -92.5t-46.5 -70.5t-72.5 -44.5t-93.5 -15.5q-53 0 -96 15.5t-74.5 44.5t-48.5 70.5t-17 92.5v231q0 103 62 163t177 60q51 0 93 -15t71.5 -42.5t45.5 -67t16 -88.5v-17h-140v14q0 40 -22 63t-66 23q-43 0 -67.5 -25.5t-24.5 -70.5v-225
q0 -45 24 -70.5t66 -25.5q46 0 70.5 25.5t24.5 70.5v11h-85v112zM409 830v-21q0 -24 -9 -45t-26 -36.5t-40.5 -24.5t-51.5 -9t-51 9t-39.5 24.5t-25.5 36.5t-9 45v21h82v-21q0 -19 11 -31.5t32 -12.5q22 0 33.5 12.5t11.5 31.5v21h82z" />
    <glyph glyph-name="gbreve" unicode="&#x11f;" 
d="M42 306q0 42 10 77.5t30.5 61.5t51.5 40.5t73 14.5q39 0 67.5 -14.5t46.5 -37.5l8 42h123v-502q0 -42 -14.5 -76.5t-41.5 -58.5t-64.5 -37t-82.5 -13t-82 12t-64 33.5t-41.5 51t-14.5 65.5v3h135v-8q0 -20 16 -33.5t49 -13.5q35 0 50 19.5t15 52.5v66q-18 -19 -44 -30
t-61 -11q-42 0 -73 14.5t-51.5 40.5t-30.5 61.5t-10 77.5v102zM245 132q31 0 49 20t18 52v102q0 32 -18 52t-49 20t-47 -20t-16 -52v-102q0 -32 16 -52t47 -20zM375 676v-21q0 -24 -9 -45t-26 -36.5t-40.5 -24.5t-51.5 -9t-51 9t-39.5 24.5t-25.5 36.5t-9 45v21h82v-21
q0 -19 11 -31.5t32 -12.5q22 0 33.5 12.5t11.5 31.5v21h82z" />
    <glyph glyph-name="Gdotaccent" unicode="&#x120;" horiz-adv-x="561" 
d="M206 781q0 32 22.5 54.5t54.5 22.5t54.5 -22.5t22.5 -54.5t-22.5 -54.5t-54.5 -22.5t-54.5 22.5t-22.5 54.5zM296 339h220v-126q0 -51 -16.5 -92.5t-46.5 -70.5t-72.5 -44.5t-93.5 -15.5q-53 0 -96 15.5t-74.5 44.5t-48.5 70.5t-17 92.5v231q0 103 62 163t177 60
q51 0 93 -15t71.5 -42.5t45.5 -67t16 -88.5v-17h-140v14q0 40 -22 63t-66 23q-43 0 -67.5 -25.5t-24.5 -70.5v-225q0 -45 24 -70.5t66 -25.5q46 0 70.5 25.5t24.5 70.5v11h-85v112z" />
    <glyph glyph-name="gdotaccent" unicode="&#x121;" 
d="M42 306q0 42 10 77.5t30.5 61.5t51.5 40.5t73 14.5q39 0 67.5 -14.5t46.5 -37.5l8 42h123v-502q0 -42 -14.5 -76.5t-41.5 -58.5t-64.5 -37t-82.5 -13t-82 12t-64 33.5t-41.5 51t-14.5 65.5v3h135v-8q0 -20 16 -33.5t49 -13.5q35 0 50 19.5t15 52.5v66q-18 -19 -44 -30
t-61 -11q-42 0 -73 14.5t-51.5 40.5t-30.5 61.5t-10 77.5v102zM245 132q31 0 49 20t18 52v102q0 32 -18 52t-49 20t-47 -20t-16 -52v-102q0 -32 16 -52t47 -20zM172 617q0 32 22.5 54.5t54.5 22.5t54.5 -22.5t22.5 -54.5t-22.5 -54.5t-54.5 -22.5t-54.5 22.5t-22.5 54.5z
" />
    <glyph glyph-name="uni0122" unicode="&#x122;" horiz-adv-x="561" 
d="M371 -52l-95 -194h-83l38 194h140zM296 339h220v-126q0 -51 -16.5 -92.5t-46.5 -70.5t-72.5 -44.5t-93.5 -15.5q-53 0 -96 15.5t-74.5 44.5t-48.5 70.5t-17 92.5v231q0 103 62 163t177 60q51 0 93 -15t71.5 -42.5t45.5 -67t16 -88.5v-17h-140v14q0 40 -22 63t-66 23
q-43 0 -67.5 -25.5t-24.5 -70.5v-225q0 -45 24 -70.5t66 -25.5q46 0 70.5 25.5t24.5 70.5v11h-85v112z" />
    <glyph glyph-name="uni0123" unicode="&#x123;" 
d="M163 547l95 194h83l-38 -194h-140zM42 306q0 42 10 77.5t30.5 61.5t51.5 40.5t73 14.5q39 0 67.5 -14.5t46.5 -37.5l8 42h123v-502q0 -42 -14.5 -76.5t-41.5 -58.5t-64.5 -37t-82.5 -13t-82 12t-64 33.5t-41.5 51t-14.5 65.5v3h135v-8q0 -20 16 -33.5t49 -13.5
q35 0 50 19.5t15 52.5v66q-18 -19 -44 -30t-61 -11q-42 0 -73 14.5t-51.5 40.5t-30.5 61.5t-10 77.5v102zM245 132q31 0 49 20t18 52v102q0 32 -18 52t-49 20t-47 -20t-16 -52v-102q0 -32 16 -52t47 -20z" />
    <glyph glyph-name="Hcircumflex" unicode="&#x124;" horiz-adv-x="604" 
d="M535 0h-145v268h-176v-268h-145v657h145v-259h176v259h145v-657zM331 878l111 -138l-55 -46l-86 74l-85 -73l-53 45l111 138h57z" />
    <glyph glyph-name="hcircumflex" unicode="&#x125;" horiz-adv-x="520" 
d="M156 878l111 -138l-55 -46l-86 74l-85 -73l-53 45l111 138h57zM57 0v677h140v-221q19 20 46.5 32t63.5 12q42 0 72 -14t49.5 -38.5t29 -58t9.5 -73.5v-316h-140v306q0 32 -16 52t-47 20t-49 -20t-18 -52v-306h-140z" />
    <glyph glyph-name="Hbar" unicode="&#x126;" horiz-adv-x="610" 
d="M538 557h63v-80h-63v-477h-145v268h-176v-268h-145v477h-62v80h62v100h145v-100h176v100h145v-100zM393 398v79h-176v-79h176z" />
    <glyph glyph-name="hbar" unicode="&#x127;" horiz-adv-x="520" 
d="M57 0v537h-59v80h59v60h140v-60h88v-80h-88v-81q19 20 46.5 32t63.5 12q42 0 72 -14t49.5 -38.5t29 -58t9.5 -73.5v-316h-140v306q0 32 -16 52t-47 20t-49 -20t-18 -52v-306h-140z" />
    <glyph glyph-name="Itilde" unicode="&#x128;" horiz-adv-x="283" 
d="M214 0h-145v657h145v-657zM306 825q1 -7 1 -13v-12q0 -29 -7.5 -49t-20 -32t-28.5 -17.5t-34 -5.5q-31 0 -56 12l-44 21q-7 3 -14 5.5t-15 2.5q-11 0 -18 -6t-11 -13q-4 -8 -6 -18h-72q-2 8 -3 15.5t-1 15.5q0 45 28 72.5t70 27.5q26 0 51 -11l41 -19q8 -4 18.5 -8.5
t18.5 -4.5q10 0 15.5 5.5t9.5 12.5q4 8 6 19h71z" />
    <glyph glyph-name="itilde" unicode="&#x129;" horiz-adv-x="254" 
d="M197 490v-490h-140v490h140zM291 672q1 -8 1 -13.5v-11.5q0 -29 -7.5 -49t-20 -32t-28.5 -17.5t-34 -5.5q-31 0 -56 12l-44 21q-7 3 -14 5.5t-15 2.5q-11 0 -18 -6t-11 -13q-4 -8 -6 -18h-72q-2 5 -3 14t-1 17q0 45 28 72.5t70 27.5q26 0 51 -11l41 -19q8 -4 18.5 -8.5
t18.5 -4.5q10 0 15.5 5.5t9.5 12.5q4 8 6 19h71z" />
    <glyph glyph-name="Imacron" unicode="&#x12a;" horiz-adv-x="283" 
d="M214 0h-145v657h145v-657zM20 814h242v-98h-242v98z" />
    <glyph glyph-name="imacron" unicode="&#x12b;" horiz-adv-x="254" 
d="M197 490v-490h-140v490h140zM6 657h242v-98h-242v98z" />
    <glyph glyph-name="Iogonek" unicode="&#x12e;" horiz-adv-x="283" 
d="M173 -118v-77h-66q-51 0 -76 23.5t-25 58.5q0 39 18.5 67.5t44.5 45.5v657h145v-657h-71q-24 -18 -40.5 -40.5t-16.5 -47.5q0 -14 9 -22t29 -8h49z" />
    <glyph glyph-name="iogonek" unicode="&#x12f;" horiz-adv-x="254" 
d="M161 -118v-77h-66q-51 0 -76 23.5t-25 58.5q0 39 18.5 67.5t44.5 45.5v490h140v-490h-66q-24 -18 -40.5 -40.5t-16.5 -47.5q0 -14 9 -22t29 -8h49zM50 620q0 32 22.5 54.5t54.5 22.5t54.5 -22.5t22.5 -54.5t-22.5 -54.5t-54.5 -22.5t-54.5 22.5t-22.5 54.5z" />
    <glyph glyph-name="Idotaccent" unicode="&#x130;" horiz-adv-x="283" 
d="M214 0h-145v657h145v-657zM64 781q0 32 22.5 54.5t54.5 22.5t54.5 -22.5t22.5 -54.5t-22.5 -54.5t-54.5 -22.5t-54.5 22.5t-22.5 54.5z" />
    <glyph glyph-name="dotlessi" unicode="&#x131;" horiz-adv-x="254" 
d="M197 490v-490h-140v490h140z" />
    <glyph glyph-name="IJ" unicode="&#x132;" horiz-adv-x="790" 
d="M214 0h-145v657h145v-657zM444 219v-23q0 -35 18 -55.5t50 -20.5t50 20.5t18 55.5v461h145v-464q0 -47 -15.5 -84.5t-43.5 -64t-67 -40.5t-87 -14t-87 14t-67 40.5t-43.5 64t-15.5 84.5v26h145z" />
    <glyph glyph-name="ij" unicode="&#x133;" horiz-adv-x="514" 
d="M50 620q0 32 22.5 54.5t54.5 22.5t54.5 -22.5t22.5 -54.5t-22.5 -54.5t-54.5 -22.5t-54.5 22.5t-22.5 54.5zM197 490v-490h-140v490h140zM252 -79q33 0 49 14t16 40v515h140v-507q0 -91 -48 -135.5t-140 -44.5h-37v118h20zM309 620q0 32 22.5 54.5t54.5 22.5t54.5 -22.5
t22.5 -54.5t-22.5 -54.5t-54.5 -22.5t-54.5 22.5t-22.5 54.5z" />
    <glyph glyph-name="Jcircumflex" unicode="&#x134;" horiz-adv-x="504" 
d="M158 219v-23q0 -35 18 -55.5t50 -20.5t50 20.5t18 55.5v461h145v-464q0 -47 -15.5 -84.5t-43.5 -64t-67 -40.5t-87 -14t-87 14t-67 40.5t-43.5 64t-15.5 84.5v26h145zM395 878l111 -138l-55 -46l-86 74l-85 -73l-53 45l111 138h57z" />
    <glyph glyph-name="jcircumflex" unicode="&#x135;" horiz-adv-x="254" 
d="M156 723l111 -138l-55 -46l-86 74l-85 -73l-53 45l111 138h57zM-8 -79q33 0 49 14t16 40v515h140v-507q0 -91 -48 -135.5t-140 -44.5h-37v118h20z" />
    <glyph glyph-name="uni0136" unicode="&#x136;" horiz-adv-x="562" 
d="M369 -52l-95 -194h-83l38 194h140zM214 366l172 291h161l-163 -275l169 -382h-162l-109 260l-68 -114v-146h-145v657h145v-291z" />
    <glyph glyph-name="uni0137" unicode="&#x137;" horiz-adv-x="489" 
d="M328 -52l-95 -194h-83l38 194h140zM197 677v-359l125 172h151l-142 -188l150 -302h-154l-90 192l-40 -57v-135h-140v677h140z" />
    <glyph glyph-name="kgreenlandic" unicode="&#x138;" horiz-adv-x="489" 
d="M197 490v-172l123 172h153l-142 -188l150 -302h-154l-90 192l-40 -57v-135h-140v490h140z" />
    <glyph glyph-name="Lacute" unicode="&#x139;" horiz-adv-x="472" 
d="M135 694l-65 55l111 138l87 -79zM214 130h245v-130h-390v657h145v-527z" />
    <glyph glyph-name="lacute" unicode="&#x13a;" horiz-adv-x="254" 
d="M125 702l-65 55l111 138l87 -79zM197 677v-677h-140v677h140z" />
    <glyph glyph-name="uni013B" unicode="&#x13b;" horiz-adv-x="472" 
d="M324 -52l-95 -194h-83l38 194h140zM214 130h245v-130h-390v657h145v-527z" />
    <glyph glyph-name="uni013C" unicode="&#x13c;" horiz-adv-x="254" 
d="M196 -52l-95 -194h-83l38 194h140zM197 677v-677h-140v677h140z" />
    <glyph glyph-name="Lcaron" unicode="&#x13d;" horiz-adv-x="472" 
d="M407 657l-71 -163h-70l23 163h118zM214 130h245v-130h-390v657h145v-527z" />
    <glyph glyph-name="lcaron" unicode="&#x13e;" horiz-adv-x="254" 
d="M377 677l-71 -163h-70l23 163h118zM197 677v-677h-140v677h140z" />
    <glyph glyph-name="Ldot" unicode="&#x13f;" horiz-adv-x="473" 
d="M214 130h245v-130h-390v657h145v-527zM264 339q0 33 23 56t56 23t56 -23t23 -56t-23 -56t-56 -23t-56 23t-23 56z" />
    <glyph glyph-name="ldot" unicode="&#x140;" horiz-adv-x="402" 
d="M197 677v-677h-140v677h140zM246 349q0 33 23 56t56 23t56 -23t23 -56t-23 -56t-56 -23t-56 23t-23 56z" />
    <glyph glyph-name="Lslash" unicode="&#x141;" horiz-adv-x="481" 
d="M223 422l74 45v-126l-74 -45v-166h245v-130h-390v209l-69 -41v126l69 41v322h145v-235z" />
    <glyph glyph-name="lslash" unicode="&#x142;" horiz-adv-x="301" 
d="M221 677v-252l63 38v-126l-63 -38v-299h-140v215l-63 -38v126l63 38v336h140z" />
    <glyph glyph-name="Nacute" unicode="&#x143;" horiz-adv-x="599" 
d="M298 694l-65 55l111 138l87 -79zM530 0h-118l-211 375v-375h-132v657h124l205 -365v365h132v-657z" />
    <glyph glyph-name="nacute" unicode="&#x144;" horiz-adv-x="520" 
d="M263 540l-65 55l111 138l87 -79zM57 0v490h123l8 -44q19 24 49 39t70 15q42 0 72 -14t49.5 -38.5t29 -58t9.5 -73.5v-316h-140v306q0 32 -16 52t-47 20t-49 -20t-18 -52v-306h-140z" />
    <glyph glyph-name="uni0145" unicode="&#x145;" horiz-adv-x="599" 
d="M386 -52l-95 -194h-83l38 194h140zM530 0h-118l-211 375v-375h-132v657h124l205 -365v365h132v-657z" />
    <glyph glyph-name="uni0146" unicode="&#x146;" horiz-adv-x="520" 
d="M331 -52l-95 -194h-83l38 194h140zM57 0v490h123l8 -44q19 24 49 39t70 15q42 0 72 -14t49.5 -38.5t29 -58t9.5 -73.5v-316h-140v306q0 32 -16 52t-47 20t-49 -20t-18 -52v-306h-140z" />
    <glyph glyph-name="Ncaron" unicode="&#x147;" horiz-adv-x="599" 
d="M530 0h-118l-211 375v-375h-132v657h124l205 -365v365h132v-657zM271 694l-111 138l55 46l86 -74l85 73l53 -45l-111 -138h-57z" />
    <glyph glyph-name="ncaron" unicode="&#x148;" horiz-adv-x="520" 
d="M235 540l-111 138l55 46l86 -74l85 73l53 -45l-111 -138h-57zM57 0v490h123l8 -44q19 24 49 39t70 15q42 0 72 -14t49.5 -38.5t29 -58t9.5 -73.5v-316h-140v306q0 32 -16 52t-47 20t-49 -20t-18 -52v-306h-140z" />
    <glyph glyph-name="napostrophe" unicode="&#x149;" horiz-adv-x="568" 
d="M168 677l-95 -194h-83l38 194h140zM105 0v490h123l8 -44q19 24 49 39t70 15q42 0 72 -14t49.5 -38.5t29 -58t9.5 -73.5v-316h-140v306q0 32 -16 52t-47 20t-49 -20t-18 -52v-306h-140z" />
    <glyph glyph-name="Omacron" unicode="&#x14c;" horiz-adv-x="578" 
d="M196 216q0 -45 24.5 -70.5t68.5 -25.5t68.5 25.5t24.5 70.5v225q0 45 -24.5 70.5t-68.5 25.5t-68.5 -25.5t-24.5 -70.5v-225zM527 213q0 -51 -17 -92.5t-48.5 -70.5t-75.5 -44.5t-97 -15.5t-97 15.5t-75.5 44.5t-48.5 70.5t-17 92.5v231q0 103 60 163t178 60
q53 0 97 -15.5t75.5 -44.5t48.5 -70.5t17 -92.5v-231zM168 814h242v-98h-242v98z" />
    <glyph glyph-name="omacron" unicode="&#x14d;" horiz-adv-x="490" 
d="M124 657h242v-98h-242v98zM180 180q0 -32 17 -52t48 -20t48 20t17 52v130q0 32 -17 52t-48 20t-48 -20t-17 -52v-130zM450 190q0 -46 -15 -83t-42 -63t-64.5 -40t-83.5 -14t-83.5 14t-64.5 40t-42 63t-15 83v110q0 46 15 83t42 63t64.5 40t83.5 14t83.5 -14t64.5 -40
t42 -63t15 -83v-110z" />
    <glyph glyph-name="Obreve" unicode="&#x14e;" horiz-adv-x="578" 
d="M196 216q0 -45 24.5 -70.5t68.5 -25.5t68.5 25.5t24.5 70.5v225q0 45 -24.5 70.5t-68.5 25.5t-68.5 -25.5t-24.5 -70.5v-225zM527 213q0 -51 -17 -92.5t-48.5 -70.5t-75.5 -44.5t-97 -15.5t-97 15.5t-75.5 44.5t-48.5 70.5t-17 92.5v231q0 103 60 163t178 60
q53 0 97 -15.5t75.5 -44.5t48.5 -70.5t17 -92.5v-231zM415 830v-21q0 -24 -9 -45t-26 -36.5t-40.5 -24.5t-51.5 -9t-51 9t-39.5 24.5t-25.5 36.5t-9 45v21h82v-21q0 -19 11 -31.5t32 -12.5q22 0 33.5 12.5t11.5 31.5v21h82z" />
    <glyph glyph-name="obreve" unicode="&#x14f;" horiz-adv-x="490" 
d="M180 180q0 -32 17 -52t48 -20t48 20t17 52v130q0 32 -17 52t-48 20t-48 -20t-17 -52v-130zM450 190q0 -46 -15 -83t-42 -63t-64.5 -40t-83.5 -14t-83.5 14t-64.5 40t-42 63t-15 83v110q0 46 15 83t42 63t64.5 40t83.5 14t83.5 -14t64.5 -40t42 -63t15 -83v-110zM371 676
v-21q0 -24 -9 -45t-26 -36.5t-40.5 -24.5t-51.5 -9t-51 9t-39.5 24.5t-25.5 36.5t-9 45v21h82v-21q0 -19 11 -31.5t32 -12.5q22 0 33.5 12.5t11.5 31.5v21h82z" />
    <glyph glyph-name="Ohungarumlaut" unicode="&#x150;" horiz-adv-x="578" 
d="M209 694l-54 45l100 143l75 -61zM342 697l-46 53l123 124l63 -72zM196 216q0 -45 24.5 -70.5t68.5 -25.5t68.5 25.5t24.5 70.5v225q0 45 -24.5 70.5t-68.5 25.5t-68.5 -25.5t-24.5 -70.5v-225zM527 213q0 -51 -17 -92.5t-48.5 -70.5t-75.5 -44.5t-97 -15.5t-97 15.5
t-75.5 44.5t-48.5 70.5t-17 92.5v231q0 103 60 163t178 60q53 0 97 -15.5t75.5 -44.5t48.5 -70.5t17 -92.5v-231z" />
    <glyph glyph-name="ohungarumlaut" unicode="&#x151;" horiz-adv-x="490" 
d="M168 538l-54 45l100 143l75 -61zM301 541l-46 53l123 124l63 -72zM180 180q0 -32 17 -52t48 -20t48 20t17 52v130q0 32 -17 52t-48 20t-48 -20t-17 -52v-130zM450 190q0 -46 -15 -83t-42 -63t-64.5 -40t-83.5 -14t-83.5 14t-64.5 40t-42 63t-15 83v110q0 46 15 83t42 63
t64.5 40t83.5 14t83.5 -14t64.5 -40t42 -63t15 -83v-110z" />
    <glyph glyph-name="OE" unicode="&#x152;" horiz-adv-x="852" 
d="M802 527h-275v-130h245v-128h-245v-139h285v-130h-420v25q-26 -17 -55.5 -26t-62.5 -9q-51 0 -92 15.5t-70.5 44.5t-45 70.5t-15.5 92.5v231q0 103 55.5 163t167.5 60q65 0 118 -36v26h410v-130zM196 216q0 -45 24.5 -70.5t68.5 -25.5t68.5 25.5t24.5 70.5v225
q0 45 -24.5 70.5t-68.5 25.5t-68.5 -25.5t-24.5 -70.5v-225z" />
    <glyph glyph-name="oe" unicode="&#x153;" horiz-adv-x="745" 
d="M708 173v-3q0 -41 -14.5 -74.5t-40 -57t-62 -36t-79.5 -12.5q-42 0 -75.5 14.5t-57.5 40.5q-24 -26 -58 -40.5t-76 -14.5q-46 0 -83.5 14t-64.5 40t-42 63t-15 83v110q0 46 15 83t42 63t64.5 40t83.5 14q42 0 76 -14.5t59 -40.5q24 26 57 40.5t75 14.5q43 0 79.5 -14
t62 -40t40 -63t14.5 -83v-83h-261v-42q0 -32 18 -53t49 -21q29 0 45 18.5t16 48.5v5h133zM180 180q0 -32 17 -52t48 -20t48 20t17 52v130q0 32 -17 52t-48 20t-48 -20t-17 -52v-130zM447 310h128v7q0 32 -17 52t-46 20q-31 0 -48 -20t-17 -52v-7z" />
    <glyph glyph-name="Racute" unicode="&#x154;" horiz-adv-x="581" 
d="M386 0l-86 233h-86v-233h-145v657h243q49 0 90.5 -15t72 -42t47.5 -65.5t17 -85.5q0 -63 -26 -109t-71 -73l103 -267h-159zM214 530v-170h82q45 0 70 23t25 63q0 38 -25 61t-70 23h-82zM273 694l-65 55l111 138l87 -79z" />
    <glyph glyph-name="racute" unicode="&#x155;" horiz-adv-x="345" 
d="M181 540l-65 55l111 138l87 -79zM57 0v490h123l10 -53q16 26 42.5 44.5t62.5 18.5q17 0 32 -4v-132q-23 5 -46 5q-16 0 -31 -3.5t-27 -12t-19 -22.5t-7 -36v-295h-140z" />
    <glyph glyph-name="uni0156" unicode="&#x156;" horiz-adv-x="581" 
d="M362 -52l-95 -194h-83l38 194h140zM386 0l-86 233h-86v-233h-145v657h243q49 0 90.5 -15t72 -42t47.5 -65.5t17 -85.5q0 -63 -26 -109t-71 -73l103 -267h-159zM214 530v-170h82q45 0 70 23t25 63q0 38 -25 61t-70 23h-82z" />
    <glyph glyph-name="uni0157" unicode="&#x157;" horiz-adv-x="345" 
d="M200 -52l-95 -194h-83l38 194h140zM57 0v490h123l10 -53q16 26 42.5 44.5t62.5 18.5q17 0 32 -4v-132q-23 5 -46 5q-16 0 -31 -3.5t-27 -12t-19 -22.5t-7 -36v-295h-140z" />
    <glyph glyph-name="Rcaron" unicode="&#x158;" horiz-adv-x="581" 
d="M386 0l-86 233h-86v-233h-145v657h243q49 0 90.5 -15t72 -42t47.5 -65.5t17 -85.5q0 -63 -26 -109t-71 -73l103 -267h-159zM214 530v-170h82q45 0 70 23t25 63q0 38 -25 61t-70 23h-82zM230 694l-111 138l55 46l86 -74l85 73l53 -45l-111 -138h-57z" />
    <glyph glyph-name="rcaron" unicode="&#x159;" horiz-adv-x="345" 
d="M143 540l-111 138l55 46l86 -74l85 73l53 -45l-111 -138h-57zM57 0v490h123l10 -53q16 26 42.5 44.5t62.5 18.5q17 0 32 -4v-132q-23 5 -46 5q-16 0 -31 -3.5t-27 -12t-19 -22.5t-7 -36v-295h-140z" />
    <glyph glyph-name="Sacute" unicode="&#x15a;" horiz-adv-x="536" 
d="M343 454v20q0 34 -22.5 53.5t-57.5 19.5t-54.5 -17.5t-19.5 -44.5q0 -6 2 -14.5t8 -17.5t17 -17.5t30 -14.5l86 -30q32 -11 62.5 -25.5t54 -37t37.5 -55t14 -78.5q0 -45 -16 -82.5t-46 -65t-72.5 -42.5t-94.5 -15t-95.5 14t-75 39.5t-49 62t-17.5 82.5v24h143v-29
q0 -36 24 -54.5t66 -18.5q45 0 68 19.5t23 49.5q0 21 -11.5 40.5t-43.5 30.5l-103 37q-75 27 -113.5 71.5t-38.5 116.5q0 38 14.5 73t42 61.5t67.5 42t91 15.5q50 0 91 -14t70.5 -39.5t45.5 -62t16 -82.5v-15h-143zM265 694l-65 55l111 138l87 -79z" />
    <glyph glyph-name="sacute" unicode="&#x15b;" horiz-adv-x="452" 
d="M223 540l-65 55l111 138l87 -79zM161 158v-19q0 -23 17 -34.5t46 -11.5q63 0 63 43q0 15 -10 24.5t-35 17.5l-83 26q-51 16 -84.5 51t-33.5 95q0 29 12 56.5t35.5 48.5t57 33.5t75.5 12.5q88 0 139.5 -39.5t51.5 -109.5v-12h-130v14q0 20 -15 32t-44 12q-25 0 -39 -10
t-14 -27q0 -10 7 -20.5t36 -18.5l65 -20q27 -9 52.5 -20.5t45 -29t31 -42.5t11.5 -61q0 -71 -50.5 -115.5t-141.5 -44.5q-43 0 -78.5 10.5t-61.5 30.5t-40.5 48.5t-14.5 63.5v16h130z" />
    <glyph glyph-name="Scircumflex" unicode="&#x15c;" horiz-adv-x="536" 
d="M343 454v20q0 34 -22.5 53.5t-57.5 19.5t-54.5 -17.5t-19.5 -44.5q0 -6 2 -14.5t8 -17.5t17 -17.5t30 -14.5l86 -30q32 -11 62.5 -25.5t54 -37t37.5 -55t14 -78.5q0 -45 -16 -82.5t-46 -65t-72.5 -42.5t-94.5 -15t-95.5 14t-75 39.5t-49 62t-17.5 82.5v24h143v-29
q0 -36 24 -54.5t66 -18.5q45 0 68 19.5t23 49.5q0 21 -11.5 40.5t-43.5 30.5l-103 37q-75 27 -113.5 71.5t-38.5 116.5q0 38 14.5 73t42 61.5t67.5 42t91 15.5q50 0 91 -14t70.5 -39.5t45.5 -62t16 -82.5v-15h-143zM294 878l111 -138l-55 -46l-86 74l-85 -73l-53 45l111 138
h57z" />
    <glyph glyph-name="scircumflex" unicode="&#x15d;" horiz-adv-x="452" 
d="M253 723l111 -138l-55 -46l-86 74l-85 -73l-53 45l111 138h57zM161 158v-19q0 -23 17 -34.5t46 -11.5q63 0 63 43q0 15 -10 24.5t-35 17.5l-83 26q-51 16 -84.5 51t-33.5 95q0 29 12 56.5t35.5 48.5t57 33.5t75.5 12.5q88 0 139.5 -39.5t51.5 -109.5v-12h-130v14
q0 20 -15 32t-44 12q-25 0 -39 -10t-14 -27q0 -10 7 -20.5t36 -18.5l65 -20q27 -9 52.5 -20.5t45 -29t31 -42.5t11.5 -61q0 -71 -50.5 -115.5t-141.5 -44.5q-43 0 -78.5 10.5t-61.5 30.5t-40.5 48.5t-14.5 63.5v16h130z" />
    <glyph glyph-name="Scedilla" unicode="&#x15e;" horiz-adv-x="538" 
d="M189 -82l22 77q-80 14 -128 64.5t-48 128.5v24h143v-29q0 -36 24 -54.5t66 -18.5q45 0 68 19.5t23 49.5q0 21 -11.5 40.5t-43.5 30.5l-103 37q-75 27 -113.5 71.5t-38.5 116.5q0 38 14.5 73t42 61.5t67.5 42t91 15.5q50 0 91 -14t70.5 -39.5t45.5 -62t16 -82.5v-15h-143
v20q0 34 -22.5 53.5t-57.5 19.5t-54.5 -17.5t-19.5 -44.5q0 -6 2 -14.5t8 -17.5t17 -17.5t30 -14.5l86 -30q32 -11 62.5 -25.5t54 -37t37.5 -55t14 -78.5q0 -44 -15.5 -81t-44 -64t-68.5 -42.5t-90 -17.5l-8 -28h12q39 0 60 -19t21 -54t-22 -55.5t-59 -20.5h-119v63h103
q6 0 10.5 2.5t4.5 9.5t-4.5 9.5t-10.5 2.5h-60z" />
    <glyph glyph-name="scedilla" unicode="&#x15f;" horiz-adv-x="453" 
d="M146 -82l22 77q-62 13 -99 51t-37 96v16h130v-19q0 -23 17 -34.5t46 -11.5q63 0 63 43q0 15 -10 24.5t-35 17.5l-83 26q-51 16 -84.5 51t-33.5 95q0 29 12 56.5t35.5 48.5t57 33.5t75.5 12.5q88 0 139.5 -39.5t51.5 -109.5v-12h-130v14q0 20 -15 32t-44 12q-25 0 -39 -10
t-14 -27q0 -10 7 -20.5t36 -18.5l65 -20q27 -9 52.5 -20.5t45 -29t31 -42.5t11.5 -61q0 -69 -47 -112.5t-132 -47.5l-8 -27h12q39 0 60 -19t21 -54t-22 -55.5t-59 -20.5h-119v63h103q6 0 10.5 2.5t4.5 9.5t-4.5 9.5t-10.5 2.5h-60z" />
    <glyph glyph-name="Scaron" unicode="&#x160;" horiz-adv-x="536" 
d="M343 454v20q0 34 -22.5 53.5t-57.5 19.5t-54.5 -17.5t-19.5 -44.5q0 -6 2 -14.5t8 -17.5t17 -17.5t30 -14.5l86 -30q32 -11 62.5 -25.5t54 -37t37.5 -55t14 -78.5q0 -45 -16 -82.5t-46 -65t-72.5 -42.5t-94.5 -15t-95.5 14t-75 39.5t-49 62t-17.5 82.5v24h143v-29
q0 -36 24 -54.5t66 -18.5q45 0 68 19.5t23 49.5q0 21 -11.5 40.5t-43.5 30.5l-103 37q-75 27 -113.5 71.5t-38.5 116.5q0 38 14.5 73t42 61.5t67.5 42t91 15.5q50 0 91 -14t70.5 -39.5t45.5 -62t16 -82.5v-15h-143zM239 694l-111 138l55 46l86 -74l85 73l53 -45l-111 -138
h-57z" />
    <glyph glyph-name="scaron" unicode="&#x161;" horiz-adv-x="452" 
d="M195 540l-111 138l55 46l86 -74l85 73l53 -45l-111 -138h-57zM161 158v-19q0 -23 17 -34.5t46 -11.5q63 0 63 43q0 15 -10 24.5t-35 17.5l-83 26q-51 16 -84.5 51t-33.5 95q0 29 12 56.5t35.5 48.5t57 33.5t75.5 12.5q88 0 139.5 -39.5t51.5 -109.5v-12h-130v14
q0 20 -15 32t-44 12q-25 0 -39 -10t-14 -27q0 -10 7 -20.5t36 -18.5l65 -20q27 -9 52.5 -20.5t45 -29t31 -42.5t11.5 -61q0 -71 -50.5 -115.5t-141.5 -44.5q-43 0 -78.5 10.5t-61.5 30.5t-40.5 48.5t-14.5 63.5v16h130z" />
    <glyph glyph-name="uni0162" unicode="&#x162;" horiz-adv-x="482" 
d="M182 -82l24 82h-37v527h-151v130h446v-130h-150v-527h-35l-11 -38h12q39 0 60 -19t21 -54t-22 -55.5t-59 -20.5h-119v63h103q6 0 10.5 2.5t4.5 9.5t-4.5 9.5t-10.5 2.5h-60z" />
    <glyph glyph-name="uni0163" unicode="&#x163;" horiz-adv-x="338" 
d="M108 -82l24 82h-34v367h-75v118h75v134h140v-134h77v-118h-77v-367h-33l-11 -38h12q39 0 60 -19t21 -54t-22 -55.5t-59 -20.5h-119v63h103q6 0 10.5 2.5t4.5 9.5t-4.5 9.5t-10.5 2.5h-60z" />
    <glyph glyph-name="Tcaron" unicode="&#x164;" horiz-adv-x="482" 
d="M18 657h446v-130h-150v-527h-145v527h-151v130zM212 694l-111 138l55 46l86 -74l85 73l53 -45l-111 -138h-57z" />
    <glyph glyph-name="tcaron" unicode="&#x165;" horiz-adv-x="338" 
d="M421 677l-71 -163h-70l23 163h118zM23 485h75v134h140v-134h77v-118h-77v-367h-140v367h-75v118z" />
    <glyph glyph-name="Tbar" unicode="&#x166;" horiz-adv-x="482" 
d="M18 657h446v-130h-150v-99h116v-110h-116v-318h-145v318h-116v110h116v99h-151v130z" />
    <glyph glyph-name="tbar" unicode="&#x167;" horiz-adv-x="344" 
d="M26 485h75v134h140v-134h77v-118h-77v-63h77v-87h-77v-217h-140v217h-75v87h75v63h-75v118z" />
    <glyph glyph-name="Utilde" unicode="&#x168;" horiz-adv-x="592" 
d="M527 657v-444q0 -51 -16.5 -92.5t-47 -70.5t-73 -44.5t-94.5 -15.5t-94.5 15.5t-73 44.5t-47 70.5t-16.5 92.5v444h145v-441q0 -45 22.5 -70.5t63.5 -25.5q40 0 63 25.5t23 70.5v441h145zM460 825q1 -7 1 -13v-12q0 -29 -7.5 -49t-20 -32t-28.5 -17.5t-34 -5.5
q-31 0 -56 12l-44 21q-7 3 -14 5.5t-15 2.5q-11 0 -18 -6t-11 -13q-4 -8 -6 -18h-72q-2 8 -3 15.5t-1 15.5q0 45 28 72.5t70 27.5q26 0 51 -11l41 -19q8 -4 18.5 -8.5t18.5 -4.5q10 0 15.5 5.5t9.5 12.5q4 8 6 19h71z" />
    <glyph glyph-name="utilde" unicode="&#x169;" horiz-adv-x="515" 
d="M53 490h140v-316q0 -28 14.5 -45t43.5 -17q31 0 49 20t18 52v306h140v-490h-123l-9 43q-18 -23 -48 -38t-70 -15q-41 0 -70 13t-48 36.5t-28 55t-9 69.5v326zM420 672q1 -8 1 -13.5v-11.5q0 -29 -7.5 -49t-20 -32t-28.5 -17.5t-34 -5.5q-31 0 -56 12l-44 21q-7 3 -14 5.5
t-15 2.5q-11 0 -18 -6t-11 -13q-4 -8 -6 -18h-72q-2 5 -3 14t-1 17q0 45 28 72.5t70 27.5q26 0 51 -11l41 -19q8 -4 18.5 -8.5t18.5 -4.5q10 0 15.5 5.5t9.5 12.5q4 8 6 19h71z" />
    <glyph glyph-name="Umacron" unicode="&#x16a;" horiz-adv-x="592" 
d="M527 657v-444q0 -51 -16.5 -92.5t-47 -70.5t-73 -44.5t-94.5 -15.5t-94.5 15.5t-73 44.5t-47 70.5t-16.5 92.5v444h145v-441q0 -45 22.5 -70.5t63.5 -25.5q40 0 63 25.5t23 70.5v441h145zM175 814h242v-98h-242v98z" />
    <glyph glyph-name="umacron" unicode="&#x16b;" horiz-adv-x="515" 
d="M53 490h140v-316q0 -28 14.5 -45t43.5 -17q31 0 49 20t18 52v306h140v-490h-123l-9 43q-18 -23 -48 -38t-70 -15q-41 0 -70 13t-48 36.5t-28 55t-9 69.5v326zM135 657h242v-98h-242v98z" />
    <glyph glyph-name="Ubreve" unicode="&#x16c;" horiz-adv-x="592" 
d="M527 657v-444q0 -51 -16.5 -92.5t-47 -70.5t-73 -44.5t-94.5 -15.5t-94.5 15.5t-73 44.5t-47 70.5t-16.5 92.5v444h145v-441q0 -45 22.5 -70.5t63.5 -25.5q40 0 63 25.5t23 70.5v441h145zM422 830v-21q0 -24 -9 -45t-26 -36.5t-40.5 -24.5t-51.5 -9t-51 9t-39.5 24.5
t-25.5 36.5t-9 45v21h82v-21q0 -19 11 -31.5t32 -12.5q22 0 33.5 12.5t11.5 31.5v21h82z" />
    <glyph glyph-name="ubreve" unicode="&#x16d;" horiz-adv-x="515" 
d="M53 490h140v-316q0 -28 14.5 -45t43.5 -17q31 0 49 20t18 52v306h140v-490h-123l-9 43q-18 -23 -48 -38t-70 -15q-41 0 -70 13t-48 36.5t-28 55t-9 69.5v326zM382 676v-21q0 -24 -9 -45t-26 -36.5t-40.5 -24.5t-51.5 -9t-51 9t-39.5 24.5t-25.5 36.5t-9 45v21h82v-21
q0 -19 11 -31.5t32 -12.5q22 0 33.5 12.5t11.5 31.5v21h82z" />
    <glyph glyph-name="Uring" unicode="&#x16e;" horiz-adv-x="592" 
d="M295 740q20 0 30 12t10 31q0 18 -10 29.5t-30 11.5q-19 0 -29 -11.5t-10 -29.5q0 -19 10 -31t29 -12zM295 677q-51 0 -81 30.5t-30 75.5t30 75.5t81 30.5q25 0 46 -8.5t36 -22.5t23 -33.5t8 -41.5q0 -45 -31 -75.5t-82 -30.5zM527 657v-444q0 -51 -16.5 -92.5t-47 -70.5
t-73 -44.5t-94.5 -15.5t-94.5 15.5t-73 44.5t-47 70.5t-16.5 92.5v444h145v-441q0 -45 22.5 -70.5t63.5 -25.5q40 0 63 25.5t23 70.5v441h145z" />
    <glyph glyph-name="uring" unicode="&#x16f;" horiz-adv-x="515" 
d="M254 590q20 0 30 12t10 31q0 18 -10 29.5t-30 11.5q-19 0 -29 -11.5t-10 -29.5q0 -19 10 -31t29 -12zM254 527q-51 0 -81 30.5t-30 75.5t30 75.5t81 30.5q25 0 46 -8.5t36 -22.5t23 -33.5t8 -41.5q0 -45 -31 -75.5t-82 -30.5zM53 490h140v-316q0 -28 14.5 -45t43.5 -17
q31 0 49 20t18 52v306h140v-490h-123l-9 43q-18 -23 -48 -38t-70 -15q-41 0 -70 13t-48 36.5t-28 55t-9 69.5v326z" />
    <glyph glyph-name="Uhungarumlaut" unicode="&#x170;" horiz-adv-x="592" 
d="M227 694l-54 45l100 143l75 -61zM360 697l-46 53l123 124l63 -72zM527 657v-444q0 -51 -16.5 -92.5t-47 -70.5t-73 -44.5t-94.5 -15.5t-94.5 15.5t-73 44.5t-47 70.5t-16.5 92.5v444h145v-441q0 -45 22.5 -70.5t63.5 -25.5q40 0 63 25.5t23 70.5v441h145z" />
    <glyph glyph-name="uhungarumlaut" unicode="&#x171;" horiz-adv-x="515" 
d="M53 490h140v-316q0 -28 14.5 -45t43.5 -17q31 0 49 20t18 52v306h140v-490h-123l-9 43q-18 -23 -48 -38t-70 -15q-41 0 -70 13t-48 36.5t-28 55t-9 69.5v326zM190 538l-54 45l100 143l75 -61zM323 541l-46 53l123 124l63 -72z" />
    <glyph glyph-name="Uogonek" unicode="&#x172;" horiz-adv-x="592" 
d="M527 657v-444q0 -54 -18.5 -96.5t-51.5 -72.5q-28 -26 -44 -56.5t-16 -65.5q0 -18 9 -29t29 -11h49v-77h-66q-51 0 -76 26t-25 66q0 29 8 53t21 44q-12 -2 -24.5 -3t-25.5 -1q-52 0 -94.5 15.5t-73 44.5t-47 70.5t-16.5 92.5v444h145v-441q0 -45 22.5 -70.5t63.5 -25.5
q40 0 63 25.5t23 70.5v441h145z" />
    <glyph glyph-name="uogonek" unicode="&#x173;" horiz-adv-x="515" 
d="M53 490h140v-316q0 -28 14.5 -45t43.5 -17q31 0 49 20t18 52v306h140v-490h-49q-24 -18 -40.5 -40.5t-16.5 -47.5q0 -14 9 -22t29 -8h49v-77h-66q-51 0 -76 23.5t-25 58.5q0 39 18.5 67.5t44.5 45.5l-9 43q-18 -23 -48 -38t-70 -15q-41 0 -70 13t-48 36.5t-28 55t-9 69.5
v326z" />
    <glyph glyph-name="Wcircumflex" unicode="&#x174;" horiz-adv-x="723" 
d="M390 878l111 -138l-55 -46l-86 74l-85 -73l-53 45l111 138h57zM702 657l-134 -657h-134l-73 414l-72 -414h-134l-134 657h146l62 -408l69 408h134l69 -409l63 409h138z" />
    <glyph glyph-name="wcircumflex" unicode="&#x175;" horiz-adv-x="693" 
d="M375 723l111 -138l-55 -46l-86 74l-85 -73l-53 45l111 138h57zM223 190l68 300h115l68 -300l60 300h144l-137 -490h-128l-67 267l-66 -267h-128l-137 490h148z" />
    <glyph glyph-name="Ycircumflex" unicode="&#x176;" horiz-adv-x="517" 
d="M156 657l106 -250l105 250h147l-183 -390v-267h-145v265l-183 392h153zM287 878l111 -138l-55 -46l-86 74l-85 -73l-53 45l111 138h57z" />
    <glyph glyph-name="ycircumflex" unicode="&#x177;" horiz-adv-x="467" 
d="M114 -187l56 168l-157 509h149l75 -303l75 303h143l-210 -677h-131zM263 723l111 -138l-55 -46l-86 74l-85 -73l-53 45l111 138h57z" />
    <glyph glyph-name="Ydieresis" unicode="&#x178;" horiz-adv-x="517" 
d="M156 657l106 -250l105 250h147l-183 -390v-267h-145v265l-183 392h153zM117 767q0 28 19.5 46.5t47.5 18.5q27 0 45.5 -18.5t18.5 -46.5t-18.5 -47.5t-45.5 -19.5q-28 0 -47.5 19.5t-19.5 47.5zM268 767q0 28 19 46.5t46 18.5q28 0 47 -18.5t19 -46.5t-19 -47.5
t-47 -19.5q-27 0 -46 19.5t-19 47.5z" />
    <glyph glyph-name="Zacute" unicode="&#x179;" horiz-adv-x="485" 
d="M43 657h399v-92l-230 -437h235v-128h-411v92l230 437h-223v128zM241 694l-65 55l111 138l87 -79z" />
    <glyph glyph-name="zacute" unicode="&#x17a;" horiz-adv-x="441" 
d="M219 540l-65 55l111 138l87 -79zM41 490h359v-80l-191 -296h196v-114h-371v80l191 296h-184v114z" />
    <glyph glyph-name="Zdotaccent" unicode="&#x17b;" horiz-adv-x="485" 
d="M164 781q0 32 22.5 54.5t54.5 22.5t54.5 -22.5t22.5 -54.5t-22.5 -54.5t-54.5 -22.5t-54.5 22.5t-22.5 54.5zM43 657h399v-92l-230 -437h235v-128h-411v92l230 437h-223v128z" />
    <glyph glyph-name="zdotaccent" unicode="&#x17c;" horiz-adv-x="441" 
d="M41 490h359v-80l-191 -296h196v-114h-371v80l191 296h-184v114zM143 617q0 32 22.5 54.5t54.5 22.5t54.5 -22.5t22.5 -54.5t-22.5 -54.5t-54.5 -22.5t-54.5 22.5t-22.5 54.5z" />
    <glyph glyph-name="Zcaron" unicode="&#x17d;" horiz-adv-x="485" 
d="M43 657h399v-92l-230 -437h235v-128h-411v92l230 437h-223v128zM213 694l-111 138l55 46l86 -74l85 73l53 -45l-111 -138h-57z" />
    <glyph glyph-name="zcaron" unicode="&#x17e;" horiz-adv-x="441" 
d="M192 540l-111 138l55 46l86 -74l85 73l53 -45l-111 -138h-57zM41 490h359v-80l-191 -296h196v-114h-371v80l191 296h-184v114z" />
    <glyph glyph-name="longs" unicode="&#x17f;" horiz-adv-x="274" 
d="M262 559q-33 0 -49 -14t-16 -40v-505h-140v497q0 91 48 135.5t140 44.5h52v-118h-35z" />
    <glyph glyph-name="florin" unicode="&#x192;" horiz-adv-x="417" 
d="M71 385h65v92q0 91 48 135.5t140 44.5h52v-118h-35q-33 0 -49 -14t-16 -40v-100h95v-118h-95v-274q0 -91 -48 -135.5t-140 -44.5h-52v118h35q33 0 49 14t16 40v282h-65v118z" />
    <glyph glyph-name="uni0218" unicode="&#x218;" horiz-adv-x="536" 
d="M356 -52l-95 -194h-83l38 194h140zM343 454v20q0 34 -22.5 53.5t-57.5 19.5t-54.5 -17.5t-19.5 -44.5q0 -6 2 -14.5t8 -17.5t17 -17.5t30 -14.5l86 -30q32 -11 62.5 -25.5t54 -37t37.5 -55t14 -78.5q0 -45 -16 -82.5t-46 -65t-72.5 -42.5t-94.5 -15t-95.5 14t-75 39.5
t-49 62t-17.5 82.5v24h143v-29q0 -36 24 -54.5t66 -18.5q45 0 68 19.5t23 49.5q0 21 -11.5 40.5t-43.5 30.5l-103 37q-75 27 -113.5 71.5t-38.5 116.5q0 38 14.5 73t42 61.5t67.5 42t91 15.5q50 0 91 -14t70.5 -39.5t45.5 -62t16 -82.5v-15h-143z" />
    <glyph glyph-name="uni0219" unicode="&#x219;" horiz-adv-x="452" 
d="M312 -52l-95 -194h-83l38 194h140zM161 158v-19q0 -23 17 -34.5t46 -11.5q63 0 63 43q0 15 -10 24.5t-35 17.5l-83 26q-51 16 -84.5 51t-33.5 95q0 29 12 56.5t35.5 48.5t57 33.5t75.5 12.5q88 0 139.5 -39.5t51.5 -109.5v-12h-130v14q0 20 -15 32t-44 12q-25 0 -39 -10
t-14 -27q0 -10 7 -20.5t36 -18.5l65 -20q27 -9 52.5 -20.5t45 -29t31 -42.5t11.5 -61q0 -71 -50.5 -115.5t-141.5 -44.5q-43 0 -78.5 10.5t-61.5 30.5t-40.5 48.5t-14.5 63.5v16h130z" />
    <glyph glyph-name="uni021A" unicode="&#x21a;" horiz-adv-x="482" 
d="M309 -52l-95 -194h-83l38 194h140zM18 657h446v-130h-150v-527h-145v527h-151v130z" />
    <glyph glyph-name="uni021B" unicode="&#x21b;" horiz-adv-x="338" 
d="M236 -52l-95 -194h-83l38 194h140zM23 485h75v134h140v-134h77v-118h-77v-367h-140v367h-75v118z" />
    <glyph glyph-name="uni0237" unicode="&#x237;" horiz-adv-x="254" 
d="M-8 -79q33 0 49 14t16 40v515h140v-507q0 -91 -48 -135.5t-140 -44.5h-37v118h20z" />
    <glyph glyph-name="circumflex" unicode="&#x2c6;" horiz-adv-x="319" 
d="M188 723l111 -138l-55 -46l-86 74l-85 -73l-53 45l111 138h57z" />
    <glyph glyph-name="caron" unicode="&#x2c7;" horiz-adv-x="319" 
d="M131 540l-111 138l55 46l86 -74l85 73l53 -45l-111 -138h-57z" />
    <glyph glyph-name="uni02C9" unicode="&#x2c9;" horiz-adv-x="282" 
d="M20 657h242v-98h-242v98z" />
    <glyph glyph-name="breve" unicode="&#x2d8;" horiz-adv-x="292" 
d="M272 676v-21q0 -24 -9 -45t-26 -36.5t-40.5 -24.5t-51.5 -9t-51 9t-39.5 24.5t-25.5 36.5t-9 45v21h82v-21q0 -19 11 -31.5t32 -12.5q22 0 33.5 12.5t11.5 31.5v21h82z" />
    <glyph glyph-name="dotaccent" unicode="&#x2d9;" horiz-adv-x="194" 
d="M20 617q0 32 22.5 54.5t54.5 22.5t54.5 -22.5t22.5 -54.5t-22.5 -54.5t-54.5 -22.5t-54.5 22.5t-22.5 54.5z" />
    <glyph glyph-name="ring" unicode="&#x2da;" horiz-adv-x="264" 
d="M131 590q20 0 30 12t10 31q0 18 -10 29.5t-30 11.5q-19 0 -29 -11.5t-10 -29.5q0 -19 10 -31t29 -12zM131 527q-51 0 -81 30.5t-30 75.5t30 75.5t81 30.5q25 0 46 -8.5t36 -22.5t23 -33.5t8 -41.5q0 -45 -31 -75.5t-82 -30.5z" />
    <glyph glyph-name="ogonek" unicode="&#x2db;" horiz-adv-x="277" 
d="M215 -118v-77h-66q-51 0 -76 23.5t-25 58.5q0 45 24.5 76t53.5 46l59 -9q-24 -18 -40.5 -40.5t-16.5 -47.5q0 -14 9 -22t29 -8h49z" />
    <glyph glyph-name="tilde" unicode="&#x2dc;" horiz-adv-x="370" 
d="M349 672q1 -8 1 -13.5v-11.5q0 -29 -7.5 -49t-20 -32t-28.5 -17.5t-34 -5.5q-31 0 -56 12l-44 21q-7 3 -14 5.5t-15 2.5q-11 0 -18 -6t-11 -13q-4 -8 -6 -18h-72q-2 5 -3 14t-1 17q0 45 28 72.5t70 27.5q26 0 51 -11l41 -19q8 -4 18.5 -8.5t18.5 -4.5q10 0 15.5 5.5
t9.5 12.5q4 8 6 19h71z" />
    <glyph glyph-name="hungarumlaut" unicode="&#x2dd;" horiz-adv-x="367" 
d="M74 538l-54 45l100 143l75 -61zM207 541l-46 53l123 124l63 -72z" />
    <glyph glyph-name="uni0394" unicode="&#x394;" horiz-adv-x="553" 
d="M14 0l185 657h156l184 -657h-525zM192 127h162l-81 329z" />
    <glyph glyph-name="uni03A9" unicode="&#x3a9;" horiz-adv-x="608" 
d="M342 120q26 2 40.5 22.5t14.5 53.5v245q0 45 -24.5 70.5t-68.5 25.5t-68.5 -25.5t-24.5 -70.5v-245q0 -33 14.5 -53.5t40.5 -22.5v-120h-223v92h90q-67 43 -67 151v201q0 103 60 163t178 60t178 -60t60 -163v-201q0 -107 -67 -151h90v-92h-223v120z" />
    <glyph glyph-name="uni03BC" unicode="&#x3bc;" horiz-adv-x="519" 
d="M57 490h140v-316q0 -28 14.5 -45t43.5 -17t47 18.5t20 47.5v312h140v-490h-123l-9 43q-18 -23 -48 -38t-70 -15q-5 0 -10 0.5t-10 0.5l5 -131v-47h-140v677z" />
    <glyph glyph-name="pi" unicode="&#x3c0;" horiz-adv-x="626" 
d="M23 490h580v-121h-67v-369h-140v369h-165v-369h-140v369h-68v121z" />
    <glyph glyph-name="Wgrave" unicode="&#x1e80;" horiz-adv-x="723" 
d="M228 808l87 79l111 -138l-65 -55zM702 657l-134 -657h-134l-73 414l-72 -414h-134l-134 657h146l62 -408l69 408h134l69 -409l63 409h138z" />
    <glyph glyph-name="wgrave" unicode="&#x1e81;" horiz-adv-x="693" 
d="M223 190l68 300h115l68 -300l60 300h144l-137 -490h-128l-67 267l-66 -267h-128l-137 490h148zM212 654l87 79l111 -138l-65 -55z" />
    <glyph glyph-name="Wacute" unicode="&#x1e82;" horiz-adv-x="723" 
d="M361 694l-65 55l111 138l87 -79zM702 657l-134 -657h-134l-73 414l-72 -414h-134l-134 657h146l62 -408l69 408h134l69 -409l63 409h138z" />
    <glyph glyph-name="wacute" unicode="&#x1e83;" horiz-adv-x="693" 
d="M346 540l-65 55l111 138l87 -79zM223 190l68 300h115l68 -300l60 300h144l-137 -490h-128l-67 267l-66 -267h-128l-137 490h148z" />
    <glyph glyph-name="Wdieresis" unicode="&#x1e84;" horiz-adv-x="723" 
d="M702 657l-134 -657h-134l-73 414l-72 -414h-134l-134 657h146l62 -408l69 408h134l69 -409l63 409h138zM220 767q0 28 19.5 46.5t47.5 18.5q27 0 45.5 -18.5t18.5 -46.5t-18.5 -47.5t-45.5 -19.5q-28 0 -47.5 19.5t-19.5 47.5zM371 767q0 28 19 46.5t46 18.5
q28 0 47 -18.5t19 -46.5t-19 -47.5t-47 -19.5q-27 0 -46 19.5t-19 47.5z" />
    <glyph glyph-name="wdieresis" unicode="&#x1e85;" horiz-adv-x="693" 
d="M205 614q0 28 19.5 46.5t47.5 18.5q27 0 45.5 -18.5t18.5 -46.5t-18.5 -47.5t-45.5 -19.5q-28 0 -47.5 19.5t-19.5 47.5zM356 614q0 28 19 46.5t46 18.5q28 0 47 -18.5t19 -46.5t-19 -47.5t-47 -19.5q-27 0 -46 19.5t-19 47.5zM223 190l68 300h115l68 -300l60 300h144
l-137 -490h-128l-67 267l-66 -267h-128l-137 490h148z" />
    <glyph glyph-name="endash" unicode="&#x2013;" horiz-adv-x="540" 
d="M55 311h430v-101h-430v101z" />
    <glyph glyph-name="emdash" unicode="&#x2014;" horiz-adv-x="800" 
d="M55 311h690v-101h-690v101z" />
    <glyph glyph-name="quoteleft" unicode="&#x2018;" horiz-adv-x="252" 
d="M30 429l106 228h83l-49 -228h-140z" />
    <glyph glyph-name="quoteright" unicode="&#x2019;" horiz-adv-x="246" 
d="M227 657l-106 -228h-83l49 228h140z" />
    <glyph glyph-name="quotesinglbase" unicode="&#x201a;" horiz-adv-x="249" 
d="M209 134l-106 -228h-83l49 228h140z" />
    <glyph glyph-name="quotedblleft" unicode="&#x201c;" horiz-adv-x="423" 
d="M203 429l106 228h81l-49 -228h-138zM29 429l126 228h81l-69 -228h-138z" />
    <glyph glyph-name="quotedblright" unicode="&#x201d;" horiz-adv-x="415" 
d="M225 657l-106 -228h-81l49 228h138zM399 657l-126 -228h-81l69 228h138z" />
    <glyph glyph-name="quotedblbase" unicode="&#x201e;" horiz-adv-x="421" 
d="M207 134l-106 -228h-81l49 228h138zM381 134l-126 -228h-81l69 228h138z" />
    <glyph glyph-name="dagger" unicode="&#x2020;" horiz-adv-x="444" 
d="M279 490h131v-90h-144l23 -412v-99h-134v99l22 412h-143v90h130l-9 68v99h134v-99z" />
    <glyph glyph-name="daggerdbl" unicode="&#x2021;" horiz-adv-x="460" 
d="M291 490h127v-90h-134l-11 -127l11 -127h134v-90h-127l6 -68v-99h-134v99l5 68h-126v90h134l10 127l-10 127h-134v90h126l-5 68v99h134v-99z" />
    <glyph glyph-name="bullet" unicode="&#x2022;" horiz-adv-x="360" 
d="M61 274q0 25 9.5 47t25.5 38t37.5 25.5t45.5 9.5q25 0 47 -9.5t38 -25.5t25.5 -38t9.5 -47q0 -24 -9.5 -45.5t-25.5 -37.5t-38 -25.5t-47 -9.5q-24 0 -45.5 9.5t-37.5 25.5t-25.5 37.5t-9.5 45.5z" />
    <glyph glyph-name="ellipsis" unicode="&#x2026;" horiz-adv-x="676" 
d="M41 67q0 32 22.5 54.5t54.5 22.5t54.5 -22.5t22.5 -54.5t-22.5 -54.5t-54.5 -22.5t-54.5 22.5t-22.5 54.5zM261 67q0 32 22.5 54.5t54.5 22.5t54.5 -22.5t22.5 -54.5t-22.5 -54.5t-54.5 -22.5t-54.5 22.5t-22.5 54.5zM481 67q0 32 22.5 54.5t54.5 22.5t54.5 -22.5
t22.5 -54.5t-22.5 -54.5t-54.5 -22.5t-54.5 22.5t-22.5 54.5z" />
    <glyph glyph-name="perthousand" unicode="&#x2030;" horiz-adv-x="943" 
d="M133 451q0 -18 8.5 -29t25.5 -11t25.5 11t8.5 29v93q0 18 -8.5 29t-25.5 11t-25.5 -11t-8.5 -29v-93zM294 448q0 -50 -32.5 -85t-94.5 -35t-94.5 35t-32.5 85v99q0 50 32.5 85t94.5 35t94.5 -35t32.5 -85v-99zM458 657h105l-189 -329l-179 -328h-105l190 330zM451 113
q0 -18 8.5 -29t25.5 -11t25.5 11t8.5 29v93q0 18 -8.5 29t-25.5 11t-25.5 -11t-8.5 -29v-93zM612 110q0 -50 -32.5 -85t-94.5 -35t-94.5 35t-32.5 85v99q0 50 32.5 85t94.5 35t94.5 -35t32.5 -85v-99zM746 113q0 -18 8.5 -29t25.5 -11t25.5 11t8.5 29v93q0 18 -8.5 29
t-25.5 11t-25.5 -11t-8.5 -29v-93zM907 110q0 -50 -32.5 -85t-94.5 -35t-94.5 35t-32.5 85v99q0 50 32.5 85t94.5 35t94.5 -35t32.5 -85v-99z" />
    <glyph glyph-name="guilsinglleft" unicode="&#x2039;" horiz-adv-x="277" 
d="M118 398h114l-65 -165l65 -165h-114l-79 165z" />
    <glyph glyph-name="guilsinglright" unicode="&#x203a;" horiz-adv-x="277" 
d="M238 233l-79 -165h-114l65 165l-65 165h114z" />
    <glyph glyph-name="fraction" unicode="&#x2044;" horiz-adv-x="163" 
d="M213 657h105l-189 -329l-179 -328h-105l190 330z" />
    <glyph glyph-name="uni2070" unicode="&#x2070;" horiz-adv-x="300" 
d="M125 586q0 -30 25 -30q26 0 26 30v116q0 30 -26 30q-25 0 -25 -30v-116zM267 584q0 -51 -32 -80t-85 -29q-52 0 -84 29t-32 80v120q0 51 28 80t88 29q53 0 85 -29t32 -80v-120z" />
    <glyph glyph-name="uni2074" unicode="&#x2074;" horiz-adv-x="311" 
d="M252 808v-192h34v-75h-34v-61h-91v61h-142v86l129 181h104zM161 616v85l-61 -85h61z" />
    <glyph glyph-name="uni2075" unicode="&#x2075;" horiz-adv-x="287" 
d="M245 730h-129v-50q18 15 50 15q42 0 69 -27t27 -80q0 -54 -32 -83.5t-84 -29.5t-84 24.5t-32 67.5v8h88v-5q0 -20 24 -20q26 0 26 35q0 38 -25 38q-11 0 -17 -4.5t-11 -9.5h-79v199h209v-78z" />
    <glyph glyph-name="uni2076" unicode="&#x2076;" horiz-adv-x="293" 
d="M266 580q0 -53 -31.5 -79t-83.5 -26t-84.5 25t-32.5 77v119q0 54 29.5 85.5t87.5 31.5q51 0 81 -25.5t30 -70.5v-4h-88v1q0 11 -6 16.5t-15 5.5q-14 0 -21 -7.5t-7 -25.5v-31q19 11 44 11q44 0 70.5 -26t26.5 -77zM149 611q-8 0 -13.5 -2.5t-10.5 -4.5v-24q0 -20 6.5 -25
t17.5 -5q24 0 24 28q0 33 -24 33z" />
    <glyph glyph-name="uni2077" unicode="&#x2077;" horiz-adv-x="252" 
d="M20 808h215v-69l-100 -259h-98l98 250h-115v78z" />
    <glyph glyph-name="uni2078" unicode="&#x2078;" horiz-adv-x="288" 
d="M252 719q0 -28 -9 -44t-23 -25q17 -8 28 -25.5t11 -50.5q0 -45 -30.5 -72t-84.5 -27t-84.5 27t-30.5 72q0 32 10.5 50t27.5 26q-14 8 -23.5 24.5t-9.5 44.5q0 41 29 67.5t81 26.5q51 0 79.5 -26.5t28.5 -67.5zM121 580q0 -34 23 -34t23 34q0 20 -7 27t-17 7t-16 -7
t-6 -27zM124 711q0 -32 20 -32q18 0 18 32q0 15 -5 21t-14 6t-14 -6t-5 -21z" />
    <glyph glyph-name="uni2079" unicode="&#x2079;" horiz-adv-x="291" 
d="M26 708q0 51 32 78t84 27t84 -28t32 -88v-105q0 -54 -29.5 -85.5t-87.5 -31.5q-51 0 -81 25.5t-30 70.5v4h88v-1q0 -11 6 -16.5t15 -5.5q14 0 21 7.5t7 25.5v30q-20 -10 -44 -10q-44 0 -70.5 26t-26.5 77zM143 677q8 0 13.5 2t10.5 5v10q0 28 -6 36t-17 8q-25 0 -25 -28
q0 -33 24 -33z" />
    <glyph glyph-name="uni207D" unicode="&#x207d;" horiz-adv-x="192" 
d="M166 505v-81h-5q-63 0 -95.5 33.5t-32.5 90.5v191q0 57 32.5 90t95.5 33h5v-81h-5q-15 0 -26 -10t-11 -28v-199q0 -19 11 -29t26 -10h5z" />
    <glyph glyph-name="uni207E" unicode="&#x207e;" horiz-adv-x="192" 
d="M31 505q15 0 26 10t11 29v199q0 18 -11 28t-26 10h-5v81h5q63 0 95.5 -33t32.5 -90v-191q0 -57 -32.5 -90.5t-95.5 -33.5h-5v81h5z" />
    <glyph glyph-name="uni2080" unicode="&#x2080;" horiz-adv-x="300" 
d="M125 -48q0 -30 25 -30q26 0 26 30v116q0 30 -26 30q-25 0 -25 -30v-116zM267 -50q0 -51 -32 -80t-85 -29q-52 0 -84 29t-32 80v120q0 51 28 80t88 29q53 0 85 -29t32 -80v-120z" />
    <glyph glyph-name="uni2081" unicode="&#x2081;" horiz-adv-x="247" 
d="M30 174h145v-250h56v-78h-201v78h54v170h-54v80z" />
    <glyph glyph-name="uni2082" unicode="&#x2082;" horiz-adv-x="292" 
d="M27 -109q0 6 0.5 17.5t4.5 25t12 26.5t23 23l66 42q12 8 22.5 19t10.5 31q0 23 -21 23q-26 0 -26 -27v-7h-88v10q0 45 31.5 75t85.5 30q52 0 82.5 -27t30.5 -72q0 -42 -17.5 -67.5t-50.5 -46.5l-48 -30q-2 -2 -3.5 -2.5t-3.5 -2.5t-4 -3h127v-82h-234v45z" />
    <glyph glyph-name="uni2083" unicode="&#x2083;" horiz-adv-x="286" 
d="M112 46h19q16 0 23 4.5t7 21.5q0 26 -22 26q-10 0 -16.5 -7t-6.5 -21v-4h-88v7q0 44 30.5 75t83.5 31q52 0 81 -26.5t29 -68.5q0 -26 -9 -42.5t-23 -25.5q16 -9 26.5 -27.5t10.5 -47.5q0 -45 -31.5 -72.5t-85.5 -27.5t-84 29t-30 77v8h88v-5q0 -32 24 -32q26 0 26 32
q0 19 -9.5 23.5t-23.5 4.5h-19v68z" />
    <glyph glyph-name="uni2084" unicode="&#x2084;" horiz-adv-x="311" 
d="M252 174v-192h34v-75h-34v-61h-91v61h-142v86l129 181h104zM161 -18v85l-61 -85h61z" />
    <glyph glyph-name="uni2085" unicode="&#x2085;" horiz-adv-x="287" 
d="M245 96h-129v-50q18 15 50 15q42 0 69 -27t27 -80q0 -54 -32 -83.5t-84 -29.5t-84 24.5t-32 67.5v8h88v-5q0 -20 24 -20q26 0 26 35q0 38 -25 38q-11 0 -17 -4.5t-11 -9.5h-79v199h209v-78z" />
    <glyph glyph-name="uni2086" unicode="&#x2086;" horiz-adv-x="293" 
d="M266 -54q0 -53 -31.5 -79t-83.5 -26t-84.5 25t-32.5 77v119q0 54 29.5 85.5t87.5 31.5q51 0 81 -25.5t30 -70.5v-4h-88v1q0 11 -6 16.5t-15 5.5q-14 0 -21 -7.5t-7 -25.5v-31q19 11 44 11q44 0 70.5 -26t26.5 -77zM149 -23q-8 0 -13.5 -2.5t-10.5 -4.5v-24q0 -20 6.5 -25
t17.5 -5q24 0 24 28q0 33 -24 33z" />
    <glyph glyph-name="uni2087" unicode="&#x2087;" horiz-adv-x="252" 
d="M20 174h215v-69l-100 -259h-98l98 250h-115v78z" />
    <glyph glyph-name="uni2088" unicode="&#x2088;" horiz-adv-x="288" 
d="M252 85q0 -28 -9 -44t-23 -25q17 -8 28 -25.5t11 -50.5q0 -45 -30.5 -72t-84.5 -27t-84.5 27t-30.5 72q0 32 10.5 50t27.5 26q-14 8 -23.5 24.5t-9.5 44.5q0 41 29 67.5t81 26.5q51 0 79.5 -26.5t28.5 -67.5zM121 -54q0 -34 23 -34t23 34q0 20 -7 27t-17 7t-16 -7t-6 -27
zM124 77q0 -32 20 -32q18 0 18 32q0 15 -5 21t-14 6t-14 -6t-5 -21z" />
    <glyph glyph-name="uni2089" unicode="&#x2089;" horiz-adv-x="291" 
d="M26 74q0 51 32 78t84 27t84 -28t32 -88v-105q0 -54 -29.5 -85.5t-87.5 -31.5q-51 0 -81 25.5t-30 70.5v4h88v-1q0 -11 6 -16.5t15 -5.5q14 0 21 7.5t7 25.5v30q-20 -10 -44 -10q-44 0 -70.5 26t-26.5 77zM143 43q8 0 13.5 2t10.5 5v10q0 28 -6 36t-17 8q-25 0 -25 -28
q0 -33 24 -33z" />
    <glyph glyph-name="uni208D" unicode="&#x208d;" horiz-adv-x="192" 
d="M166 -129v-81h-5q-63 0 -95.5 33.5t-32.5 90.5v191q0 57 32.5 90t95.5 33h5v-81h-5q-15 0 -26 -10t-11 -28v-199q0 -19 11 -29t26 -10h5z" />
    <glyph glyph-name="uni208E" unicode="&#x208e;" horiz-adv-x="192" 
d="M31 -129q15 0 26 10t11 29v199q0 18 -11 28t-26 10h-5v81h5q63 0 95.5 -33t32.5 -90v-191q0 -57 -32.5 -90.5t-95.5 -33.5h-5v81h5z" />
    <glyph glyph-name="franc" unicode="&#x20a3;" horiz-adv-x="554" 
d="M109 657h410v-130h-265v-91h147v-103h-147v-48h147v-103h-147v-182h-145v182h-59v103h59v48h-59v103h59v221z" />
    <glyph glyph-name="lira" unicode="&#x20a4;" horiz-adv-x="569" 
d="M251 128h274v-128h-478v128h59v60h-59v83h59v48h-59v83h59v60q0 47 15.5 85t43 64.5t65.5 41t84 14.5t84 -14.5t65.5 -41t42.5 -64.5t15 -85v-27h-140v24q0 36 -17 57t-49 21t-48 -21t-16 -57v-57h107v-83h-107v-48h107v-83h-107v-60z" />
    <glyph glyph-name="peseta" unicode="&#x20a7;" horiz-adv-x="1308" 
d="M71 657h240q50 0 92 -15.5t73 -43.5t48 -68t17 -88q0 -51 -17 -92.5t-48 -70.5t-73 -44.5t-92 -15.5h-95v-219h-145v657zM216 530v-184h82q45 0 70 25t25 68q0 42 -25 66.5t-70 24.5h-82zM576 485h75v134h140v-134h77v-118h-77v-367h-140v367h-75v118zM1011 158v-19
q0 -23 17 -34.5t46 -11.5q63 0 63 43q0 15 -10 24.5t-35 17.5l-83 26q-51 16 -84.5 51t-33.5 95q0 29 12 56.5t35.5 48.5t57 33.5t75.5 12.5q88 0 139.5 -39.5t51.5 -109.5v-12h-130v14q0 20 -15 32t-44 12q-25 0 -39 -10t-14 -27q0 -10 7 -20.5t36 -18.5l65 -20
q27 -9 52.5 -20.5t45 -29t31 -42.5t11.5 -61q0 -71 -50.5 -115.5t-141.5 -44.5q-43 0 -78.5 10.5t-61.5 30.5t-40.5 48.5t-14.5 63.5v16h130z" />
    <glyph glyph-name="Euro" unicode="&#x20ac;" horiz-adv-x="592" 
d="M39 436h59q0 108 58.5 169.5t170.5 61.5q49 0 90 -15t69.5 -43.5t44.5 -69t16 -90.5v-17h-135v19q0 42 -23.5 66.5t-65.5 24.5q-39 0 -62 -25.5t-23 -70.5v-10h107v-83h-107v-48h107v-83h-107v-11q0 -45 23 -70.5t62 -25.5q42 0 65.5 24.5t23.5 66.5v20h135v-18
q0 -50 -16.5 -90.5t-45.5 -69t-70.5 -43.5t-90.5 -15q-51 0 -92.5 16t-71 46t-46 73t-16.5 97h-59v83h59v48h-59v83z" />
    <glyph glyph-name="uni2113" unicode="&#x2113;" horiz-adv-x="500" 
d="M22 254l91 64v177q0 85 46.5 133t130.5 48q46 0 79.5 -13.5t55.5 -36t32.5 -50.5t10.5 -56q0 -59 -27.5 -100t-72.5 -73l-115 -81v-94q0 -26 16 -40t49 -14h125v-118h-142q-89 0 -137 41.5t-51 126.5l-24 -17zM253 417l36 26q30 21 40 37t10 39q0 16 -10.5 28.5
t-30.5 12.5q-45 0 -45 -65v-78z" />
    <glyph glyph-name="trademark" unicode="&#x2122;" horiz-adv-x="805" 
d="M532 374l-54 88v-173h-89v368h83l94 -164l91 164h84v-368h-94v181l-59 -96h-56zM58 657h293v-91h-92v-277h-107v277h-94v91z" />
    <glyph glyph-name="Omega" unicode="&#x2126;" horiz-adv-x="610" 
d="M343 120q26 2 40.5 22.5t14.5 53.5v245q0 45 -24.5 70.5t-68.5 25.5t-68.5 -25.5t-24.5 -70.5v-245q0 -33 14.5 -53.5t40.5 -22.5v-120h-223v92h90q-67 43 -67 151v201q0 103 60 163t178 60t178 -60t60 -163v-201q0 -107 -67 -151h90v-92h-223v120z" />
    <glyph glyph-name="estimated" unicode="&#x212e;" horiz-adv-x="756" 
d="M667 143q-45 -69 -120 -111.5t-166 -42.5q-71 0 -132.5 26.5t-107.5 72t-72.5 107t-26.5 132.5q0 70 26.5 132t72.5 108.5t107.5 73t132.5 26.5q70 0 132 -26.5t108.5 -73t73 -108.5t26.5 -132v-8h-517v-195q35 -32 80.5 -49.5t96.5 -17.5q58 0 108.5 22.5t87.5 63.5h90z
M381 599q-51 0 -96.5 -18.5t-80.5 -50.5v-146h355v145q-36 33 -81.5 51.5t-96.5 18.5z" />
    <glyph glyph-name="onethird" unicode="&#x2153;" horiz-adv-x="680" 
d="M483 657h105l-189 -329l-179 -328h-105l190 330zM43 657h145v-250h56v-78h-201v78h54v170h-54v80zM497 200h19q16 0 23 4.5t7 21.5q0 26 -22 26q-10 0 -16.5 -7t-6.5 -21v-4h-88v7q0 44 30.5 75t83.5 31q52 0 81 -26.5t29 -68.5q0 -26 -9 -42.5t-23 -25.5
q16 -9 26.5 -27.5t10.5 -47.5q0 -45 -31.5 -72.5t-85.5 -27.5t-84 29t-30 77v8h88v-5q0 -32 24 -32q26 0 26 32q0 19 -9.5 23.5t-23.5 4.5h-19v68z" />
    <glyph glyph-name="twothirds" unicode="&#x2154;" horiz-adv-x="708" 
d="M511 657h105l-189 -329l-179 -328h-105l190 330zM525 200h19q16 0 23 4.5t7 21.5q0 26 -22 26q-10 0 -16.5 -7t-6.5 -21v-4h-88v7q0 44 30.5 75t83.5 31q52 0 81 -26.5t29 -68.5q0 -26 -9 -42.5t-23 -25.5q16 -9 26.5 -27.5t10.5 -47.5q0 -45 -31.5 -72.5t-85.5 -27.5
t-84 29t-30 77v8h88v-5q0 -32 24 -32q26 0 26 32q0 19 -9.5 23.5t-23.5 4.5h-19v68zM39 374q0 6 0.5 17.5t4.5 25t12 26.5t23 23l66 42q12 8 22.5 19t10.5 31q0 23 -21 23q-26 0 -26 -27v-7h-88v10q0 45 31.5 75t85.5 30q52 0 82.5 -27t30.5 -72q0 -42 -17.5 -67.5
t-50.5 -46.5l-48 -30q-2 -2 -3.5 -2.5t-3.5 -2.5t-4 -3h127v-82h-234v45z" />
    <glyph glyph-name="uni2155" unicode="&#x2155;" horiz-adv-x="702" 
d="M483 657h105l-189 -329l-179 -328h-105l190 330zM43 657h145v-250h56v-78h-201v78h54v170h-54v80zM647 250h-129v-50q18 15 50 15q42 0 69 -27t27 -80q0 -54 -32 -83.5t-84 -29.5t-84 24.5t-32 67.5v8h88v-5q0 -20 24 -20q26 0 26 35q0 38 -25 38q-11 0 -17 -4.5
t-11 -9.5h-79v199h209v-78z" />
    <glyph glyph-name="uni2156" unicode="&#x2156;" horiz-adv-x="721" 
d="M502 657h105l-189 -329l-179 -328h-105l190 330zM666 250h-129v-50q18 15 50 15q42 0 69 -27t27 -80q0 -54 -32 -83.5t-84 -29.5t-84 24.5t-32 67.5v8h88v-5q0 -20 24 -20q26 0 26 35q0 38 -25 38q-11 0 -17 -4.5t-11 -9.5h-79v199h209v-78zM40 374q0 6 0.5 17.5t4.5 25
t12 26.5t23 23l66 42q12 8 22.5 19t10.5 31q0 23 -21 23q-26 0 -26 -27v-7h-88v10q0 45 31.5 75t85.5 30q52 0 82.5 -27t30.5 -72q0 -42 -17.5 -67.5t-50.5 -46.5l-48 -30q-2 -2 -3.5 -2.5t-3.5 -2.5t-4 -3h127v-82h-234v45z" />
    <glyph glyph-name="uni2157" unicode="&#x2157;" horiz-adv-x="692" 
d="M473 657h105l-189 -329l-179 -328h-105l190 330zM637 250h-129v-50q18 15 50 15q42 0 69 -27t27 -80q0 -54 -32 -83.5t-84 -29.5t-84 24.5t-32 67.5v8h88v-5q0 -20 24 -20q26 0 26 35q0 38 -25 38q-11 0 -17 -4.5t-11 -9.5h-79v199h209v-78zM124 534h19q16 0 23 4.5
t7 21.5q0 26 -22 26q-10 0 -16.5 -7t-6.5 -21v-4h-88v7q0 44 30.5 75t83.5 31q52 0 81 -26.5t29 -68.5q0 -26 -9 -42.5t-23 -25.5q16 -9 26.5 -27.5t10.5 -47.5q0 -45 -31.5 -72.5t-85.5 -27.5t-84 29t-30 77v8h88v-5q0 -32 24 -32q26 0 26 32q0 19 -9.5 23.5t-23.5 4.5h-19
v68z" />
    <glyph glyph-name="uni2158" unicode="&#x2158;" horiz-adv-x="732" 
d="M511 657h105l-189 -329l-179 -328h-105l190 330zM675 250h-129v-50q18 15 50 15q42 0 69 -27t27 -80q0 -54 -32 -83.5t-84 -29.5t-84 24.5t-32 67.5v8h88v-5q0 -20 24 -20q26 0 26 35q0 38 -25 38q-11 0 -17 -4.5t-11 -9.5h-79v199h209v-78zM268 657v-192h34v-75h-34v-61
h-91v61h-142v86l129 181h104zM177 465v85l-61 -85h61z" />
    <glyph glyph-name="uni2159" unicode="&#x2159;" horiz-adv-x="698" 
d="M483 657h105l-189 -329l-179 -328h-105l190 330zM43 657h145v-250h56v-78h-201v78h54v170h-54v80zM660 100q0 -53 -31.5 -79t-83.5 -26t-84.5 25t-32.5 77v119q0 54 29.5 85.5t87.5 31.5q51 0 81 -25.5t30 -70.5v-4h-88v1q0 11 -6 16.5t-15 5.5q-14 0 -21 -7.5t-7 -25.5
v-31q19 11 44 11q44 0 70.5 -26t26.5 -77zM543 131q-8 0 -13.5 -2.5t-10.5 -4.5v-24q0 -20 6.5 -25t17.5 -5q24 0 24 28q0 33 -24 33z" />
    <glyph glyph-name="uni215A" unicode="&#x215a;" horiz-adv-x="701" 
d="M486 657h105l-189 -329l-179 -328h-105l190 330zM663 100q0 -53 -31.5 -79t-83.5 -26t-84.5 25t-32.5 77v119q0 54 29.5 85.5t87.5 31.5q51 0 81 -25.5t30 -70.5v-4h-88v1q0 11 -6 16.5t-15 5.5q-14 0 -21 -7.5t-7 -25.5v-31q19 11 44 11q44 0 70.5 -26t26.5 -77z
M546 131q-8 0 -13.5 -2.5t-10.5 -4.5v-24q0 -20 6.5 -25t17.5 -5q24 0 24 28q0 33 -24 33zM254 579h-129v-50q18 15 50 15q42 0 69 -27t27 -80q0 -54 -32 -83.5t-84 -29.5t-84 24.5t-32 67.5v8h88v-5q0 -20 24 -20q26 0 26 35q0 38 -25 38q-11 0 -17 -4.5t-11 -9.5h-79v199
h209v-78z" />
    <glyph glyph-name="oneeighth" unicode="&#x215b;" horiz-adv-x="693" 
d="M483 657h105l-189 -329l-179 -328h-105l190 330zM43 657h145v-250h56v-78h-201v78h54v170h-54v80zM649 239q0 -28 -9 -44t-23 -25q17 -8 28 -25.5t11 -50.5q0 -45 -30.5 -72t-84.5 -27t-84.5 27t-30.5 72q0 32 10.5 50t27.5 26q-14 8 -23.5 24.5t-9.5 44.5q0 41 29 67.5
t81 26.5q51 0 79.5 -26.5t28.5 -67.5zM518 100q0 -34 23 -34t23 34q0 20 -7 27t-17 7t-16 -7t-6 -27zM521 231q0 -32 20 -32q18 0 18 32q0 15 -5 21t-14 6t-14 -6t-5 -21z" />
    <glyph glyph-name="threeeighths" unicode="&#x215c;" horiz-adv-x="689" 
d="M479 657h105l-189 -329l-179 -328h-105l190 330zM645 239q0 -28 -9 -44t-23 -25q17 -8 28 -25.5t11 -50.5q0 -45 -30.5 -72t-84.5 -27t-84.5 27t-30.5 72q0 32 10.5 50t27.5 26q-14 8 -23.5 24.5t-9.5 44.5q0 41 29 67.5t81 26.5q51 0 79.5 -26.5t28.5 -67.5zM514 100
q0 -34 23 -34t23 34q0 20 -7 27t-17 7t-16 -7t-6 -27zM517 231q0 -32 20 -32q18 0 18 32q0 15 -5 21t-14 6t-14 -6t-5 -21zM124 534h19q16 0 23 4.5t7 21.5q0 26 -22 26q-10 0 -16.5 -7t-6.5 -21v-4h-88v7q0 44 30.5 75t83.5 31q52 0 81 -26.5t29 -68.5q0 -26 -9 -42.5
t-23 -25.5q16 -9 26.5 -27.5t10.5 -47.5q0 -45 -31.5 -72.5t-85.5 -27.5t-84 29t-30 77v8h88v-5q0 -32 24 -32q26 0 26 32q0 19 -9.5 23.5t-23.5 4.5h-19v68z" />
    <glyph glyph-name="fiveeighths" unicode="&#x215d;" horiz-adv-x="695" 
d="M485 657h105l-189 -329l-179 -328h-105l190 330zM651 239q0 -28 -9 -44t-23 -25q17 -8 28 -25.5t11 -50.5q0 -45 -30.5 -72t-84.5 -27t-84.5 27t-30.5 72q0 32 10.5 50t27.5 26q-14 8 -23.5 24.5t-9.5 44.5q0 41 29 67.5t81 26.5q51 0 79.5 -26.5t28.5 -67.5zM520 100
q0 -34 23 -34t23 34q0 20 -7 27t-17 7t-16 -7t-6 -27zM523 231q0 -32 20 -32q18 0 18 32q0 15 -5 21t-14 6t-14 -6t-5 -21zM254 579h-129v-50q18 15 50 15q42 0 69 -27t27 -80q0 -54 -32 -83.5t-84 -29.5t-84 24.5t-32 67.5v8h88v-5q0 -20 24 -20q26 0 26 35q0 38 -25 38
q-11 0 -17 -4.5t-11 -9.5h-79v199h209v-78z" />
    <glyph glyph-name="seveneighths" unicode="&#x215e;" horiz-adv-x="672" 
d="M461 657h105l-189 -329l-179 -328h-105l190 330zM627 239q0 -28 -9 -44t-23 -25q17 -8 28 -25.5t11 -50.5q0 -45 -30.5 -72t-84.5 -27t-84.5 27t-30.5 72q0 32 10.5 50t27.5 26q-14 8 -23.5 24.5t-9.5 44.5q0 41 29 67.5t81 26.5q51 0 79.5 -26.5t28.5 -67.5zM496 100
q0 -34 23 -34t23 34q0 20 -7 27t-17 7t-16 -7t-6 -27zM499 231q0 -32 20 -32q18 0 18 32q0 15 -5 21t-14 6t-14 -6t-5 -21zM36 657h235v-69l-110 -259h-98l108 250h-135v78z" />
    <glyph glyph-name="uni215F" unicode="&#x215f;" horiz-adv-x="510" 
d="M560 657h105l-189 -329l-179 -328h-105l190 330zM120 657h145v-250h56v-78h-201v78h54v170h-54v80z" />
    <glyph glyph-name="partialdiff" unicode="&#x2202;" horiz-adv-x="499" 
d="M450 190q0 -46 -15 -83t-42 -63t-64.5 -40t-83.5 -14t-83.5 14t-64.5 40t-42 63t-15 83v76q0 92 43.5 146t126.5 54q37 0 62 -13.5t41 -33.5q-4 30 -12.5 58.5t-24.5 51.5t-39.5 37t-57.5 14q-17 0 -30 -2t-22 -4q-11 -3 -19 -5l-23 97q16 6 34 10q16 4 37.5 7.5
t47.5 3.5q76 0 124 -32.5t75 -84t37 -116.5t10 -129v-135zM180 180q0 -32 17 -52t48 -20t48 20t17 52v96q0 32 -17 52t-48 20t-48 -20t-17 -52v-96z" />
    <glyph glyph-name="Delta" unicode="&#x2206;" horiz-adv-x="585" 
d="M30 0l185 657h156l184 -657h-525zM208 127h162l-81 329z" />
    <glyph glyph-name="product" unicode="&#x220f;" horiz-adv-x="604" 
d="M535 0h-145v527h-176v-527h-145v657h466v-657z" />
    <glyph glyph-name="summation" unicode="&#x2211;" horiz-adv-x="540" 
d="M226 526l140 -191l-159 -204h292v-131h-458v126l163 210l-151 195v126h434v-131h-261z" />
    <glyph glyph-name="minus" unicode="&#x2212;" horiz-adv-x="530" 
d="M57 392h416v-125h-416v125z" />
    <glyph glyph-name="uni2215" unicode="&#x2215;" horiz-adv-x="471" 
d="M368 657h105l-189 -329l-179 -328h-105l190 330z" />
    <glyph glyph-name="uni2219" unicode="&#x2219;" horiz-adv-x="320" 
d="M41 274q0 25 9.5 47t25.5 38t37.5 25.5t45.5 9.5q25 0 47 -9.5t38 -25.5t25.5 -38t9.5 -47q0 -24 -9.5 -45.5t-25.5 -37.5t-38 -25.5t-47 -9.5q-24 0 -45.5 9.5t-37.5 25.5t-25.5 37.5t-9.5 45.5z" />
    <glyph glyph-name="radical" unicode="&#x221a;" horiz-adv-x="606" 
d="M23 490h198l105 -383l150 580h122l-217 -779h-131l-140 468h-87v114z" />
    <glyph glyph-name="infinity" unicode="&#x221e;" horiz-adv-x="787" 
d="M574 442q35 0 65.5 -12.5t52.5 -34.5t34.5 -53t12.5 -68q0 -34 -13 -64.5t-35.5 -53.5t-53.5 -36.5t-67 -13.5q-47 0 -87.5 23.5t-89.5 68.5q-42 -38 -86.5 -64.5t-92.5 -26.5h-1q-35 0 -65.5 12.5t-52.5 34.5t-34.5 53t-12.5 68q0 34 13 64.5t35.5 53.5t53.5 36.5
t67 13.5q46 0 86.5 -23.5t90.5 -68.5q42 38 86.5 64.5t92.5 26.5h1zM573 332q-26 0 -52 -16.5t-49 -38.5l-1 -1q27 -27 50 -43.5t49 -16.5t42.5 17t16.5 41q0 26 -15.5 42t-39.5 16h-1zM214 217q25 0 51 16t50 39l1 1q-27 27 -50 43.5t-49 16.5t-42.5 -17t-16.5 -41
q0 -26 15.5 -42t39.5 -16h1z" />
    <glyph glyph-name="integral" unicode="&#x222b;" horiz-adv-x="382" 
d="M121 562q0 91 48 135.5t140 44.5h52v-118h-35q-33 0 -49 -14t-16 -40v-521q0 -91 -48 -135.5t-140 -44.5h-52v118h35q33 0 49 14t16 40v521z" />
    <glyph glyph-name="approxequal" unicode="&#x2248;" horiz-adv-x="561" 
d="M519 459q-29 -54 -68 -85.5t-83 -31.5q-32 0 -55 10.5t-55 30.5q-16 10 -31 18.5t-34 8.5q-22 0 -40.5 -20t-39.5 -49l-69 60q12 24 29 45t37 37t42 25t45 9q35 0 59.5 -12t43.5 -24q22 -15 36 -22.5t31 -7.5q20 0 37 15.5t39 50.5zM519 228q-29 -54 -68 -85.5t-83 -31.5
q-32 0 -55 10.5t-55 30.5q-16 10 -31 18.5t-34 8.5q-22 0 -40.5 -20t-39.5 -49l-69 60q12 24 29 45t37 37t42 25t45 9q35 0 59.5 -12t43.5 -24q22 -15 36 -22.5t31 -7.5q20 0 37 15.5t39 50.5z" />
    <glyph glyph-name="notequal" unicode="&#x2260;" horiz-adv-x="531" 
d="M62 487h230l34 75h91l-34 -75h85v-115h-137l-38 -85h175v-115h-227l-34 -75h-91l34 75h-88v115h140l38 85h-178v115z" />
    <glyph glyph-name="lessequal" unicode="&#x2264;" horiz-adv-x="518" 
d="M54 181h406v-85h-406v85zM54 422l406 110v-116l-246 -46l246 -48v-124l-406 110v114z" />
    <glyph glyph-name="greaterequal" unicode="&#x2265;" horiz-adv-x="518" 
d="M464 96h-406v85h406v-85zM464 308l-406 -110v124l246 48l-246 46v116l406 -110v-114z" />
    <glyph glyph-name="lozenge" unicode="&#x25ca;" horiz-adv-x="559" 
d="M530 329l-201 -349h-99l-201 349l201 348h99zM177 329l101 -182l102 182l-102 182z" />
    <glyph glyph-name="uniF629" unicode="&#xf629;" horiz-adv-x="259" 
d="M165 333v-45q32 -8 52 -32.5t20 -61.5v-1h-89v6q0 20 -14 20q-15 0 -15 -24v-62q0 -23 15 -23q14 0 14 23v9h89v-2q0 -40 -20 -66t-52 -34v-45h-62v45q-35 8 -55 34.5t-20 64.5v50q0 39 20 65t55 34v45h62z" />
    <glyph glyph-name="uniF62A" unicode="&#xf62a;" horiz-adv-x="272" 
d="M154 222v13q0 24 -20 24q-19 0 -19 -19q0 -5 3 -13t15 -13l32 -12q16 -6 31.5 -13.5t28 -19t20 -28.5t7.5 -41q0 -40 -23.5 -68t-64.5 -35v-51h-63v53q-38 8 -60 34t-22 65v14h90v-17q0 -14 7.5 -20t19.5 -6q27 0 27 22q0 12 -6 17t-17 10l-49 20q-27 11 -45.5 33.5
t-18.5 59.5q0 32 18.5 60.5t55.5 37.5v53h63v-53q37 -8 58.5 -33.5t21.5 -65.5v-8h-90z" />
    <glyph glyph-name="uniF62B" unicode="&#xf62b;" horiz-adv-x="199" 
d="M38 167h123v-78h-123v78z" />
    <glyph glyph-name="uniF62C" unicode="&#xf62c;" horiz-adv-x="194" 
d="M168 25v-81h-5q-63 0 -95.5 33.5t-32.5 90.5v191q0 57 32.5 90t95.5 33h5v-81h-5q-15 0 -26 -10t-11 -28v-199q0 -19 11 -29t26 -10h5z" />
    <glyph glyph-name="uniF62D" unicode="&#xf62d;" horiz-adv-x="194" 
d="M31 25q15 0 26 10t11 29v199q0 18 -11 28t-26 10h-5v81h5q63 0 95.5 -33t32.5 -90v-191q0 -57 -32.5 -90.5t-95.5 -33.5h-5v81h5z" />
    <glyph glyph-name="uniF62E" unicode="&#xf62e;" horiz-adv-x="259" 
d="M165 662v-45q32 -8 52 -32.5t20 -61.5v-1h-89v6q0 20 -14 20q-15 0 -15 -24v-62q0 -23 15 -23q14 0 14 23v9h89v-2q0 -40 -20 -66t-52 -34v-45h-62v45q-35 8 -55 34.5t-20 64.5v50q0 39 20 65t55 34v45h62z" />
    <glyph glyph-name="uniF62F" unicode="&#xf62f;" horiz-adv-x="271" 
d="M154 551v13q0 24 -20 24q-19 0 -19 -19q0 -5 3 -13t15 -13l32 -12q16 -6 31.5 -13.5t28 -19t20 -28.5t7.5 -41q0 -40 -23.5 -68t-64.5 -35v-51h-63v53q-38 8 -60 34t-22 65v14h90v-17q0 -14 7.5 -20t19.5 -6q27 0 27 22q0 12 -6 17t-17 10l-49 20q-27 11 -45.5 33.5
t-18.5 59.5q0 32 18.5 60.5t55.5 37.5v53h63v-53q37 -8 58.5 -33.5t21.5 -65.5v-8h-90z" />
    <glyph glyph-name="uniF630" unicode="&#xf630;" horiz-adv-x="199" 
d="M38 496h123v-78h-123v78z" />
    <glyph glyph-name="uniF631" unicode="&#xf631;" horiz-adv-x="192" 
d="M166 354v-81h-5q-63 0 -95.5 33.5t-32.5 90.5v191q0 57 32.5 90t95.5 33h5v-81h-5q-15 0 -26 -10t-11 -28v-199q0 -19 11 -29t26 -10h5z" />
    <glyph glyph-name="uniF632" unicode="&#xf632;" horiz-adv-x="192" 
d="M31 354q15 0 26 10t11 29v199q0 18 -11 28t-26 10h-5v81h5q63 0 95.5 -33t32.5 -90v-191q0 -57 -32.5 -90.5t-95.5 -33.5h-5v81h5z" />
    <glyph glyph-name="uniF655" unicode="&#xf655;" horiz-adv-x="301" 
d="M125 106q0 -30 25 -30q26 0 26 30v116q0 30 -26 30q-25 0 -25 -30v-116zM267 104q0 -51 -32 -80t-85 -29q-52 0 -84 29t-32 80v120q0 51 28 80t88 29q53 0 85 -29t32 -80v-120z" />
    <glyph glyph-name="uniF656" unicode="&#xf656;" horiz-adv-x="249" 
d="M31 328h145v-250h56v-78h-201v78h54v170h-54v80z" />
    <glyph glyph-name="uniF657" unicode="&#xf657;" horiz-adv-x="293" 
d="M28 45q0 6 0.5 17.5t4.5 25t12 26.5t23 23l66 42q12 8 22.5 19t10.5 31q0 23 -21 23q-26 0 -26 -27v-7h-88v10q0 45 31.5 75t85.5 30q52 0 82.5 -27t30.5 -72q0 -42 -17.5 -67.5t-50.5 -46.5l-48 -30q-2 -2 -3.5 -2.5t-3.5 -2.5t-4 -3h127v-82h-234v45z" />
    <glyph glyph-name="uniF658" unicode="&#xf658;" horiz-adv-x="285" 
d="M111 200h19q16 0 23 4.5t7 21.5q0 26 -22 26q-10 0 -16.5 -7t-6.5 -21v-4h-88v7q0 44 30.5 75t83.5 31q52 0 81 -26.5t29 -68.5q0 -26 -9 -42.5t-23 -25.5q16 -9 26.5 -27.5t10.5 -47.5q0 -45 -31.5 -72.5t-85.5 -27.5t-84 29t-30 77v8h88v-5q0 -32 24 -32q26 0 26 32
q0 19 -9.5 23.5t-23.5 4.5h-19v68z" />
    <glyph glyph-name="uniF659" unicode="&#xf659;" horiz-adv-x="311" 
d="M252 328v-192h34v-75h-34v-61h-91v61h-142v86l129 181h104zM161 136v85l-61 -85h61z" />
    <glyph glyph-name="uniF65A" unicode="&#xf65a;" horiz-adv-x="288" 
d="M246 250h-129v-50q18 15 50 15q42 0 69 -27t27 -80q0 -54 -32 -83.5t-84 -29.5t-84 24.5t-32 67.5v8h88v-5q0 -20 24 -20q26 0 26 35q0 38 -25 38q-11 0 -17 -4.5t-11 -9.5h-79v199h209v-78z" />
    <glyph glyph-name="uniF65B" unicode="&#xf65b;" horiz-adv-x="293" 
d="M266 100q0 -53 -31.5 -79t-83.5 -26t-84.5 25t-32.5 77v119q0 54 29.5 85.5t87.5 31.5q51 0 81 -25.5t30 -70.5v-4h-88v1q0 11 -6 16.5t-15 5.5q-14 0 -21 -7.5t-7 -25.5v-31q19 11 44 11q44 0 70.5 -26t26.5 -77zM149 131q-8 0 -13.5 -2.5t-10.5 -4.5v-24q0 -20 6.5 -25
t17.5 -5q24 0 24 28q0 33 -24 33z" />
    <glyph glyph-name="uniF65C" unicode="&#xf65c;" horiz-adv-x="252" 
d="M20 328h215v-69l-100 -259h-98l98 250h-115v78z" />
    <glyph glyph-name="uniF65D" unicode="&#xf65d;" horiz-adv-x="289" 
d="M253 239q0 -28 -9 -44t-23 -25q17 -8 28 -25.5t11 -50.5q0 -45 -30.5 -72t-84.5 -27t-84.5 27t-30.5 72q0 32 10.5 50t27.5 26q-14 8 -23.5 24.5t-9.5 44.5q0 41 29 67.5t81 26.5q51 0 79.5 -26.5t28.5 -67.5zM122 100q0 -34 23 -34t23 34q0 20 -7 27t-17 7t-16 -7
t-6 -27zM125 231q0 -32 20 -32q18 0 18 32q0 15 -5 21t-14 6t-14 -6t-5 -21z" />
    <glyph glyph-name="uniF65E" unicode="&#xf65e;" horiz-adv-x="292" 
d="M27 228q0 51 32 78t84 27t84 -28t32 -88v-105q0 -54 -29.5 -85.5t-87.5 -31.5q-51 0 -81 25.5t-30 70.5v4h88v-1q0 -11 6 -16.5t15 -5.5q14 0 21 7.5t7 25.5v30q-20 -10 -44 -10q-44 0 -70.5 26t-26.5 77zM144 197q8 0 13.5 2t10.5 5v10q0 28 -6 36t-17 8q-25 0 -25 -28
q0 -33 24 -33z" />
    <glyph glyph-name="uniF65F" unicode="&#xf65f;" horiz-adv-x="148" 
d="M127 80l-62 -127h-50l27 127h85z" />
    <glyph glyph-name="uniF660" unicode="&#xf660;" horiz-adv-x="144" 
d="M24 41q0 20 14 33.5t34 13.5t34 -13.5t14 -33.5t-14 -34t-34 -14t-34 14t-14 34z" />
    <glyph glyph-name="uniF661" unicode="&#xf661;" horiz-adv-x="300" 
d="M125 435q0 -30 25 -30q26 0 26 30v116q0 30 -26 30q-25 0 -25 -30v-116zM267 433q0 -51 -32 -80t-85 -29q-52 0 -84 29t-32 80v120q0 51 28 80t88 29q53 0 85 -29t32 -80v-120z" />
    <glyph glyph-name="uniF662" unicode="&#xf662;" horiz-adv-x="247" 
d="M30 657h145v-250h56v-78h-201v78h54v170h-54v80z" />
    <glyph glyph-name="uniF663" unicode="&#xf663;" horiz-adv-x="292" 
d="M27 374q0 6 0.5 17.5t4.5 25t12 26.5t23 23l66 42q12 8 22.5 19t10.5 31q0 23 -21 23q-26 0 -26 -27v-7h-88v10q0 45 31.5 75t85.5 30q52 0 82.5 -27t30.5 -72q0 -42 -17.5 -67.5t-50.5 -46.5l-48 -30q-2 -2 -3.5 -2.5t-3.5 -2.5t-4 -3h127v-82h-234v45z" />
    <glyph glyph-name="uniF664" unicode="&#xf664;" horiz-adv-x="286" 
d="M112 529h19q16 0 23 4.5t7 21.5q0 26 -22 26q-10 0 -16.5 -7t-6.5 -21v-4h-88v7q0 44 30.5 75t83.5 31q52 0 81 -26.5t29 -68.5q0 -26 -9 -42.5t-23 -25.5q16 -9 26.5 -27.5t10.5 -47.5q0 -45 -31.5 -72.5t-85.5 -27.5t-84 29t-30 77v8h88v-5q0 -32 24 -32q26 0 26 32
q0 19 -9.5 23.5t-23.5 4.5h-19v68z" />
    <glyph glyph-name="uniF665" unicode="&#xf665;" horiz-adv-x="311" 
d="M252 657v-192h34v-75h-34v-61h-91v61h-142v86l129 181h104zM161 465v85l-61 -85h61z" />
    <glyph glyph-name="uniF666" unicode="&#xf666;" horiz-adv-x="287" 
d="M245 579h-129v-50q18 15 50 15q42 0 69 -27t27 -80q0 -54 -32 -83.5t-84 -29.5t-84 24.5t-32 67.5v8h88v-5q0 -20 24 -20q26 0 26 35q0 38 -25 38q-11 0 -17 -4.5t-11 -9.5h-79v199h209v-78z" />
    <glyph glyph-name="uniF667" unicode="&#xf667;" horiz-adv-x="293" 
d="M266 429q0 -53 -31.5 -79t-83.5 -26t-84.5 25t-32.5 77v119q0 54 29.5 85.5t87.5 31.5q51 0 81 -25.5t30 -70.5v-4h-88v1q0 11 -6 16.5t-15 5.5q-14 0 -21 -7.5t-7 -25.5v-31q19 11 44 11q44 0 70.5 -26t26.5 -77zM149 460q-8 0 -13.5 -2.5t-10.5 -4.5v-24q0 -20 6.5 -25
t17.5 -5q24 0 24 28q0 33 -24 33z" />
    <glyph glyph-name="uniF668" unicode="&#xf668;" horiz-adv-x="252" 
d="M20 657h215v-69l-100 -259h-98l98 250h-115v78z" />
    <glyph glyph-name="uniF669" unicode="&#xf669;" horiz-adv-x="288" 
d="M252 568q0 -28 -9 -44t-23 -25q17 -8 28 -25.5t11 -50.5q0 -45 -30.5 -72t-84.5 -27t-84.5 27t-30.5 72q0 32 10.5 50t27.5 26q-14 8 -23.5 24.5t-9.5 44.5q0 41 29 67.5t81 26.5q51 0 79.5 -26.5t28.5 -67.5zM121 429q0 -34 23 -34t23 34q0 20 -7 27t-17 7t-16 -7
t-6 -27zM124 560q0 -32 20 -32q18 0 18 32q0 15 -5 21t-14 6t-14 -6t-5 -21z" />
    <glyph glyph-name="uniF66A" unicode="&#xf66a;" horiz-adv-x="291" 
d="M26 557q0 51 32 78t84 27t84 -28t32 -88v-105q0 -54 -29.5 -85.5t-87.5 -31.5q-51 0 -81 25.5t-30 70.5v4h88v-1q0 -11 6 -16.5t15 -5.5q14 0 21 7.5t7 25.5v30q-20 -10 -44 -10q-44 0 -70.5 26t-26.5 77zM143 526q8 0 13.5 2t10.5 5v10q0 28 -6 36t-17 8q-25 0 -25 -28
q0 -33 24 -33z" />
    <glyph glyph-name="uniF66B" unicode="&#xf66b;" horiz-adv-x="151" 
d="M127 409l-62 -127h-50l27 127h85z" />
    <glyph glyph-name="uniF66C" unicode="&#xf66c;" horiz-adv-x="144" 
d="M24 370q0 20 14 33.5t34 13.5t34 -13.5t14 -33.5t-14 -34t-34 -14t-34 14t-14 34z" />
    <glyph glyph-name="uniF6C3" unicode="&#xf6c3;" horiz-adv-x="190" 
d="M184 -52l-95 -194h-83l38 194h140z" />
    <glyph glyph-name="uniF8FF" unicode="&#xf8ff;" horiz-adv-x="1420" 
d="M378 488q11 0 11 -11v-6q9 7 22.5 14t35.5 7q18 0 30.5 -7.5t20.5 -18.5q8 7 23 16.5t41 9.5t41.5 -15.5t15.5 -38.5v-132q0 -11 -12 -11h-38q-13 0 -13 11v116q0 9 -2.5 12.5t-11.5 3.5q-11 0 -21.5 -5t-16.5 -10v-117q0 -11 -11 -11h-38q-12 0 -12 11v116
q0 9 -2.5 12.5t-12.5 3.5q-11 0 -21.5 -5t-15.5 -10v-117q0 -11 -10 -11h-41q-11 0 -11 11v171q0 11 11 11h38zM1043 488q12 0 12 -11l1 -7q8 7 22 14.5t38 7.5q29 0 43 -16t14 -44v-80q0 -29 -14 -45.5t-43 -16.5q-23 0 -36.5 7.5t-21.5 13.5v-83q0 -11 -11 -11h-40
q-11 0 -11 11v249q0 11 11 11h36zM296 388q0 -11 -12 -11h-93v-23q0 -18 23 -18q25 0 25 18v1q0 11 11 11h32q12 0 12 -11v-3q0 -28 -17.5 -45t-62.5 -17t-65 17t-20 45v79q0 29 20 45t65 16t63.5 -16t18.5 -45v-43zM1370 388q0 -11 -11 -11h-94v-23q0 -18 23 -18
q24 0 24 18v1q0 11 12 11h32q11 0 11 -11v-3q0 -28 -17 -45t-62 -17t-64.5 17t-19.5 45v79q0 29 19.5 45t64.5 16t63.5 -16t18.5 -45v-43zM872 407q4 -14 5.5 -25t1.5 -12q1 1 4.5 13.5t5.5 21.5l24 72q2 5 4 8t8 3h37q14 0 11 -11l-84 -249q-4 -11 -14 -11h-28
q-14 0 -11 11l16 59l-65 190q-4 11 11 11h40q6 0 8 -3t4 -8zM762 487q11 0 11 -10v-27q0 -11 -11 -11h-31v-77q0 -18 24 -18h10q12 0 12 -11v-27q0 -11 -12 -11h-19q-45 0 -61.5 14.5t-16.5 45.5v84h-17q-11 0 -11 11v25q0 8 11 11l16 1h1v36q0 12 12 12h39q12 0 12 -12v-36
h31zM472 98q0 -4 -4 -4h-114v-48q0 -14 10.5 -23.5t39.5 -9.5t38.5 9.5t9.5 23.5v8q0 4 6 4h9q5 0 5 -4v-9q0 -21 -14.5 -34.5t-54.5 -13.5q-39 0 -54 13.5t-15 34.5v102q0 21 15 34.5t55 13.5q39 0 53.5 -13.5t14.5 -34.5v-49zM154 171q8 6 25.5 15t41.5 9q28 0 41 -13
t13 -33v-144q0 -5 -4 -5h-11q-4 0 -4 5v140q0 14 -9.5 22.5t-29.5 8.5q-23 0 -39.5 -8.5t-22.5 -14.5v-148q0 -5 -4 -5h-11q-5 0 -5 5v183q0 4 5 4h9q5 0 5 -4v-17zM603 191q4 0 4 -4v-8q0 -5 -4 -5h-47v-124q0 -14 11 -23.5t39 -9.5h6q5 0 5 -5v-7q0 -5 -5 -5h-9
q-39 0 -52.5 12.5t-13.5 35.5v126h-25q-4 0 -4 5v7q0 4 4 5h25v41q0 5 4 5h11q4 0 4 -5v-41h47zM354 110h98v36q0 14 -10 23t-38 9q-29 0 -39.5 -9t-10.5 -23v-36zM1112 423q0 5 -2.5 10t-14.5 5q-11 0 -21 -5.5t-16 -9.5v-63q6 -4 16 -10t21 -6q12 0 14.5 6t2.5 11v62z
M191 417h48v11q0 18 -25 18q-23 0 -23 -18v-11zM1265 417h47v11q0 18 -24 18q-23 0 -23 -18v-11zM70 5q0 -5 -5 -5h-11q-4 0 -4 5v30q0 5 4 5h11q5 0 5 -5v-30z" />
    <glyph glyph-name="uniFB00" unicode="&#xfb00;" horiz-adv-x="644" 
d="M229 0h-140v367h-65v118h65v12q0 91 48 135.5t140 44.5h52v-118h-35q-33 0 -49 -14t-16 -40v-20h159v12q0 91 48 135.5t140 44.5h52v-118h-35q-33 0 -49 -14t-16 -40v-20h95v-118h-95v-367h-140v367h-159v-367z" />
    <glyph glyph-name="uniFB01" unicode="&#xfb01;" horiz-adv-x="591" 
d="M294 559q-33 0 -49 -14t-16 -40v-20h305v-485h-140v367h-165v-367h-140v367h-65v118h65v12q0 91 48 135.5t140 44.5h257v-118h-240z" />
    <glyph glyph-name="uniFB02" unicode="&#xfb02;" horiz-adv-x="591" 
d="M24 485h65v12q0 91 48 135.5t140 44.5h257v-677h-140v559h-100q-33 0 -49 -14t-16 -40v-20h95v-118h-95v-367h-140v367h-65v118z" />
    <glyph glyph-name="uniFB03" unicode="&#xfb03;" horiz-adv-x="881" 
d="M24 485h65v12q0 91 48 135.5t140 44.5h52v-118h-35q-33 0 -49 -14t-16 -40v-20h160v12q0 91 48 135.5t140 44.5h247v-118h-230q-33 0 -49 -14t-16 -40v-20h295v-485h-140v367h-155v-367h-140v367h-160v-367h-140v367h-65v118z" />
    <glyph glyph-name="uniFB04" unicode="&#xfb04;" horiz-adv-x="881" 
d="M229 0h-140v367h-65v118h65v12q0 91 48 135.5t140 44.5h52v-118h-35q-33 0 -49 -14t-16 -40v-20h160v12q0 91 48 135.5t140 44.5h247v-677h-140v559h-90q-33 0 -49 -14t-16 -40v-20h95v-118h-95v-367h-140v367h-160v-367z" />
    <glyph glyph-name="uniFB05" unicode="&#xfb05;" horiz-adv-x="609" 
d="M262 559q-33 0 -49 -14t-16 -40v-505h-140v497q0 91 48 135.5t140 44.5h52v-118h-35zM294 485h75v134h140v-134h77v-118h-77v-367h-140v367h-75v118z" />
    <glyph glyph-name="glyph390" horiz-adv-x="238" 
d="M20 808l87 79l111 -138l-65 -55z" />
    <glyph glyph-name="glyph391" horiz-adv-x="322" 
d="M20 767q0 28 19.5 46.5t47.5 18.5q27 0 45.5 -18.5t18.5 -46.5t-18.5 -47.5t-45.5 -19.5q-28 0 -47.5 19.5t-19.5 47.5zM171 767q0 28 19 46.5t46 18.5q28 0 47 -18.5t19 -46.5t-19 -47.5t-47 -19.5q-27 0 -46 19.5t-19 47.5z" />
    <glyph glyph-name="glyph392" horiz-adv-x="282" 
d="M20 814h242v-98h-242v98z" />
    <glyph glyph-name="glyph393" horiz-adv-x="238" 
d="M85 694l-65 55l111 138l87 -79z" />
    <glyph glyph-name="glyph394" horiz-adv-x="319" 
d="M188 878l111 -138l-55 -46l-86 74l-85 -73l-53 45l111 138h57z" />
    <glyph glyph-name="glyph395" horiz-adv-x="319" 
d="M131 694l-111 138l55 46l86 -74l85 73l53 -45l-111 -138h-57z" />
    <glyph glyph-name="glyph396" horiz-adv-x="292" 
d="M272 830v-21q0 -24 -9 -45t-26 -36.5t-40.5 -24.5t-51.5 -9t-51 9t-39.5 24.5t-25.5 36.5t-9 45v21h82v-21q0 -19 11 -31.5t32 -12.5q22 0 33.5 12.5t11.5 31.5v21h82z" />
    <glyph glyph-name="glyph397" horiz-adv-x="194" 
d="M20 781q0 32 22.5 54.5t54.5 22.5t54.5 -22.5t22.5 -54.5t-22.5 -54.5t-54.5 -22.5t-54.5 22.5t-22.5 54.5z" />
    <glyph glyph-name="glyph398" horiz-adv-x="264" 
d="M131 757q20 0 30 12t10 31q0 18 -10 29.5t-30 11.5q-19 0 -29 -11.5t-10 -29.5q0 -19 10 -31t29 -12zM131 694q-51 0 -81 30.5t-30 75.5t30 75.5t81 30.5q25 0 46 -8.5t36 -22.5t23 -33.5t8 -41.5q0 -45 -31 -75.5t-82 -30.5z" />
    <glyph glyph-name="glyph399" horiz-adv-x="370" 
d="M349 825q1 -7 1 -13v-12q0 -29 -7.5 -49t-20 -32t-28.5 -17.5t-34 -5.5q-31 0 -56 12l-44 21q-7 3 -14 5.5t-15 2.5q-11 0 -18 -6t-11 -13q-4 -8 -6 -18h-72q-2 8 -3 15.5t-1 15.5q0 45 28 72.5t70 27.5q26 0 51 -11l41 -19q8 -4 18.5 -8.5t18.5 -4.5q10 0 15.5 5.5
t9.5 12.5q4 8 6 19h71z" />
    <glyph glyph-name="glyph400" horiz-adv-x="367" 
d="M74 694l-54 45l100 143l75 -61zM207 697l-46 53l123 124l63 -72z" />
    <glyph glyph-name="glyph401" horiz-adv-x="229" 
d="M182 677l-71 -163h-70l23 163h118z" />
    <glyph glyph-name="glyph402" horiz-adv-x="229" 
d="M205 -41l-98 -195h-83l42 195h139z" />
    <glyph glyph-name="glyph403" horiz-adv-x="484" 
d="M300 39q-17 -22 -44 -35.5t-65 -13.5q-34 0 -63 8t-50.5 25t-33.5 43t-12 61q0 40 13 69t36 48t54.5 27.5t69.5 8.5h86v50q0 26 -14 41.5t-43 15.5q-27 0 -42 -16t-15 -41v-12h-135v5q0 41 14.5 73.5t40 55.5t61.5 35.5t80 12.5q90 0 141.5 -49.5t51.5 -134.5v-316h-123z
M229 99q32 0 46 19t16 48v19h-55q-26 0 -44.5 -9t-18.5 -35q0 -23 13.5 -32.5t42.5 -9.5z" />
    <glyph glyph-name="glyph404" horiz-adv-x="354" 
d="M24 485h65v134h140v-134h95v-118h-95v-195q0 -26 16 -40t49 -14h30v-118h-47q-92 0 -140 44.5t-48 135.5v187h-65v118z" />
    <glyph glyph-name="glyph405" horiz-adv-x="596" 
d="M475 465h-130v31q0 55 -52 55q-23 0 -34 -14.5t-11 -33.5q0 -17 4.5 -34t11 -32t14 -27.5t13.5 -20.5l98 -139l57 110h132l-118 -211l105 -149h-155l-35 49q-32 -27 -69 -43t-79 -16t-77.5 10t-62 31.5t-41.5 55t-15 80.5q0 65 36.5 108.5t99.5 65.5q-22 32 -39 71.5
t-17 88.5q0 38 13.5 69t37.5 52.5t58 33t75 11.5q84 0 132 -45t48 -126v-31zM248 108q37 0 64 30l-88 123q-23 -12 -35.5 -32.5t-12.5 -46.5q0 -42 20 -58t52 -16z" />
    <glyph glyph-name="glyph406" horiz-adv-x="550" 
d="M197 206q0 -40 20.5 -63t57.5 -23t57.5 23t20.5 63v245q0 40 -20.5 63t-57.5 23t-57.5 -23t-20.5 -63v-245zM498 203q0 -49 -16 -88.5t-45.5 -67t-70.5 -42.5t-91 -15t-91 15t-70.5 42.5t-45.5 67t-16 88.5v251q0 99 56.5 156t166.5 57q50 0 91 -15t70.5 -42.5t45.5 -67
t16 -88.5v-251z" />
    <glyph glyph-name="glyph407" horiz-adv-x="550" 
d="M84 657h276v-530h125v-127h-401v127h131v401h-131v129z" />
    <glyph glyph-name="glyph408" horiz-adv-x="550" 
d="M49 55q0 32 2.5 62t12.5 58.5t30.5 54t55.5 48.5l122 79q29 19 50.5 45.5t21.5 68.5q0 30 -17.5 48t-53.5 18t-56.5 -19.5t-20.5 -54.5v-17h-140v20q0 43 16 80t45 64t70 42t91 15q49 0 89 -13t68.5 -37.5t44 -59.5t15.5 -78q0 -75 -33 -125.5t-95 -90.5l-115 -75
q-22 -14 -30.5 -28.5t-10.5 -27.5h284v-132h-446v55z" />
    <glyph glyph-name="glyph409" horiz-adv-x="550" 
d="M215 391h42q45 0 63.5 17.5t18.5 56.5q0 35 -19 53.5t-52 18.5q-34 0 -53.5 -19.5t-19.5 -54.5v-12h-140v15q0 42 15.5 79t43.5 64t68 42.5t90 15.5q49 0 88.5 -13.5t67 -38.5t42 -59t14.5 -74q0 -52 -19.5 -86t-50.5 -54q36 -20 58.5 -58t22.5 -98q0 -44 -16 -80.5
t-45 -62t-71 -39.5t-93 -14q-50 0 -90.5 14.5t-69 41t-44 63.5t-15.5 82v15h140v-12q0 -37 20 -58t56 -21q79 0 79 86q0 45 -22.5 62t-66.5 17h-42v111z" />
    <glyph glyph-name="glyph410" horiz-adv-x="550" 
d="M457 657v-402h70v-122h-70v-133h-144v133h-294v139l269 385h169zM313 255v234l-163 -234h163z" />
    <glyph glyph-name="glyph411" horiz-adv-x="550" 
d="M469 530h-267v-143q17 15 43 24.5t63 9.5q43 0 78.5 -14t61 -41t39.5 -66t14 -89q0 -52 -16 -93t-45.5 -69.5t-70.5 -43.5t-91 -15q-49 0 -89.5 12.5t-70 35.5t-45.5 56t-16 75v16h140v-13q0 -28 19 -44t56 -16q39 0 59.5 25t20.5 70t-18 71t-58 26q-31 0 -48.5 -11
t-30.5 -22h-125v386h397v-127z" />
    <glyph glyph-name="glyph412" horiz-adv-x="550" 
d="M504 198q0 -51 -16 -90t-45.5 -65t-70.5 -39.5t-90 -13.5q-50 0 -91 13.5t-70 39.5t-45.5 65.5t-16.5 90.5v245q0 103 57.5 163t166.5 60q48 0 87.5 -13t67.5 -37.5t43 -59.5t15 -78v-9h-140v6q0 29 -19 47.5t-52 18.5q-39 0 -60 -22t-21 -64v-86q20 14 46.5 22.5
t59.5 8.5q89 0 141.5 -53t52.5 -150zM281 284q-29 0 -47 -10t-30 -21v-51q0 -48 20.5 -69t55.5 -21q75 0 75 82q0 41 -18 65.5t-56 24.5z" />
    <glyph glyph-name="glyph413" horiz-adv-x="550" 
d="M59 657h434v-110l-222 -547h-155l217 530h-274v127z" />
    <glyph glyph-name="glyph414" horiz-adv-x="550" 
d="M484 482q0 -55 -20 -89.5t-52 -51.5q37 -17 61 -54t24 -101q0 -44 -15.5 -80.5t-44.5 -62t-70 -39.5t-92 -14t-92 14t-70 39.5t-44.5 62t-15.5 80.5q0 64 23.5 100.5t60.5 53.5q-32 18 -52.5 52.5t-20.5 89.5q0 40 14.5 74t42 59t66.5 38.5t88 13.5t87.5 -13.5
t65.5 -38.5t41.5 -59t14.5 -74zM200 195q0 -44 19.5 -65t55.5 -21t55.5 21t19.5 65q0 87 -76 87q-74 0 -74 -87zM207 470q0 -39 16.5 -60t51.5 -21t50.5 21t15.5 60q0 37 -17.5 55t-49.5 18q-67 0 -67 -73z" />
    <glyph glyph-name="glyph415" horiz-adv-x="550" 
d="M46 459q0 50 16.5 88.5t46 65t70.5 40.5t91 14q49 0 89.5 -14.5t70 -43t45.5 -71.5t16 -100v-225q0 -103 -57.5 -163t-166.5 -60q-48 0 -87.5 13t-67.5 37.5t-43 59t-15 78.5v9h140v-6q0 -29 19 -47.5t52 -18.5q39 0 60 22t21 64v86q-20 -14 -47 -22.5t-59 -8.5
q-89 0 -141.5 53t-52.5 150zM269 373q29 0 46.5 10t30.5 21v31q0 59 -19.5 84.5t-54.5 25.5q-77 0 -77 -82q0 -41 18 -65.5t56 -24.5z" />
    <glyph glyph-name="glyph484" horiz-adv-x="484" 
d="M300 39q-17 -22 -44 -35.5t-65 -13.5q-34 0 -63 8t-50.5 25t-33.5 43t-12 61q0 40 13 69t36 48t54.5 27.5t69.5 8.5h86v50q0 26 -14 41.5t-43 15.5q-27 0 -42 -16t-15 -41v-12h-135v5q0 41 14.5 73.5t40 55.5t61.5 35.5t80 12.5q90 0 141.5 -49.5t51.5 -134.5v-316h-123z
M229 99q32 0 46 19t16 48v19h-55q-26 0 -44.5 -9t-18.5 -35q0 -23 13.5 -32.5t42.5 -9.5zM101 654l87 79l111 -138l-65 -55z" />
    <glyph glyph-name="glyph485" horiz-adv-x="484" 
d="M231 540l-65 55l111 138l87 -79zM300 39q-17 -22 -44 -35.5t-65 -13.5q-34 0 -63 8t-50.5 25t-33.5 43t-12 61q0 40 13 69t36 48t54.5 27.5t69.5 8.5h86v50q0 26 -14 41.5t-43 15.5q-27 0 -42 -16t-15 -41v-12h-135v5q0 41 14.5 73.5t40 55.5t61.5 35.5t80 12.5
q90 0 141.5 -49.5t51.5 -134.5v-316h-123zM229 99q32 0 46 19t16 48v19h-55q-26 0 -44.5 -9t-18.5 -35q0 -23 13.5 -32.5t42.5 -9.5z" />
    <glyph glyph-name="glyph486" horiz-adv-x="484" 
d="M264 723l111 -138l-55 -46l-86 74l-85 -73l-53 45l111 138h57zM300 39q-17 -22 -44 -35.5t-65 -13.5q-34 0 -63 8t-50.5 25t-33.5 43t-12 61q0 40 13 69t36 48t54.5 27.5t69.5 8.5h86v50q0 26 -14 41.5t-43 15.5q-27 0 -42 -16t-15 -41v-12h-135v5q0 41 14.5 73.5
t40 55.5t61.5 35.5t80 12.5q90 0 141.5 -49.5t51.5 -134.5v-316h-123zM229 99q32 0 46 19t16 48v19h-55q-26 0 -44.5 -9t-18.5 -35q0 -23 13.5 -32.5t42.5 -9.5z" />
    <glyph glyph-name="glyph487" horiz-adv-x="484" 
d="M300 39q-17 -22 -44 -35.5t-65 -13.5q-34 0 -63 8t-50.5 25t-33.5 43t-12 61q0 40 13 69t36 48t54.5 27.5t69.5 8.5h86v50q0 26 -14 41.5t-43 15.5q-27 0 -42 -16t-15 -41v-12h-135v5q0 41 14.5 73.5t40 55.5t61.5 35.5t80 12.5q90 0 141.5 -49.5t51.5 -134.5v-316h-123z
M229 99q32 0 46 19t16 48v19h-55q-26 0 -44.5 -9t-18.5 -35q0 -23 13.5 -32.5t42.5 -9.5zM397 672q1 -8 1 -13.5v-11.5q0 -29 -7.5 -49t-20 -32t-28.5 -17.5t-34 -5.5q-31 0 -56 12l-44 21q-7 3 -14 5.5t-15 2.5q-11 0 -18 -6t-11 -13q-4 -8 -6 -18h-72q-2 5 -3 14t-1 17
q0 45 28 72.5t70 27.5q26 0 51 -11l41 -19q8 -4 18.5 -8.5t18.5 -4.5q10 0 15.5 5.5t9.5 12.5q4 8 6 19h71z" />
    <glyph glyph-name="glyph488" horiz-adv-x="484" 
d="M92 614q0 28 19.5 46.5t47.5 18.5q27 0 45.5 -18.5t18.5 -46.5t-18.5 -47.5t-45.5 -19.5q-28 0 -47.5 19.5t-19.5 47.5zM243 614q0 28 19 46.5t46 18.5q28 0 47 -18.5t19 -46.5t-19 -47.5t-47 -19.5q-27 0 -46 19.5t-19 47.5zM300 39q-17 -22 -44 -35.5t-65 -13.5
q-34 0 -63 8t-50.5 25t-33.5 43t-12 61q0 40 13 69t36 48t54.5 27.5t69.5 8.5h86v50q0 26 -14 41.5t-43 15.5q-27 0 -42 -16t-15 -41v-12h-135v5q0 41 14.5 73.5t40 55.5t61.5 35.5t80 12.5q90 0 141.5 -49.5t51.5 -134.5v-316h-123zM229 99q32 0 46 19t16 48v19h-55
q-26 0 -44.5 -9t-18.5 -35q0 -23 13.5 -32.5t42.5 -9.5z" />
    <glyph glyph-name="glyph489" horiz-adv-x="484" 
d="M231 590q20 0 30 12t10 31q0 18 -10 29.5t-30 11.5q-19 0 -29 -11.5t-10 -29.5q0 -19 10 -31t29 -12zM231 527q-51 0 -81 30.5t-30 75.5t30 75.5t81 30.5q25 0 46 -8.5t36 -22.5t23 -33.5t8 -41.5q0 -45 -31 -75.5t-82 -30.5zM300 39q-17 -22 -44 -35.5t-65 -13.5
q-34 0 -63 8t-50.5 25t-33.5 43t-12 61q0 40 13 69t36 48t54.5 27.5t69.5 8.5h86v50q0 26 -14 41.5t-43 15.5q-27 0 -42 -16t-15 -41v-12h-135v5q0 41 14.5 73.5t40 55.5t61.5 35.5t80 12.5q90 0 141.5 -49.5t51.5 -134.5v-316h-123zM229 99q32 0 46 19t16 48v19h-55
q-26 0 -44.5 -9t-18.5 -35q0 -23 13.5 -32.5t42.5 -9.5z" />
    <glyph glyph-name="glyph490" horiz-adv-x="484" 
d="M300 39q-17 -22 -44 -35.5t-65 -13.5q-34 0 -63 8t-50.5 25t-33.5 43t-12 61q0 40 13 69t36 48t54.5 27.5t69.5 8.5h86v50q0 26 -14 41.5t-43 15.5q-27 0 -42 -16t-15 -41v-12h-135v5q0 41 14.5 73.5t40 55.5t61.5 35.5t80 12.5q90 0 141.5 -49.5t51.5 -134.5v-316h-123z
M229 99q32 0 46 19t16 48v19h-55q-26 0 -44.5 -9t-18.5 -35q0 -23 13.5 -32.5t42.5 -9.5zM111 657h242v-98h-242v98z" />
    <glyph glyph-name="glyph491" horiz-adv-x="484" 
d="M300 39q-17 -22 -44 -35.5t-65 -13.5q-34 0 -63 8t-50.5 25t-33.5 43t-12 61q0 40 13 69t36 48t54.5 27.5t69.5 8.5h86v50q0 26 -14 41.5t-43 15.5q-27 0 -42 -16t-15 -41v-12h-135v5q0 41 14.5 73.5t40 55.5t61.5 35.5t80 12.5q90 0 141.5 -49.5t51.5 -134.5v-316h-123z
M229 99q32 0 46 19t16 48v19h-55q-26 0 -44.5 -9t-18.5 -35q0 -23 13.5 -32.5t42.5 -9.5zM358 676v-21q0 -24 -9 -45t-26 -36.5t-40.5 -24.5t-51.5 -9t-51 9t-39.5 24.5t-25.5 36.5t-9 45v21h82v-21q0 -19 11 -31.5t32 -12.5q22 0 33.5 12.5t11.5 31.5v21h82z" />
    <glyph glyph-name="glyph492" horiz-adv-x="484" 
d="M412 -118v-77h-66q-51 0 -76 23.5t-25 58.5q0 39 18.5 67.5t44.5 45.5l-8 39q-17 -22 -44 -35.5t-65 -13.5q-34 0 -63 8t-50.5 25t-33.5 43t-12 61q0 40 13 69t36 48t54.5 27.5t69.5 8.5h86v50q0 26 -14 41.5t-43 15.5q-27 0 -42 -16t-15 -41v-12h-135v5q0 41 14.5 73.5
t40 55.5t61.5 35.5t80 12.5q90 0 141.5 -49.5t51.5 -134.5v-316h-49q-24 -18 -40.5 -40.5t-16.5 -47.5q0 -14 9 -22t29 -8h49zM229 99q32 0 46 19t16 48v19h-55q-26 0 -44.5 -9t-18.5 -35q0 -23 13.5 -32.5t42.5 -9.5z" />
    <glyph glyph-name="glyph493" horiz-adv-x="354" 
d="M24 485h65v134h140v-134h95v-118h-95v-195q0 -26 16 -40t49 -14h30v-118h-47q-9 0 -18 0.5t-17 1.5l-12 -40h12q39 0 60 -19t21 -54t-22 -55.5t-59 -20.5h-119v63h103q6 0 10.5 2.5t4.5 9.5t-4.5 9.5t-10.5 2.5h-60l-22 18l30 102q-85 39 -85 160v187h-65v118z" />
    <glyph glyph-name="glyph494" horiz-adv-x="354" 
d="M24 485h65v134h140v-134h95v-118h-95v-195q0 -26 16 -40t49 -14h30v-118h-47q-92 0 -140 44.5t-48 135.5v187h-65v118zM406 677l-71 -163h-70l23 163h118z" />
    <glyph glyph-name="glyph495" horiz-adv-x="382" 
d="M44 484h65v134h140v-134h95v-118h-95v-62h76v-87h-76v-46q0 -26 16 -40t49 -14h30v-118h-47q-92 0 -140 44.5t-48 135.5v38h-76v87h76v62h-65v118z" />
    <glyph glyph-name="glyph496" horiz-adv-x="624" 
d="M294 485h65v134h140v-134h95v-118h-95v-195q0 -26 16 -40t49 -14h30v-118h-47q-92 0 -140 44.5t-48 135.5v187h-65v118zM262 559q-33 0 -49 -14t-16 -40v-505h-140v497q0 91 48 135.5t140 44.5h52v-118h-35z" />
    <glyph glyph-name="glyph497" horiz-adv-x="365" 
d="M255 -52l-95 -194h-83l38 194h140zM24 485h65v134h140v-134h95v-118h-95v-195q0 -26 16 -40t49 -14h30v-118h-47q-92 0 -140 44.5t-48 135.5v187h-65v118z" />
    </font>
</defs>
</svg>
